osu file format v14

[General]
AudioFilename: audio.mp3
AudioLeadIn: 0
PreviewTime: 37811
Countdown: 0
SampleSet: Normal
StackLeniency: 0.7
Mode: 1
LetterboxInBreaks: 0
WidescreenStoryboard: 1

[Editor]
DistanceSpacing: 0.6
BeatDivisor: 8
GridSize: 32
TimelineZoom: 2.5

[Metadata]
Title:Hana no Tou (TV Size)
TitleUnicode:花の塔 (TV Size)
Artist:Sayuri
ArtistUnicode:さユり
Creator:Quibby
Version:Futsuu
Source:リコリス・リコイル
Tags:Lycoris Recoil リコリコ LycoReco 錦木千束 Nishikigi Chisato 井ノ上たきな Inoue Takina Japanese Pop jpop j-pop ed ending anime Flower Tower rock jrock j-rock
BeatmapID:3746199
BeatmapSetID:1824884

[Difficulty]
HPDrainRate:7
CircleSize:5
OverallDifficulty:4
ApproachRate:5
SliderMultiplier:1.4
SliderTickRate:1

[Events]
//Background and Video events
0,0,"lycoreco.jpg",0,80
//Break Periods
//Storyboard Layer 0 (Background)
//Storyboard Layer 1 (Fail)
//Storyboard Layer 2 (Pass)
//Storyboard Layer 3 (Foreground)
//Storyboard Layer 4 (Overlay)
//Storyboard Sound Samples

[TimingPoints]
47,352.941176470588,4,1,0,80,1,0
12752,-100,4,1,0,60,0,0
25635,-100,4,1,0,50,0,0
31105,-100,4,1,0,70,0,0
38164,-100,4,1,0,80,0,1
81929,-100,4,1,0,80,0,0

[HitObjects]
282,206,47,5,4,0:0:0:0:
282,206,576,1,4,0:0:0:0:
282,206,1105,1,4,0:0:0:0:
282,206,1635,1,4,0:0:0:0:
257,251,2164,1,0,0:0:0:0:
219,227,2517,1,12,0:0:0:0:
309,183,2870,1,0,0:0:0:0:
287,210,3399,1,8,0:0:0:0:
287,210,3929,1,0,0:0:0:0:
254,157,4988,1,0,0:0:0:0:
192,112,5341,1,8,0:0:0:0:
270,212,5694,1,0,0:0:0:0:
179,72,6223,1,8,0:0:0:0:
83,194,6752,1,8,0:0:0:0:
83,194,7811,1,8,0:0:0:0:
387,201,8164,1,8,0:0:0:0:
268,195,8517,1,0,0:0:0:0:
243,187,9046,1,8,0:0:0:0:
259,176,9576,1,0,0:0:0:0:
330,172,10635,1,0,0:0:0:0:
330,172,10988,1,8,0:0:0:0:
234,138,11341,1,0,0:0:0:0:
234,138,11870,1,8,0:0:0:0:
244,183,12223,1,0,0:0:0:0:
200,141,12399,1,0,0:0:0:0:
287,211,12576,5,12,0:0:0:0:
310,192,13635,1,0,0:0:0:0:
212,147,13811,1,0,0:0:0:0:
292,192,14164,1,8,0:0:0:0:
304,182,14694,1,8,0:0:0:0:
265,139,15046,1,0,0:0:0:0:
212,194,15399,1,8,0:0:0:0:
373,130,16105,1,8,0:0:0:0:
168,188,16635,1,8,0:0:0:0:
166,194,16988,1,0,0:0:0:0:
166,194,17517,1,8,0:0:0:0:
272,159,17870,1,0,0:0:0:0:
287,161,18223,1,8,0:0:0:0:
236,164,18576,1,0,0:0:0:0:
319,170,18929,1,8,0:0:0:0:
287,161,19105,1,8,0:0:0:0:
217,151,19811,1,8,0:0:0:0:
209,244,20341,1,0,0:0:0:0:
198,195,20870,1,8,0:0:0:0:
148,165,21046,1,0,0:0:0:0:
365,91,21399,1,8,0:0:0:0:
184,188,21752,1,0,0:0:0:0:
184,188,21929,1,8,0:0:0:0:
223,141,22635,1,0,0:0:0:0:
242,22,23164,1,8,0:0:0:0:
206,186,23517,1,8,0:0:0:0:
206,186,23870,1,4,0:0:0:0:
232,192,24223,1,4,0:0:0:0:
164,206,24576,1,4,0:0:0:0:
164,206,24752,1,4,0:0:0:0:
164,206,25105,1,4,0:0:0:0:
108,186,25458,1,0,0:0:0:0:
306,140,25988,1,8,0:0:0:0:
275,185,26870,1,0,0:0:0:0:
234,71,27399,1,8,0:0:0:0:
326,190,27929,1,0,0:0:0:0:
303,176,28282,1,0,0:0:0:0:
221,150,28811,1,8,0:0:0:0:
303,176,29694,1,0,0:0:0:0:
303,176,30223,1,8,0:0:0:0:
169,183,30752,1,8,0:0:0:0:
169,183,31105,1,0,0:0:0:0:
154,179,31635,1,0,0:0:0:0:
191,89,32164,1,0,0:0:0:0:
221,171,32341,1,8,0:0:0:0:
284,259,32517,1,0,0:0:0:0:
105,163,33046,1,8,0:0:0:0:
419,224,33576,1,0,0:0:0:0:
182,169,33752,1,0,0:0:0:0:
265,204,33929,1,8,0:0:0:0:
265,204,34635,1,8,0:0:0:0:
265,204,34988,1,8,0:0:0:0:
386,194,35341,1,0,0:0:0:0:
171,214,35694,1,8,0:0:0:0:
214,178,35870,1,0,0:0:0:0:
241,181,36046,1,8,0:0:0:0:
241,181,36399,1,0,0:0:0:0:
231,174,36752,1,8,0:0:0:0:
231,174,36929,1,8,0:0:0:0:
236,176,37105,1,8,0:0:0:0:
236,176,37282,1,8,0:0:0:0:
236,176,37635,1,8,0:0:0:0:
236,176,38164,1,4,0:0:0:0:
361,239,38517,1,0,0:0:0:0:
251,176,38870,1,8,0:0:0:0:
180,187,39223,1,8,0:0:0:0:
257,61,39576,1,0,0:0:0:0:
319,159,39929,1,8,0:0:0:0:
199,38,40635,1,8,0:0:0:0:
243,85,40988,1,0,0:0:0:0:
243,85,41341,1,0,0:0:0:0:
200,168,41694,1,8,0:0:0:0:
212,173,42046,1,8,0:0:0:0:
322,171,42399,1,8,0:0:0:0:
322,171,43105,1,0,0:0:0:0:
232,168,43458,1,8,0:0:0:0:
232,168,43635,1,8,0:0:0:0:
232,168,43811,1,4,0:0:0:0:
361,239,44164,1,0,0:0:0:0:
251,176,44517,1,8,0:0:0:0:
180,187,44870,1,8,0:0:0:0:
257,61,45223,1,0,0:0:0:0:
257,61,45576,1,8,0:0:0:0:
199,38,46282,1,8,0:0:0:0:
243,85,46635,1,0,0:0:0:0:
243,85,46988,1,0,0:0:0:0:
200,168,47341,1,8,0:0:0:0:
212,173,47694,1,8,0:0:0:0:
157,136,48046,1,8,0:0:0:0:
322,171,48399,1,0,0:0:0:0:
322,171,48576,1,8,0:0:0:0:
175,175,48752,1,0,0:0:0:0:
232,168,48929,1,0,0:0:0:0:
232,168,49105,1,8,0:0:0:0:
232,168,49458,1,4,0:0:0:0:
361,239,49811,1,8,0:0:0:0:
251,176,50164,1,8,0:0:0:0:
180,187,50517,1,8,0:0:0:0:
257,61,50870,1,0,0:0:0:0:
257,61,51223,1,8,0:0:0:0:
257,61,51576,1,0,0:0:0:0:
243,85,52282,1,4,0:0:0:0:
243,85,52635,1,0,0:0:0:0:
200,168,52988,1,8,0:0:0:0:
212,173,53341,1,8,0:0:0:0:
322,171,53694,1,0,0:0:0:0:
322,171,54046,1,8,0:0:0:0:
204,202,54399,1,0,0:0:0:0:
232,168,54752,1,8,0:0:0:0:
232,168,55105,1,4,0:0:0:0:
319,195,55811,1,8,0:0:0:0:
319,195,56164,1,8,0:0:0:0:
99,126,56517,1,0,0:0:0:0:
311,159,57223,1,0,0:0:0:0:
311,159,57576,1,8,0:0:0:0:
315,176,57929,1,4,0:0:0:0:
315,176,58635,1,8,0:0:0:0:
232,102,58988,1,8,0:0:0:0:
249,51,59164,1,0,0:0:0:0:
315,176,60046,1,8,0:0:0:0:
346,126,60399,1,0,0:0:0:0:
346,126,60576,1,0,0:0:0:0:
346,126,60752,1,12,0:0:0:0:
286,195,61105,1,0,0:0:0:0:
286,195,61282,1,8,0:0:0:0:
286,195,61458,1,0,0:0:0:0:
373,103,61811,1,8,0:0:0:0:
263,151,62164,1,0,0:0:0:0:
382,160,62517,1,8,0:0:0:0:
382,160,62694,1,8,0:0:0:0:
382,160,62870,1,0,0:0:0:0:
382,160,63223,1,8,0:0:0:0:
302,128,63576,1,0,0:0:0:0:
329,163,63929,1,0,0:0:0:0:
343,157,64105,1,8,0:0:0:0:
343,157,64282,1,0,0:0:0:0:
218,33,64635,1,8,0:0:0:0:
302,128,64988,1,0,0:0:0:0:
343,157,65694,1,0,0:0:0:0:
168,199,66046,1,0,0:0:0:0:
144,213,66223,1,0,0:0:0:0:
148,120,66399,1,12,0:0:0:0:
286,195,66752,1,0,0:0:0:0:
286,195,66929,1,8,0:0:0:0:
286,195,67105,1,0,0:0:0:0:
373,103,67458,1,8,0:0:0:0:
373,109,67811,1,0,0:0:0:0:
205,206,68164,1,8,0:0:0:0:
382,160,68341,1,8,0:0:0:0:
382,160,68517,1,0,0:0:0:0:
382,160,68870,1,8,0:0:0:0:
302,128,69223,1,0,0:0:0:0:
170,152,69576,1,0,0:0:0:0:
170,152,69752,1,8,0:0:0:0:
343,157,69929,1,0,0:0:0:0:
218,33,70282,1,8,0:0:0:0:
302,128,70635,1,0,0:0:0:0:
327,168,71341,5,8,0:0:0:0:
218,33,71694,1,0,0:0:0:0:
209,166,71870,1,0,0:0:0:0:
148,120,72046,1,12,0:0:0:0:
171,172,72399,1,0,0:0:0:0:
251,176,72752,1,8,0:0:0:0:
180,187,73105,1,8,0:0:0:0:
257,61,73458,1,0,0:0:0:0:
257,61,73811,1,8,0:0:0:0:
292,184,74164,1,8,0:0:0:0:
243,85,74870,1,4,0:0:0:0:
243,85,75223,1,8,0:0:0:0:
200,168,75576,1,8,0:0:0:0:
212,173,75929,1,8,0:0:0:0:
322,171,76282,1,0,0:0:0:0:
322,171,76635,1,8,0:0:0:0:
250,184,76988,1,0,0:0:0:0:
232,168,77694,1,4,0:0:0:0:
282,196,78046,1,8,0:0:0:0:
319,195,78752,1,8,0:0:0:0:
99,126,79105,1,0,0:0:0:0:
311,159,79458,1,8,0:0:0:0:
311,159,79811,1,8,0:0:0:0:
311,159,80164,1,8,0:0:0:0:
315,176,80517,1,0,0:0:0:0:
315,176,81223,1,8,0:0:0:0:
232,102,81576,1,8,0:0:0:0:
209,164,81929,1,4,0:0:0:0:
268,195,83341,1,0,0:0:0:0:
243,187,83870,1,8,0:0:0:0:
259,176,84399,1,0,0:0:0:0:
330,172,85458,1,0,0:0:0:0:
330,172,85811,1,8,0:0:0:0:
234,138,86164,1,0,0:0:0:0:
234,138,86694,1,8,0:0:0:0:
244,183,87046,1,0,0:0:0:0:
244,183,87223,1,0,0:0:0:0:
287,211,87399,5,12,0:0:0:0:
