osu file format v14

[General]
AudioFilename: audio.ogg
AudioLeadIn: 0
PreviewTime: 37988
Countdown: 0
SampleSet: Normal
StackLeniency: 0.7
Mode: 1
LetterboxInBreaks: 0
WidescreenStoryboard: 0

[Editor]
DistanceSpacing: 0.8
BeatDivisor: 4
GridSize: 8
TimelineZoom: 3.499999

[Metadata]
Title:Hana no Tou
TitleUnicode:花の塔
Artist:Sayuri
ArtistUnicode:さユり
Creator:Rinze
Version:Resonance
Source:リコリス・リコイル
Tags:ler1211 layxa Lycoris Recoil japanese anime Tower of Flower 酸欠少女 Sanketsu-girl 宮田'レフティ'リョウ Ryo 'Lefty' Miyata ED ending full ver. version リコリコ LycoReco 錦木 千束 Nishikigi Chisato 井ノ上 たきな Inoue Takina Pop jpop j-pop
BeatmapID:3773734
BeatmapSetID:1837847

[Difficulty]
HPDrainRate:5.5
CircleSize:5
OverallDifficulty:6
ApproachRate:5
SliderMultiplier:1.4
SliderTickRate:1

[Events]
//Background and Video events
0,0,"lyco.jpg",0,0
//Break Periods
//Storyboard Layer 0 (Background)
//Storyboard Layer 1 (Fail)
//Storyboard Layer 2 (Pass)
//Storyboard Layer 3 (Foreground)
//Storyboard Layer 4 (Overlay)
//Storyboard Sound Samples

[TimingPoints]
224,352.941176470588,4,1,0,80,1,0
3047,352.941176470588,4,1,0,80,1,0
3047,-100,4,1,0,80,0,0
14341,-100,4,1,0,80,0,0
25635,-100,4,1,0,80,0,0
38341,352.941176470588,4,1,0,90,1,1
38341,-100,4,1,0,90,0,1
83517,-100,4,1,0,80,0,0
94811,-100,4,1,0,80,0,0
106104,-100,4,1,0,80,0,0
117399,-100,4,1,0,90,0,1
162576,-100,4,1,0,80,0,0
173870,-100,4,1,0,60,0,0
185164,-100,4,1,0,70,0,0
193633,-100,4,1,0,80,0,0
200341,-100,4,1,0,40,0,0
200693,352.941176470588,4,1,0,40,1,0
203297,-100,4,1,0,80,0,0
203516,-100,4,1,0,90,0,1
254518,-100,4,1,0,40,0,1
258400,-100,4,1,0,80,0,1
258575,352.941176470588,4,1,0,80,1,0
258575,-100,4,1,0,80,0,0

[HitObjects]
256,192,224,5,4,0:0:0:0:
256,192,400,1,12,0:0:0:0:
256,192,753,1,12,0:0:0:0:
256,192,929,1,4,0:0:0:0:
256,192,1282,1,4,0:0:0:0:
256,192,1459,1,12,0:0:0:0:
256,192,1812,1,12,0:0:0:0:
256,192,1988,1,4,0:0:0:0:
256,192,2165,1,8,0:0:0:0:
256,192,2253,1,0,0:0:0:0:
256,192,2341,1,8,0:0:0:0:
256,192,2429,1,8,0:0:0:0:
256,192,2518,1,0,0:0:0:0:
256,192,2694,1,12,0:0:0:0:
256,192,3047,1,4,0:0:0:0:
256,192,3223,1,8,0:0:0:0:
256,192,3311,1,8,0:0:0:0:
256,192,3399,1,0,0:0:0:0:
256,192,3576,1,8,0:0:0:0:
256,192,3752,1,0,0:0:0:0:
256,192,3841,1,0,0:0:0:0:
256,192,3929,1,8,0:0:0:0:
256,192,4105,1,0,0:0:0:0:
256,192,4282,1,8,0:0:0:0:
256,192,4370,1,0,0:0:0:0:
256,192,4546,1,0,0:0:0:0:
256,192,4635,1,8,0:0:0:0:
256,192,4811,1,0,0:0:0:0:
256,192,4988,1,8,0:0:0:0:
256,192,5076,1,8,0:0:0:0:
256,192,5164,1,0,0:0:0:0:
256,192,5341,1,0,0:0:0:0:
256,192,5517,1,8,0:0:0:0:
256,192,5870,1,0,0:0:0:0:
256,192,6046,1,8,0:0:0:0:
256,192,6135,1,8,0:0:0:0:
256,192,6223,1,8,0:0:0:0:
256,192,6399,1,0,0:0:0:0:
256,192,6576,1,8,0:0:0:0:
256,192,6664,1,8,0:0:0:0:
256,192,6752,1,0,0:0:0:0:
256,192,6929,1,8,0:0:0:0:
256,192,7105,1,0,0:0:0:0:
256,192,7194,1,8,0:0:0:0:
256,192,7370,1,8,0:0:0:0:
256,192,7458,1,0,0:0:0:0:
256,192,7546,1,0,0:0:0:0:
256,192,7635,1,8,0:0:0:0:
256,192,7811,1,0,0:0:0:0:
256,192,7988,1,12,0:0:0:0:
256,192,8164,1,0,0:0:0:0:
256,192,8341,1,12,0:0:0:0:
256,192,8694,1,4,0:0:0:0:
256,192,8870,1,8,0:0:0:0:
256,192,8958,1,8,0:0:0:0:
256,192,9046,1,0,0:0:0:0:
256,192,9223,1,8,0:0:0:0:
256,192,9399,1,0,0:0:0:0:
256,192,9488,1,0,0:0:0:0:
256,192,9576,1,0,0:0:0:0:
256,192,9752,1,8,0:0:0:0:
256,192,9841,1,8,0:0:0:0:
256,192,9929,1,0,0:0:0:0:
256,192,10017,1,0,0:0:0:0:
256,192,10194,1,0,0:0:0:0:
256,192,10282,1,8,0:0:0:0:
256,192,10458,1,0,0:0:0:0:
256,192,10635,1,8,0:0:0:0:
256,192,10723,1,8,0:0:0:0:
256,192,10811,1,0,0:0:0:0:
256,192,10988,1,0,0:0:0:0:
256,192,11164,1,8,0:0:0:0:
256,192,11341,1,0,0:0:0:0:
256,192,11429,1,0,0:0:0:0:
256,192,11517,1,8,0:0:0:0:
256,192,11605,1,8,0:0:0:0:
256,192,11694,1,0,0:0:0:0:
256,192,11782,1,8,0:0:0:0:
256,192,11870,1,0,0:0:0:0:
256,192,11958,1,0,0:0:0:0:
256,192,12046,1,8,0:0:0:0:
256,192,12135,1,8,0:0:0:0:
256,192,12223,1,0,0:0:0:0:
256,192,12399,1,12,0:0:0:0:
256,192,12576,1,8,0:0:0:0:
256,192,12752,1,4,0:0:0:0:
256,192,13811,1,0,0:0:0:0:
256,192,13899,1,0,0:0:0:0:
256,192,13988,1,8,0:0:0:0:
256,192,14341,1,4,0:0:0:0:
256,192,14517,1,0,0:0:0:0:
256,192,14694,1,8,0:0:0:0:
256,192,14870,1,0,0:0:0:0:
256,192,15223,1,0,0:0:0:0:
256,192,15399,1,8,0:0:0:0:
256,192,15576,1,0,0:0:0:0:
256,192,15664,1,0,0:0:0:0:
256,192,15752,1,8,0:0:0:0:
256,192,15929,1,8,0:0:0:0:
256,192,16105,1,0,0:0:0:0:
256,192,16282,1,8,0:0:0:0:
256,192,16635,1,8,0:0:0:0:
256,192,16811,1,0,0:0:0:0:
256,192,16899,1,0,0:0:0:0:
256,192,16988,1,0,0:0:0:0:
256,192,17164,1,8,0:0:0:0:
256,192,17341,1,0,0:0:0:0:
256,192,17429,1,8,0:0:0:0:
256,192,17517,1,0,0:0:0:0:
256,192,17694,1,8,0:0:0:0:
256,192,18046,1,8,0:0:0:0:
256,192,18223,1,0,0:0:0:0:
256,192,18399,1,8,0:0:0:0:
256,192,18488,1,8,0:0:0:0:
256,192,18576,1,0,0:0:0:0:
256,192,18752,1,8,0:0:0:0:
256,192,18929,1,8,0:0:0:0:
256,192,19105,1,0,0:0:0:0:
256,192,19194,1,0,0:0:0:0:
256,192,19282,1,0,0:0:0:0:
256,192,19458,1,12,0:0:0:0:
256,192,19635,1,12,0:0:0:0:
256,192,19988,1,0,0:0:0:0:
256,192,20164,1,0,0:0:0:0:
256,192,20252,1,0,0:0:0:0:
256,192,20341,1,8,0:0:0:0:
256,192,20517,1,0,0:0:0:0:
256,192,20694,1,8,0:0:0:0:
256,192,20782,1,8,0:0:0:0:
256,192,20870,1,8,0:0:0:0:
256,192,21046,1,0,0:0:0:0:
256,192,21223,1,8,0:0:0:0:
256,192,21576,1,8,0:0:0:0:
256,192,21752,1,0,0:0:0:0:
256,192,21929,1,8,0:0:0:0:
256,192,22017,1,0,0:0:0:0:
256,192,22105,1,8,0:0:0:0:
256,192,22282,1,0,0:0:0:0:
256,192,22458,1,8,0:0:0:0:
256,192,22546,1,8,0:0:0:0:
256,192,22635,1,0,0:0:0:0:
256,192,22811,1,12,0:0:0:0:
256,192,23164,1,8,0:0:0:0:
256,192,23341,1,0,0:0:0:0:
256,192,23429,1,0,0:0:0:0:
256,192,23517,1,0,0:0:0:0:
256,192,23694,1,8,0:0:0:0:
256,192,23870,1,8,0:0:0:0:
256,192,24046,1,4,0:0:0:0:
256,192,24399,1,4,0:0:0:0:
256,192,24752,1,12,0:0:0:0:
256,192,24929,1,12,0:0:0:0:
256,192,25105,1,0,0:0:0:0:
256,192,25282,1,8,0:0:0:0:
256,192,25370,1,8,0:0:0:0:
256,192,25458,1,8,0:0:0:0:
256,192,25635,1,4,0:0:0:0:
256,192,26164,1,8,0:0:0:0:
256,192,26517,1,0,0:0:0:0:
256,192,26694,1,8,0:0:0:0:
256,192,27046,1,0,0:0:0:0:
256,192,27311,1,0,0:0:0:0:
256,192,27576,1,8,0:0:0:0:
256,192,27929,1,0,0:0:0:0:
256,192,28105,1,8,0:0:0:0:
256,192,28282,1,8,0:0:0:0:
256,192,28370,1,8,0:0:0:0:
256,192,28458,1,0,0:0:0:0:
256,192,28988,1,8,0:0:0:0:
256,192,29341,1,0,0:0:0:0:
256,192,29517,1,8,0:0:0:0:
256,192,29870,1,0,0:0:0:0:
256,192,30046,1,8,0:0:0:0:
256,192,30223,1,0,0:0:0:0:
256,192,30399,1,12,0:0:0:0:
256,192,30752,1,0,0:0:0:0:
256,192,30929,1,8,0:0:0:0:
256,192,31105,1,8,0:0:0:0:
256,192,31282,1,4,0:0:0:0:
256,192,31635,1,0,0:0:0:0:
256,192,31811,1,8,0:0:0:0:
256,192,31988,1,0,0:0:0:0:
256,192,32076,1,0,0:0:0:0:
256,192,32164,1,8,0:0:0:0:
256,192,32252,1,0,0:0:0:0:
256,192,32341,1,8,0:0:0:0:
256,192,32517,1,0,0:0:0:0:
256,192,32605,1,0,0:0:0:0:
256,192,32694,1,8,0:0:0:0:
256,192,32870,1,0,0:0:0:0:
256,192,32958,1,8,0:0:0:0:
256,192,33046,1,0,0:0:0:0:
256,192,33135,1,0,0:0:0:0:
256,192,33223,1,8,0:0:0:0:
256,192,33399,1,0,0:0:0:0:
256,192,33488,1,0,0:0:0:0:
256,192,33576,1,8,0:0:0:0:
256,192,33664,1,8,0:0:0:0:
256,192,33752,1,0,0:0:0:0:
256,192,33929,1,8,0:0:0:0:
256,192,34105,1,4,0:0:0:0:
256,192,34458,1,0,0:0:0:0:
256,192,34635,1,0,0:0:0:0:
256,192,34811,1,8,0:0:0:0:
256,192,34988,1,0,0:0:0:0:
256,192,35164,1,8,0:0:0:0:
256,192,35252,1,8,0:0:0:0:
256,192,35341,1,8,0:0:0:0:
256,192,35517,1,4,0:0:0:0:
256,192,35782,1,8,0:0:0:0:
256,192,35870,1,0,0:0:0:0:
256,192,36046,1,8,0:0:0:0:
256,192,36223,1,0,0:0:0:0:
256,192,36311,1,0,0:0:0:0:
256,192,36399,1,0,0:0:0:0:
256,192,36576,1,8,0:0:0:0:
256,192,36664,1,0,0:0:0:0:
256,192,36752,1,0,0:0:0:0:
256,192,36841,1,0,0:0:0:0:
256,192,36929,1,8,0:0:0:0:
256,192,37017,1,8,0:0:0:0:
256,192,37105,1,0,0:0:0:0:
256,192,37194,1,8,0:0:0:0:
256,192,37282,1,0,0:0:0:0:
256,192,37370,1,0,0:0:0:0:
256,192,37458,1,8,0:0:0:0:
256,192,37811,1,8,0:0:0:0:
256,192,38341,1,4,0:0:0:0:
256,192,38605,1,0,0:0:0:0:
256,192,38693,1,8,0:0:0:0:
256,192,38870,1,0,0:0:0:0:
256,192,39046,1,8,0:0:0:0:
256,192,39135,1,8,0:0:0:0:
256,192,39223,1,8,0:0:0:0:
256,192,39399,1,0,0:0:0:0:
256,192,39488,1,0,0:0:0:0:
256,192,39576,1,8,0:0:0:0:
256,192,39664,1,8,0:0:0:0:
256,192,39752,1,0,0:0:0:0:
256,192,39929,1,0,0:0:0:0:
256,192,40105,1,8,0:0:0:0:
256,192,40282,1,0,0:0:0:0:
256,192,40370,1,8,0:0:0:0:
256,192,40458,1,0,0:0:0:0:
256,192,40635,1,8,0:0:0:0:
256,192,40723,1,8,0:0:0:0:
256,192,40811,1,0,0:0:0:0:
256,192,40988,1,0,0:0:0:0:
256,192,41164,1,8,0:0:0:0:
256,192,41252,1,0,0:0:0:0:
256,192,41341,1,0,0:0:0:0:
256,192,41429,1,0,0:0:0:0:
256,192,41517,1,8,0:0:0:0:
256,192,41605,1,8,0:0:0:0:
256,192,41693,1,0,0:0:0:0:
256,192,41870,1,8,0:0:0:0:
256,192,42046,1,0,0:0:0:0:
256,192,42135,1,0,0:0:0:0:
256,192,42223,1,8,0:0:0:0:
256,192,42311,1,0,0:0:0:0:
256,192,42399,1,8,0:0:0:0:
256,192,42488,1,8,0:0:0:0:
256,192,42576,1,0,0:0:0:0:
256,192,42752,1,0,0:0:0:0:
256,192,42929,1,8,0:0:0:0:
256,192,43017,1,0,0:0:0:0:
256,192,43193,1,8,0:0:0:0:
256,192,43370,1,8,0:0:0:0:
256,192,43458,1,0,0:0:0:0:
256,192,43635,1,8,0:0:0:0:
256,192,43811,1,8,0:0:0:0:
256,192,43988,1,4,0:0:0:0:
256,192,44252,1,0,0:0:0:0:
256,192,44341,1,8,0:0:0:0:
256,192,44517,1,8,0:0:0:0:
256,192,44693,1,0,0:0:0:0:
256,192,44782,1,0,0:0:0:0:
256,192,44870,1,8,0:0:0:0:
256,192,44958,1,0,0:0:0:0:
256,192,45046,1,8,0:0:0:0:
256,192,45223,1,0,0:0:0:0:
256,192,45399,1,8,0:0:0:0:
256,192,45488,1,8,0:0:0:0:
256,192,45576,1,0,0:0:0:0:
256,192,45752,1,8,0:0:0:0:
256,192,45929,1,0,0:0:0:0:
256,192,46017,1,0,0:0:0:0:
256,192,46105,1,8,0:0:0:0:
256,192,46282,1,8,0:0:0:0:
256,192,46370,1,8,0:0:0:0:
256,192,46458,1,0,0:0:0:0:
256,192,46546,1,0,0:0:0:0:
256,192,46635,1,8,0:0:0:0:
256,192,46723,1,0,0:0:0:0:
256,192,46811,1,8,0:0:0:0:
256,192,46988,1,0,0:0:0:0:
256,192,47164,1,8,0:0:0:0:
256,192,47252,1,8,0:0:0:0:
256,192,47340,1,8,0:0:0:0:
256,192,47517,1,0,0:0:0:0:
256,192,47693,1,0,0:0:0:0:
256,192,47870,1,12,0:0:0:0:
256,192,48223,1,0,0:0:0:0:
256,192,48399,1,8,0:0:0:0:
256,192,48488,1,0,0:0:0:0:
256,192,48576,1,8,0:0:0:0:
256,192,48664,1,8,0:0:0:0:
256,192,48752,1,0,0:0:0:0:
256,192,48929,1,8,0:0:0:0:
256,192,49017,1,0,0:0:0:0:
256,192,49105,1,0,0:0:0:0:
256,192,49193,1,0,0:0:0:0:
256,192,49282,1,8,0:0:0:0:
256,192,49458,1,8,0:0:0:0:
256,192,49635,1,4,0:0:0:0:
256,192,49899,1,0,0:0:0:0:
256,192,49988,1,8,0:0:0:0:
256,192,50164,1,8,0:0:0:0:
256,192,50340,1,0,0:0:0:0:
256,192,50429,1,0,0:0:0:0:
256,192,50517,1,0,0:0:0:0:
256,192,50693,1,8,0:0:0:0:
256,192,50782,1,8,0:0:0:0:
256,192,50870,1,0,0:0:0:0:
256,192,50958,1,0,0:0:0:0:
256,192,51046,1,8,0:0:0:0:
256,192,51223,1,0,0:0:0:0:
256,192,51399,1,8,0:0:0:0:
256,192,51488,1,8,0:0:0:0:
256,192,51576,1,0,0:0:0:0:
256,192,51752,1,8,0:0:0:0:
256,192,51929,1,0,0:0:0:0:
256,192,52017,1,0,0:0:0:0:
256,192,52105,1,8,0:0:0:0:
256,192,52193,1,8,0:0:0:0:
256,192,52282,1,8,0:0:0:0:
256,192,52370,1,8,0:0:0:0:
256,192,52458,1,0,0:0:0:0:
256,192,52635,1,0,0:0:0:0:
256,192,52811,1,8,0:0:0:0:
256,192,52899,1,8,0:0:0:0:
256,192,52988,1,8,0:0:0:0:
256,192,53164,1,0,0:0:0:0:
256,192,53252,1,0,0:0:0:0:
256,192,53340,1,8,0:0:0:0:
256,192,53429,1,0,0:0:0:0:
256,192,53517,1,8,0:0:0:0:
256,192,53693,1,0,0:0:0:0:
256,192,53870,1,8,0:0:0:0:
256,192,53958,1,0,0:0:0:0:
256,192,54135,1,0,0:0:0:0:
256,192,54223,1,8,0:0:0:0:
256,192,54399,1,0,0:0:0:0:
256,192,54576,1,8,0:0:0:0:
256,192,54664,1,0,0:0:0:0:
256,192,54752,1,8,0:0:0:0:
256,192,54840,1,8,0:0:0:0:
256,192,54929,1,0,0:0:0:0:
256,192,55105,1,8,0:0:0:0:
256,192,55282,1,4,0:0:0:0:
256,192,55635,1,12,0:0:0:0:
256,192,55899,1,0,0:0:0:0:
256,192,55988,1,0,0:0:0:0:
256,192,56164,1,0,0:0:0:0:
256,192,56340,1,12,0:0:0:0:
256,192,56693,1,0,0:0:0:0:
256,192,56870,1,0,0:0:0:0:
256,192,57046,1,12,0:0:0:0:
256,192,57311,1,0,0:0:0:0:
256,192,57399,1,0,0:0:0:0:
256,192,57576,1,0,0:0:0:0:
256,192,57752,1,12,0:0:0:0:
256,192,58105,1,4,0:0:0:0:
256,192,58282,1,0,0:0:0:0:
256,192,58458,1,12,0:0:0:0:
256,192,58723,1,0,0:0:0:0:
256,192,58811,1,0,0:0:0:0:
256,192,58988,1,0,0:0:0:0:
256,192,59164,1,8,0:0:0:0:
256,192,59340,1,4,0:0:0:0:
256,192,59693,1,8,0:0:0:0:
256,192,59870,1,8,0:0:0:0:
256,192,60046,1,0,0:0:0:0:
256,192,60223,1,12,0:0:0:0:
256,192,60399,1,0,0:0:0:0:
256,192,60576,1,8,0:0:0:0:
256,192,60664,1,8,0:0:0:0:
256,192,60752,1,8,0:0:0:0:
256,192,60929,1,4,0:0:0:0:
256,192,61193,1,0,0:0:0:0:
256,192,61282,1,8,0:0:0:0:
256,192,61458,1,8,0:0:0:0:
256,192,61635,1,0,0:0:0:0:
256,192,61723,1,0,0:0:0:0:
256,192,61811,1,0,0:0:0:0:
256,192,61988,1,8,0:0:0:0:
256,192,62076,1,8,0:0:0:0:
256,192,62164,1,0,0:0:0:0:
256,192,62252,1,0,0:0:0:0:
256,192,62340,1,8,0:0:0:0:
256,192,62517,1,8,0:0:0:0:
256,192,62693,1,0,0:0:0:0:
256,192,62782,1,0,0:0:0:0:
256,192,62870,1,8,0:0:0:0:
256,192,63046,1,0,0:0:0:0:
256,192,63135,1,8,0:0:0:0:
256,192,63223,1,0,0:0:0:0:
256,192,63311,1,0,0:0:0:0:
256,192,63399,1,8,0:0:0:0:
256,192,63576,1,0,0:0:0:0:
256,192,63752,1,12,0:0:0:0:
256,192,64105,1,0,0:0:0:0:
256,192,64282,1,8,0:0:0:0:
256,192,64458,1,0,0:0:0:0:
256,192,64546,1,0,0:0:0:0:
256,192,64635,1,0,0:0:0:0:
256,192,64811,1,8,0:0:0:0:
256,192,64988,1,0,0:0:0:0:
256,192,65076,1,0,0:0:0:0:
256,192,65164,1,8,0:0:0:0:
256,192,65252,1,8,0:0:0:0:
256,192,65340,1,8,0:0:0:0:
256,192,65429,1,8,0:0:0:0:
256,192,65517,1,0,0:0:0:0:
256,192,65693,1,12,0:0:0:0:
256,192,65870,1,0,0:0:0:0:
256,192,66046,1,0,0:0:0:0:
256,192,66135,1,0,0:0:0:0:
256,192,66223,1,8,0:0:0:0:
256,192,66399,1,8,0:0:0:0:
256,192,66576,1,4,0:0:0:0:
256,192,66840,1,0,0:0:0:0:
256,192,66929,1,8,0:0:0:0:
256,192,67105,1,8,0:0:0:0:
256,192,67282,1,0,0:0:0:0:
256,192,67370,1,0,0:0:0:0:
256,192,67458,1,8,0:0:0:0:
256,192,67546,1,0,0:0:0:0:
256,192,67635,1,8,0:0:0:0:
256,192,67811,1,0,0:0:0:0:
256,192,67988,1,12,0:0:0:0:
256,192,68340,1,0,0:0:0:0:
256,192,68517,1,8,0:0:0:0:
256,192,68693,1,0,0:0:0:0:
256,192,68782,1,8,0:0:0:0:
256,192,68870,1,0,0:0:0:0:
256,192,68958,1,0,0:0:0:0:
256,192,69046,1,8,0:0:0:0:
256,192,69223,1,0,0:0:0:0:
256,192,69399,1,12,0:0:0:0:
256,192,69752,1,0,0:0:0:0:
256,192,69929,1,8,0:0:0:0:
256,192,70017,1,8,0:0:0:0:
256,192,70105,1,0,0:0:0:0:
256,192,70282,1,0,0:0:0:0:
256,192,70458,1,8,0:0:0:0:
256,192,70635,1,8,0:0:0:0:
256,192,70811,1,0,0:0:0:0:
256,192,70899,1,0,0:0:0:0:
256,192,70988,1,0,0:0:0:0:
256,192,71164,1,12,0:0:0:0:
256,192,71340,1,0,0:0:0:0:
256,192,71429,1,0,0:0:0:0:
256,192,71517,1,0,0:0:0:0:
256,192,71693,1,12,0:0:0:0:
256,192,71870,1,0,0:0:0:0:
256,192,72046,1,8,0:0:0:0:
256,192,72223,1,4,0:0:0:0:
256,192,72488,1,0,0:0:0:0:
256,192,72576,1,8,0:0:0:0:
256,192,72752,1,8,0:0:0:0:
256,192,72929,1,0,0:0:0:0:
256,192,73017,1,0,0:0:0:0:
256,192,73105,1,0,0:0:0:0:
256,192,73282,1,8,0:0:0:0:
256,192,73370,1,8,0:0:0:0:
256,192,73458,1,0,0:0:0:0:
256,192,73546,1,0,0:0:0:0:
256,192,73635,1,8,0:0:0:0:
256,192,73811,1,0,0:0:0:0:
256,192,73988,1,8,0:0:0:0:
256,192,74076,1,8,0:0:0:0:
256,192,74252,1,0,0:0:0:0:
256,192,74340,1,8,0:0:0:0:
256,192,74517,1,0,0:0:0:0:
256,192,74693,1,8,0:0:0:0:
256,192,74782,1,8,0:0:0:0:
256,192,74870,1,0,0:0:0:0:
256,192,75046,1,12,0:0:0:0:
256,192,75311,1,0,0:0:0:0:
256,192,75399,1,8,0:0:0:0:
256,192,75576,1,0,0:0:0:0:
256,192,75752,1,12,0:0:0:0:
256,192,76017,1,0,0:0:0:0:
256,192,76105,1,8,0:0:0:0:
256,192,76282,1,8,0:0:0:0:
256,192,76458,1,4,0:0:0:0:
256,192,76635,1,0,0:0:0:0:
256,192,76723,1,0,0:0:0:0:
256,192,76811,1,8,0:0:0:0:
256,192,76899,1,8,0:0:0:0:
256,192,77076,1,0,0:0:0:0:
256,192,77164,1,8,0:0:0:0:
256,192,77340,1,0,0:0:0:0:
256,192,77517,1,12,0:0:0:0:
256,192,77693,1,8,0:0:0:0:
256,192,77870,1,4,0:0:0:0:
256,192,78223,1,8,0:0:0:0:
256,192,78488,1,0,0:0:0:0:
256,192,78576,1,8,0:0:0:0:
256,192,78752,1,0,0:0:0:0:
256,192,78929,1,8,0:0:0:0:
256,192,79017,1,8,0:0:0:0:
256,192,79105,1,0,0:0:0:0:
256,192,79193,1,0,0:0:0:0:
256,192,79282,1,8,0:0:0:0:
256,192,79458,1,8,0:0:0:0:
256,192,79635,1,0,0:0:0:0:
256,192,79723,1,0,0:0:0:0:
256,192,79811,1,0,0:0:0:0:
256,192,79988,1,8,0:0:0:0:
256,192,80164,1,0,0:0:0:0:
256,192,80252,1,0,0:0:0:0:
256,192,80340,1,8,0:0:0:0:
256,192,80517,1,8,0:0:0:0:
256,192,80693,1,4,0:0:0:0:
256,192,81046,1,0,0:0:0:0:
256,192,81223,1,12,0:0:0:0:
256,192,81576,1,0,0:0:0:0:
256,192,81752,1,8,0:0:0:0:
256,192,81929,1,8,0:0:0:0:
256,192,82105,1,4,0:0:0:0:
256,192,83517,1,4,0:0:0:0:
256,192,83693,1,8,0:0:0:0:
256,192,83782,1,8,0:0:0:0:
256,192,83870,1,0,0:0:0:0:
256,192,84046,1,8,0:0:0:0:
256,192,84223,1,0,0:0:0:0:
256,192,84311,1,0,0:0:0:0:
256,192,84399,1,8,0:0:0:0:
256,192,84576,1,0,0:0:0:0:
256,192,84752,1,8,0:0:0:0:
256,192,84840,1,0,0:0:0:0:
256,192,85017,1,0,0:0:0:0:
256,192,85105,1,8,0:0:0:0:
256,192,85282,1,0,0:0:0:0:
256,192,85458,1,8,0:0:0:0:
256,192,85546,1,8,0:0:0:0:
256,192,85635,1,0,0:0:0:0:
256,192,85811,1,0,0:0:0:0:
256,192,85988,1,8,0:0:0:0:
256,192,86340,1,0,0:0:0:0:
256,192,86517,1,8,0:0:0:0:
256,192,86605,1,8,0:0:0:0:
256,192,86693,1,8,0:0:0:0:
256,192,86870,1,0,0:0:0:0:
256,192,87046,1,8,0:0:0:0:
256,192,87135,1,8,0:0:0:0:
256,192,87223,1,0,0:0:0:0:
256,192,87399,1,8,0:0:0:0:
256,192,87576,1,0,0:0:0:0:
256,192,87664,1,8,0:0:0:0:
256,192,87840,1,8,0:0:0:0:
256,192,87929,1,0,0:0:0:0:
256,192,88017,1,0,0:0:0:0:
256,192,88105,1,8,0:0:0:0:
256,192,88282,1,0,0:0:0:0:
256,192,88458,1,12,0:0:0:0:
256,192,88635,1,0,0:0:0:0:
256,192,88811,1,12,0:0:0:0:
256,192,89164,1,4,0:0:0:0:
256,192,89340,1,8,0:0:0:0:
256,192,89429,1,8,0:0:0:0:
256,192,89517,1,0,0:0:0:0:
256,192,89693,1,8,0:0:0:0:
256,192,89870,1,0,0:0:0:0:
256,192,89958,1,0,0:0:0:0:
256,192,90046,1,0,0:0:0:0:
256,192,90223,1,8,0:0:0:0:
256,192,90311,1,8,0:0:0:0:
256,192,90399,1,0,0:0:0:0:
256,192,90488,1,0,0:0:0:0:
256,192,90664,1,0,0:0:0:0:
256,192,90752,1,8,0:0:0:0:
256,192,90929,1,4,0:0:0:0:
256,192,91282,1,8,0:0:0:0:
256,192,91458,1,8,0:0:0:0:
256,192,91635,1,0,0:0:0:0:
256,192,91723,1,0,0:0:0:0:
256,192,91811,1,8,0:0:0:0:
256,192,91870,1,8,0:0:0:0:
256,192,91929,1,8,0:0:0:0:
256,192,91988,1,0,0:0:0:0:
256,192,92164,1,12,0:0:0:0:
256,192,92340,1,0,0:0:0:0:
256,192,92517,1,8,0:0:0:0:
256,192,92605,1,8,0:0:0:0:
256,192,92693,1,0,0:0:0:0:
256,192,92870,1,12,0:0:0:0:
256,192,93046,1,8,0:0:0:0:
256,192,93223,1,4,0:0:0:0:
256,192,93576,1,0,0:0:0:0:
256,192,93752,1,8,0:0:0:0:
256,192,93840,1,8,0:0:0:0:
256,192,93929,1,8,0:0:0:0:
256,192,94105,1,0,0:0:0:0:
256,192,94282,1,8,0:0:0:0:
256,192,94370,1,8,0:0:0:0:
256,192,94458,1,0,0:0:0:0:
256,192,94546,1,0,0:0:0:0:
256,192,94635,1,8,0:0:0:0:
256,192,94811,1,4,0:0:0:0:
256,192,94988,1,0,0:0:0:0:
256,192,95164,1,8,0:0:0:0:
256,192,95340,1,0,0:0:0:0:
256,192,95693,1,0,0:0:0:0:
256,192,95870,1,8,0:0:0:0:
256,192,96046,1,8,0:0:0:0:
256,192,96135,1,8,0:0:0:0:
256,192,96223,1,0,0:0:0:0:
256,192,96399,1,0,0:0:0:0:
256,192,96576,1,8,0:0:0:0:
256,192,96752,1,0,0:0:0:0:
256,192,97105,1,0,0:0:0:0:
256,192,97282,1,8,0:0:0:0:
256,192,97370,1,8,0:0:0:0:
256,192,97458,1,0,0:0:0:0:
256,192,97635,1,8,0:0:0:0:
256,192,97811,1,0,0:0:0:0:
256,192,97899,1,0,0:0:0:0:
256,192,97988,1,8,0:0:0:0:
256,192,98164,1,8,0:0:0:0:
256,192,98517,1,0,0:0:0:0:
256,192,98693,1,8,0:0:0:0:
256,192,98870,1,0,0:0:0:0:
256,192,98958,1,0,0:0:0:0:
256,192,99046,1,8,0:0:0:0:
256,192,99223,1,0,0:0:0:0:
256,192,99399,1,8,0:0:0:0:
256,192,99576,1,8,0:0:0:0:
256,192,99664,1,8,0:0:0:0:
256,192,99752,1,0,0:0:0:0:
256,192,99929,1,0,0:0:0:0:
256,192,100105,1,8,0:0:0:0:
256,192,100282,1,0,0:0:0:0:
256,192,100458,1,8,0:0:0:0:
256,192,100635,1,8,0:0:0:0:
256,192,100988,1,8,0:0:0:0:
256,192,101164,1,0,0:0:0:0:
256,192,101252,1,0,0:0:0:0:
256,192,101340,1,0,0:0:0:0:
256,192,101517,1,8,0:0:0:0:
256,192,101693,1,0,0:0:0:0:
256,192,102046,1,0,0:0:0:0:
256,192,102223,1,8,0:0:0:0:
256,192,102399,1,0,0:0:0:0:
256,192,102488,1,0,0:0:0:0:
256,192,102576,1,8,0:0:0:0:
256,192,102752,1,0,0:0:0:0:
256,192,102929,1,8,0:0:0:0:
256,192,103105,1,8,0:0:0:0:
256,192,103282,1,4,0:0:0:0:
256,192,104517,1,4,0:0:0:0:
256,192,104870,1,4,0:0:0:0:
256,192,105223,1,0,0:0:0:0:
256,192,105399,1,12,0:0:0:0:
256,192,105576,1,0,0:0:0:0:
256,192,105664,1,0,0:0:0:0:
256,192,105752,1,8,0:0:0:0:
256,192,105929,1,8,0:0:0:0:
256,192,106105,1,4,0:0:0:0:
256,192,106458,1,0,0:0:0:0:
256,192,106811,1,0,0:0:0:0:
256,192,106988,1,8,0:0:0:0:
256,192,107076,1,0,0:0:0:0:
256,192,107164,1,8,0:0:0:0:
256,192,107252,1,8,0:0:0:0:
256,192,107340,1,8,0:0:0:0:
256,192,107429,1,8,0:0:0:0:
256,192,107517,1,0,0:0:0:0:
256,192,107870,1,0,0:0:0:0:
256,192,108046,1,12,0:0:0:0:
256,192,108223,1,0,0:0:0:0:
256,192,108576,1,8,0:0:0:0:
256,192,108752,1,8,0:0:0:0:
256,192,108929,1,4,0:0:0:0:
256,192,109282,1,0,0:0:0:0:
256,192,109458,1,8,0:0:0:0:
256,192,109635,1,0,0:0:0:0:
256,192,109811,1,0,0:0:0:0:
256,192,109988,1,8,0:0:0:0:
256,192,110340,1,0,0:0:0:0:
256,192,110517,1,8,0:0:0:0:
256,192,110870,1,0,0:0:0:0:
256,192,111046,1,8,0:0:0:0:
256,192,111223,1,0,0:0:0:0:
256,192,111311,1,0,0:0:0:0:
256,192,111399,1,8,0:0:0:0:
256,192,111576,1,8,0:0:0:0:
256,192,111752,1,4,0:0:0:0:
256,192,112105,1,0,0:0:0:0:
256,192,112282,1,12,0:0:0:0:
256,192,112635,1,0,0:0:0:0:
256,192,112811,1,8,0:0:0:0:
256,192,112899,1,8,0:0:0:0:
256,192,112988,1,8,0:0:0:0:
256,192,113164,1,4,0:0:0:0:
256,192,113517,1,0,0:0:0:0:
256,192,113693,1,12,0:0:0:0:
256,192,114046,1,0,0:0:0:0:
256,192,114223,1,8,0:0:0:0:
256,192,114399,1,8,0:0:0:0:
256,192,114576,1,4,0:0:0:0:
256,192,114929,1,8,0:0:0:0:
256,192,115105,1,0,0:0:0:0:
256,192,115282,1,8,0:0:0:0:
256,192,115458,1,0,0:0:0:0:
256,192,115635,1,8,0:0:0:0:
256,192,115811,1,0,0:0:0:0:
256,192,115988,1,8,0:0:0:0:
256,192,116076,1,0,0:0:0:0:
256,192,116164,1,0,0:0:0:0:
256,192,116252,1,0,0:0:0:0:
256,192,116340,1,8,0:0:0:0:
256,192,116429,1,8,0:0:0:0:
256,192,116517,1,0,0:0:0:0:
256,192,116605,1,0,0:0:0:0:
256,192,116693,1,8,0:0:0:0:
256,192,116870,1,8,0:0:0:0:
256,192,117399,1,4,0:0:0:0:
256,192,117664,1,0,0:0:0:0:
256,192,117752,1,8,0:0:0:0:
256,192,117929,1,0,0:0:0:0:
256,192,118105,1,8,0:0:0:0:
256,192,118193,1,8,0:0:0:0:
256,192,118282,1,8,0:0:0:0:
256,192,118458,1,0,0:0:0:0:
256,192,118546,1,0,0:0:0:0:
256,192,118635,1,8,0:0:0:0:
256,192,118723,1,8,0:0:0:0:
256,192,118811,1,0,0:0:0:0:
256,192,118988,1,0,0:0:0:0:
256,192,119164,1,8,0:0:0:0:
256,192,119252,1,8,0:0:0:0:
256,192,119340,1,0,0:0:0:0:
256,192,119429,1,8,0:0:0:0:
256,192,119517,1,0,0:0:0:0:
256,192,119693,1,8,0:0:0:0:
256,192,119870,1,0,0:0:0:0:
256,192,119958,1,0,0:0:0:0:
256,192,120046,1,0,0:0:0:0:
256,192,120223,1,8,0:0:0:0:
256,192,120311,1,0,0:0:0:0:
256,192,120488,1,0,0:0:0:0:
256,192,120576,1,8,0:0:0:0:
256,192,120664,1,8,0:0:0:0:
256,192,120752,1,0,0:0:0:0:
256,192,120929,1,8,0:0:0:0:
256,192,121105,1,0,0:0:0:0:
256,192,121193,1,0,0:0:0:0:
256,192,121282,1,8,0:0:0:0:
256,192,121370,1,0,0:0:0:0:
256,192,121458,1,8,0:0:0:0:
256,192,121546,1,8,0:0:0:0:
256,192,121635,1,0,0:0:0:0:
256,192,121811,1,0,0:0:0:0:
256,192,121988,1,8,0:0:0:0:
256,192,122076,1,0,0:0:0:0:
256,192,122252,1,8,0:0:0:0:
256,192,122429,1,8,0:0:0:0:
256,192,122517,1,0,0:0:0:0:
256,192,122693,1,8,0:0:0:0:
256,192,122782,1,8,0:0:0:0:
256,192,122870,1,8,0:0:0:0:
256,192,123046,1,4,0:0:0:0:
256,192,123311,1,0,0:0:0:0:
256,192,123399,1,8,0:0:0:0:
256,192,123576,1,8,0:0:0:0:
256,192,123752,1,0,0:0:0:0:
256,192,123840,1,0,0:0:0:0:
256,192,123929,1,8,0:0:0:0:
256,192,124017,1,0,0:0:0:0:
256,192,124105,1,8,0:0:0:0:
256,192,124282,1,0,0:0:0:0:
256,192,124458,1,8,0:0:0:0:
256,192,124546,1,8,0:0:0:0:
256,192,124635,1,0,0:0:0:0:
256,192,124811,1,8,0:0:0:0:
256,192,124988,1,0,0:0:0:0:
256,192,125076,1,8,0:0:0:0:
256,192,125164,1,0,0:0:0:0:
256,192,125252,1,0,0:0:0:0:
256,192,125340,1,8,0:0:0:0:
256,192,125429,1,8,0:0:0:0:
256,192,125517,1,0,0:0:0:0:
256,192,125693,1,0,0:0:0:0:
256,192,125782,1,0,0:0:0:0:
256,192,125870,1,8,0:0:0:0:
256,192,125958,1,0,0:0:0:0:
256,192,126135,1,0,0:0:0:0:
256,192,126223,1,8,0:0:0:0:
256,192,126399,1,0,0:0:0:0:
256,192,126576,1,8,0:0:0:0:
256,192,126664,1,0,0:0:0:0:
256,192,126752,1,0,0:0:0:0:
256,192,126929,1,12,0:0:0:0:
256,192,127282,1,0,0:0:0:0:
256,192,127458,1,8,0:0:0:0:
256,192,127546,1,0,0:0:0:0:
256,192,127635,1,8,0:0:0:0:
256,192,127723,1,8,0:0:0:0:
256,192,127811,1,0,0:0:0:0:
256,192,127899,1,0,0:0:0:0:
256,192,127988,1,8,0:0:0:0:
256,192,128076,1,0,0:0:0:0:
256,192,128164,1,0,0:0:0:0:
256,192,128252,1,0,0:0:0:0:
256,192,128340,1,8,0:0:0:0:
256,192,128517,1,8,0:0:0:0:
256,192,128693,1,4,0:0:0:0:
256,192,128958,1,0,0:0:0:0:
256,192,129046,1,8,0:0:0:0:
256,192,129223,1,8,0:0:0:0:
256,192,129399,1,0,0:0:0:0:
256,192,129488,1,0,0:0:0:0:
256,192,129576,1,0,0:0:0:0:
256,192,129752,1,8,0:0:0:0:
256,192,129840,1,8,0:0:0:0:
256,192,129929,1,0,0:0:0:0:
256,192,130017,1,0,0:0:0:0:
256,192,130105,1,8,0:0:0:0:
256,192,130282,1,0,0:0:0:0:
256,192,130458,1,8,0:0:0:0:
256,192,130546,1,0,0:0:0:0:
256,192,130635,1,0,0:0:0:0:
256,192,130723,1,0,0:0:0:0:
256,192,130811,1,8,0:0:0:0:
256,192,130988,1,0,0:0:0:0:
256,192,131076,1,0,0:0:0:0:
256,192,131164,1,8,0:0:0:0:
256,192,131252,1,8,0:0:0:0:
256,192,131340,1,8,0:0:0:0:
256,192,131429,1,8,0:0:0:0:
256,192,131517,1,0,0:0:0:0:
256,192,131693,1,8,0:0:0:0:
256,192,131870,1,0,0:0:0:0:
256,192,131958,1,0,0:0:0:0:
256,192,132046,1,8,0:0:0:0:
256,192,132223,1,0,0:0:0:0:
256,192,132311,1,8,0:0:0:0:
256,192,132399,1,0,0:0:0:0:
256,192,132488,1,0,0:0:0:0:
256,192,132576,1,8,0:0:0:0:
256,192,132752,1,8,0:0:0:0:
256,192,132929,1,0,0:0:0:0:
256,192,133017,1,8,0:0:0:0:
256,192,133193,1,8,0:0:0:0:
256,192,133282,1,0,0:0:0:0:
256,192,133370,1,0,0:0:0:0:
256,192,133458,1,8,0:0:0:0:
256,192,133635,1,0,0:0:0:0:
256,192,133723,1,0,0:0:0:0:
256,192,133811,1,8,0:0:0:0:
256,192,133899,1,8,0:0:0:0:
256,192,133988,1,0,0:0:0:0:
256,192,134164,1,8,0:0:0:0:
256,192,134340,1,4,0:0:0:0:
256,192,134693,1,12,0:0:0:0:
256,192,134958,1,0,0:0:0:0:
256,192,135046,1,0,0:0:0:0:
256,192,135223,1,0,0:0:0:0:
256,192,135399,1,12,0:0:0:0:
256,192,135752,1,0,0:0:0:0:
256,192,135929,1,0,0:0:0:0:
256,192,136105,1,12,0:0:0:0:
256,192,136370,1,0,0:0:0:0:
256,192,136458,1,0,0:0:0:0:
256,192,136635,1,0,0:0:0:0:
256,192,136811,1,12,0:0:0:0:
256,192,137164,1,4,0:0:0:0:
256,192,137340,1,0,0:0:0:0:
256,192,137517,1,12,0:0:0:0:
256,192,137782,1,0,0:0:0:0:
256,192,137870,1,0,0:0:0:0:
256,192,138046,1,8,0:0:0:0:
256,192,138223,1,0,0:0:0:0:
256,192,138399,1,12,0:0:0:0:
256,192,138752,1,8,0:0:0:0:
256,192,138929,1,8,0:0:0:0:
256,192,139105,1,0,0:0:0:0:
256,192,139282,1,12,0:0:0:0:
256,192,139458,1,0,0:0:0:0:
256,192,139635,1,8,0:0:0:0:
256,192,139723,1,8,0:0:0:0:
256,192,139811,1,8,0:0:0:0:
256,192,139988,1,4,0:0:0:0:
256,192,140252,1,0,0:0:0:0:
256,192,140340,1,8,0:0:0:0:
256,192,140517,1,8,0:0:0:0:
256,192,140693,1,0,0:0:0:0:
256,192,140782,1,0,0:0:0:0:
256,192,140870,1,0,0:0:0:0:
256,192,141046,1,8,0:0:0:0:
256,192,141135,1,8,0:0:0:0:
256,192,141223,1,0,0:0:0:0:
256,192,141311,1,0,0:0:0:0:
256,192,141399,1,8,0:0:0:0:
256,192,141576,1,8,0:0:0:0:
256,192,141752,1,0,0:0:0:0:
256,192,141840,1,0,0:0:0:0:
256,192,141929,1,8,0:0:0:0:
256,192,142017,1,0,0:0:0:0:
256,192,142105,1,8,0:0:0:0:
256,192,142282,1,0,0:0:0:0:
256,192,142370,1,0,0:0:0:0:
256,192,142458,1,8,0:0:0:0:
256,192,142635,1,0,0:0:0:0:
256,192,142811,1,12,0:0:0:0:
256,192,143164,1,0,0:0:0:0:
256,192,143340,1,8,0:0:0:0:
256,192,143517,1,0,0:0:0:0:
256,192,143605,1,0,0:0:0:0:
256,192,143693,1,0,0:0:0:0:
256,192,143870,1,8,0:0:0:0:
256,192,144046,1,0,0:0:0:0:
256,192,144135,1,0,0:0:0:0:
256,192,144223,1,8,0:0:0:0:
256,192,144311,1,8,0:0:0:0:
256,192,144399,1,0,0:0:0:0:
256,192,144488,1,8,0:0:0:0:
256,192,144576,1,0,0:0:0:0:
256,192,144752,1,12,0:0:0:0:
256,192,144929,1,0,0:0:0:0:
256,192,145017,1,0,0:0:0:0:
256,192,145105,1,0,0:0:0:0:
256,192,145193,1,0,0:0:0:0:
256,192,145282,1,8,0:0:0:0:
256,192,145458,1,8,0:0:0:0:
256,192,145635,1,4,0:0:0:0:
256,192,145899,1,0,0:0:0:0:
256,192,145988,1,8,0:0:0:0:
256,192,146164,1,8,0:0:0:0:
256,192,146340,1,0,0:0:0:0:
256,192,146429,1,0,0:0:0:0:
256,192,146517,1,8,0:0:0:0:
256,192,146605,1,0,0:0:0:0:
256,192,146693,1,8,0:0:0:0:
256,192,146870,1,0,0:0:0:0:
256,192,147046,1,12,0:0:0:0:
256,192,147399,1,0,0:0:0:0:
256,192,147576,1,8,0:0:0:0:
256,192,147752,1,0,0:0:0:0:
256,192,147840,1,8,0:0:0:0:
256,192,147929,1,0,0:0:0:0:
256,192,148017,1,0,0:0:0:0:
256,192,148105,1,8,0:0:0:0:
256,192,148282,1,0,0:0:0:0:
256,192,148458,1,12,0:0:0:0:
256,192,148811,1,0,0:0:0:0:
256,192,148988,1,8,0:0:0:0:
256,192,149076,1,8,0:0:0:0:
256,192,149164,1,0,0:0:0:0:
256,192,149340,1,0,0:0:0:0:
256,192,149517,1,8,0:0:0:0:
256,192,149693,1,8,0:0:0:0:
256,192,149870,1,0,0:0:0:0:
256,192,149958,1,0,0:0:0:0:
256,192,150046,1,0,0:0:0:0:
256,192,150223,1,12,0:0:0:0:
256,192,150399,1,0,0:0:0:0:
256,192,150488,1,0,0:0:0:0:
256,192,150576,1,0,0:0:0:0:
256,192,150752,1,12,0:0:0:0:
256,192,150929,1,0,0:0:0:0:
256,192,151105,1,8,0:0:0:0:
256,192,151282,1,4,0:0:0:0:
256,192,151546,1,0,0:0:0:0:
256,192,151635,1,8,0:0:0:0:
256,192,151811,1,8,0:0:0:0:
256,192,151988,1,0,0:0:0:0:
256,192,152076,1,0,0:0:0:0:
256,192,152164,1,0,0:0:0:0:
256,192,152340,1,8,0:0:0:0:
256,192,152429,1,8,0:0:0:0:
256,192,152517,1,0,0:0:0:0:
256,192,152605,1,0,0:0:0:0:
256,192,152693,1,8,0:0:0:0:
256,192,152870,1,0,0:0:0:0:
256,192,153046,1,8,0:0:0:0:
256,192,153135,1,8,0:0:0:0:
256,192,153311,1,0,0:0:0:0:
256,192,153399,1,8,0:0:0:0:
256,192,153576,1,0,0:0:0:0:
256,192,153664,1,0,0:0:0:0:
256,192,153752,1,8,0:0:0:0:
256,192,153840,1,8,0:0:0:0:
256,192,153929,1,0,0:0:0:0:
256,192,154105,1,12,0:0:0:0:
256,192,154370,1,0,0:0:0:0:
256,192,154458,1,8,0:0:0:0:
256,192,154635,1,0,0:0:0:0:
256,192,154811,1,12,0:0:0:0:
256,192,155076,1,0,0:0:0:0:
256,192,155164,1,8,0:0:0:0:
256,192,155340,1,8,0:0:0:0:
256,192,155517,1,4,0:0:0:0:
256,192,155693,1,8,0:0:0:0:
256,192,155782,1,0,0:0:0:0:
256,192,155870,1,8,0:0:0:0:
256,192,155958,1,8,0:0:0:0:
256,192,156135,1,0,0:0:0:0:
256,192,156223,1,8,0:0:0:0:
256,192,156399,1,0,0:0:0:0:
256,192,156576,1,12,0:0:0:0:
256,192,156752,1,8,0:0:0:0:
256,192,156929,1,4,0:0:0:0:
256,192,157282,1,8,0:0:0:0:
256,192,157546,1,0,0:0:0:0:
256,192,157635,1,8,0:0:0:0:
256,192,157811,1,0,0:0:0:0:
256,192,157988,1,8,0:0:0:0:
256,192,158076,1,8,0:0:0:0:
256,192,158164,1,0,0:0:0:0:
256,192,158252,1,0,0:0:0:0:
256,192,158340,1,8,0:0:0:0:
256,192,158517,1,0,0:0:0:0:
256,192,158605,1,0,0:0:0:0:
256,192,158693,1,8,0:0:0:0:
256,192,158782,1,0,0:0:0:0:
256,192,158958,1,0,0:0:0:0:
256,192,159046,1,8,0:0:0:0:
256,192,159223,1,0,0:0:0:0:
256,192,159311,1,0,0:0:0:0:
256,192,159399,1,8,0:0:0:0:
256,192,159488,1,8,0:0:0:0:
256,192,159576,1,8,0:0:0:0:
256,192,159752,1,4,0:0:0:0:
256,192,160105,1,0,0:0:0:0:
256,192,160282,1,12,0:0:0:0:
256,192,160635,1,0,0:0:0:0:
256,192,160811,1,8,0:0:0:0:
256,192,160988,1,8,0:0:0:0:
256,192,161164,1,4,0:0:0:0:
256,192,161517,1,8,0:0:0:0:
256,192,161635,1,0,0:0:0:0:
256,192,161752,1,0,0:0:0:0:
256,192,161870,1,8,0:0:0:0:
256,192,161988,1,0,0:0:0:0:
256,192,162105,1,0,0:0:0:0:
256,192,162223,1,8,0:0:0:0:
256,192,162340,1,8,0:0:0:0:
256,192,162458,1,8,0:0:0:0:
256,192,162576,1,4,0:0:0:0:
256,192,162840,1,4,0:0:0:0:
256,192,163105,1,12,0:0:0:0:
256,192,163282,1,0,0:0:0:0:
256,192,163370,1,0,0:0:0:0:
256,192,163458,1,0,0:0:0:0:
256,192,163635,1,12,0:0:0:0:
256,192,163899,1,12,0:0:0:0:
256,192,164164,1,4,0:0:0:0:
256,192,164340,1,8,0:0:0:0:
256,192,164429,1,8,0:0:0:0:
256,192,164517,1,0,0:0:0:0:
256,192,164605,1,0,0:0:0:0:
256,192,164693,1,8,0:0:0:0:
256,192,164870,1,0,0:0:0:0:
256,192,165046,1,8,0:0:0:0:
256,192,165135,1,8,0:0:0:0:
256,192,165223,1,0,0:0:0:0:
256,192,165399,1,12,0:0:0:0:
256,192,165664,1,4,0:0:0:0:
256,192,165929,1,12,0:0:0:0:
256,192,166105,1,0,0:0:0:0:
256,192,166282,1,8,0:0:0:0:
256,192,166458,1,4,0:0:0:0:
256,192,166723,1,12,0:0:0:0:
256,192,166988,1,4,0:0:0:0:
256,192,167164,12,0,168046,0:0:0:0:
256,192,168223,5,12,0:0:0:0:
256,192,168399,1,12,0:0:0:0:
256,192,168752,1,4,0:0:0:0:
256,192,168929,1,4,0:0:0:0:
256,192,169282,1,12,0:0:0:0:
256,192,169458,1,12,0:0:0:0:
256,192,169811,1,4,0:0:0:0:
256,192,169988,1,4,0:0:0:0:
256,192,170252,1,8,0:0:0:0:
256,192,170340,1,0,0:0:0:0:
256,192,170517,1,8,0:0:0:0:
256,192,170693,1,8,0:0:0:0:
256,192,170870,1,4,0:0:0:0:
256,192,171223,1,0,0:0:0:0:
256,192,171399,1,12,0:0:0:0:
256,192,171752,1,0,0:0:0:0:
256,192,171929,1,8,0:0:0:0:
256,192,172017,1,8,0:0:0:0:
256,192,172105,1,8,0:0:0:0:
256,192,172282,1,4,0:0:0:0:
256,192,172635,1,0,0:0:0:0:
256,192,172811,1,12,0:0:0:0:
256,192,172988,1,0,0:0:0:0:
256,192,173164,1,8,0:0:0:0:
256,192,173340,1,8,0:0:0:0:
256,192,173517,1,0,0:0:0:0:
256,192,173693,1,0,0:0:0:0:
256,192,173870,1,12,0:0:0:0:
256,192,174399,1,0,0:0:0:0:
256,192,174752,1,8,0:0:0:0:
256,192,174929,1,0,0:0:0:0:
256,192,175282,1,8,0:0:0:0:
256,192,175635,1,0,0:0:0:0:
256,192,175811,1,8,0:0:0:0:
256,192,176164,1,8,0:0:0:0:
256,192,176340,1,0,0:0:0:0:
256,192,176693,1,8,0:0:0:0:
256,192,177046,1,0,0:0:0:0:
256,192,177399,1,8,0:0:0:0:
256,192,177576,1,8,0:0:0:0:
256,192,177752,1,0,0:0:0:0:
256,192,178105,1,8,0:0:0:0:
256,192,178282,1,0,0:0:0:0:
256,192,178635,1,0,0:0:0:0:
256,192,178811,1,8,0:0:0:0:
256,192,179164,1,8,0:0:0:0:
256,192,179517,1,0,0:0:0:0:
256,192,180046,1,0,0:0:0:0:
256,192,180223,1,8,0:0:0:0:
256,192,180576,1,0,0:0:0:0:
256,192,180752,1,0,0:0:0:0:
256,192,180929,1,8,0:0:0:0:
256,192,181105,1,0,0:0:0:0:
256,192,181458,1,8,0:0:0:0:
256,192,181811,1,0,0:0:0:0:
256,192,181988,1,8,0:0:0:0:
256,192,182164,1,8,0:0:0:0:
256,192,182340,1,0,0:0:0:0:
256,192,182870,1,8,0:0:0:0:
256,192,183046,1,0,0:0:0:0:
256,192,183223,1,8,0:0:0:0:
256,192,183576,1,0,0:0:0:0:
256,192,183752,1,8,0:0:0:0:
256,192,184105,1,0,0:0:0:0:
256,192,184282,1,0,0:0:0:0:
256,192,184458,1,0,0:0:0:0:
256,192,184635,1,8,0:0:0:0:
256,192,184811,1,0,0:0:0:0:
256,192,184988,1,0,0:0:0:0:
256,192,185164,1,12,0:0:0:0:
256,192,185693,1,0,0:0:0:0:
256,192,186046,1,8,0:0:0:0:
256,192,186223,1,0,0:0:0:0:
256,192,186399,1,0,0:0:0:0:
256,192,186576,1,8,0:0:0:0:
256,192,186929,1,8,0:0:0:0:
256,192,187105,1,0,0:0:0:0:
256,192,187458,1,0,0:0:0:0:
256,192,187635,1,8,0:0:0:0:
256,192,187811,1,8,0:0:0:0:
256,192,187988,1,0,0:0:0:0:
256,192,188340,1,0,0:0:0:0:
256,192,188517,1,0,0:0:0:0:
256,192,188693,1,8,0:0:0:0:
256,192,188870,1,8,0:0:0:0:
256,192,189046,1,0,0:0:0:0:
256,192,189399,1,8,0:0:0:0:
256,192,189576,1,0,0:0:0:0:
256,192,189752,1,8,0:0:0:0:
256,192,189929,1,8,0:0:0:0:
256,192,190105,1,0,0:0:0:0:
256,192,190282,1,8,0:0:0:0:
256,192,190458,1,0,0:0:0:0:
256,192,190635,1,0,0:0:0:0:
256,192,190811,1,12,0:0:0:0:
256,192,191164,1,0,0:0:0:0:
256,192,191340,1,8,0:0:0:0:
256,192,191517,1,0,0:0:0:0:
256,192,191693,1,0,0:0:0:0:
256,192,191870,1,8,0:0:0:0:
256,192,192046,1,8,0:0:0:0:
256,192,192223,1,0,0:0:0:0:
256,192,192399,1,8,0:0:0:0:
256,192,192576,1,0,0:0:0:0:
256,192,192752,1,8,0:0:0:0:
256,192,192929,1,0,0:0:0:0:
256,192,193105,1,0,0:0:0:0:
256,192,193282,1,8,0:0:0:0:
256,192,193458,1,8,0:0:0:0:
256,192,193635,1,4,0:0:0:0:
256,192,193988,1,8,0:0:0:0:
256,192,194164,1,4,0:0:0:0:
256,192,194517,1,8,0:0:0:0:
256,192,194693,1,4,0:0:0:0:
256,192,195046,1,12,0:0:0:0:
256,192,195399,1,0,0:0:0:0:
256,192,195576,1,12,0:0:0:0:
256,192,195929,1,0,0:0:0:0:
256,192,196105,1,12,0:0:0:0:
256,192,196282,1,8,0:0:0:0:
256,192,196458,1,4,0:0:0:0:
256,192,196811,1,8,0:0:0:0:
256,192,196988,1,4,0:0:0:0:
256,192,197164,1,8,0:0:0:0:
256,192,197252,1,8,0:0:0:0:
256,192,197340,1,0,0:0:0:0:
256,192,197517,1,12,0:0:0:0:
256,192,197870,1,4,0:0:0:0:
256,192,198046,1,8,0:0:0:0:
256,192,198223,1,0,0:0:0:0:
256,192,198311,1,0,0:0:0:0:
256,192,198399,1,8,0:0:0:0:
256,192,198488,1,0,0:0:0:0:
256,192,198576,1,8,0:0:0:0:
256,192,198664,1,8,0:0:0:0:
256,192,198752,1,0,0:0:0:0:
256,192,198840,1,0,0:0:0:0:
256,192,198929,1,8,0:0:0:0:
256,192,199105,1,0,0:0:0:0:
256,192,199282,1,8,0:0:0:0:
256,192,199370,1,8,0:0:0:0:
256,192,199458,1,0,0:0:0:0:
256,192,199546,1,8,0:0:0:0:
256,192,199635,1,0,0:0:0:0:
256,192,199723,1,0,0:0:0:0:
256,192,199811,1,8,0:0:0:0:
256,192,200164,1,8,0:0:0:0:
256,192,203516,1,4,0:0:0:0:
256,192,203781,1,0,0:0:0:0:
256,192,203869,1,8,0:0:0:0:
256,192,204045,1,0,0:0:0:0:
256,192,204134,1,0,0:0:0:0:
256,192,204222,1,8,0:0:0:0:
256,192,204398,1,0,0:0:0:0:
256,192,204487,1,0,0:0:0:0:
256,192,204575,1,8,0:0:0:0:
256,192,204663,1,0,0:0:0:0:
256,192,204751,1,8,0:0:0:0:
256,192,204840,1,8,0:0:0:0:
256,192,204928,1,0,0:0:0:0:
256,192,205104,1,0,0:0:0:0:
256,192,205281,1,8,0:0:0:0:
256,192,205369,1,0,0:0:0:0:
256,192,205545,1,8,0:0:0:0:
256,192,205722,1,8,0:0:0:0:
256,192,205810,1,0,0:0:0:0:
256,192,205898,1,0,0:0:0:0:
256,192,205987,1,8,0:0:0:0:
256,192,206163,1,8,0:0:0:0:
256,192,206340,1,4,0:0:0:0:
256,192,206604,1,0,0:0:0:0:
256,192,206693,1,8,0:0:0:0:
256,192,206869,1,8,0:0:0:0:
256,192,207045,1,0,0:0:0:0:
256,192,207134,1,0,0:0:0:0:
256,192,207222,1,8,0:0:0:0:
256,192,207310,1,8,0:0:0:0:
256,192,207398,1,0,0:0:0:0:
256,192,207487,1,8,0:0:0:0:
256,192,207575,1,0,0:0:0:0:
256,192,207751,1,8,0:0:0:0:
256,192,207840,1,8,0:0:0:0:
256,192,207928,1,0,0:0:0:0:
256,192,208016,1,0,0:0:0:0:
256,192,208104,1,8,0:0:0:0:
256,192,208281,1,0,0:0:0:0:
256,192,208369,1,8,0:0:0:0:
256,192,208457,1,0,0:0:0:0:
256,192,208545,1,0,0:0:0:0:
256,192,208634,1,8,0:0:0:0:
256,192,208722,1,8,0:0:0:0:
256,192,208810,1,0,0:0:0:0:
256,192,208987,1,8,0:0:0:0:
256,192,209163,1,0,0:0:0:0:
256,192,209251,1,0,0:0:0:0:
256,192,209340,1,8,0:0:0:0:
256,192,209428,1,0,0:0:0:0:
256,192,209516,1,8,0:0:0:0:
256,192,209604,1,8,0:0:0:0:
256,192,209693,1,0,0:0:0:0:
256,192,209781,1,8,0:0:0:0:
256,192,209869,1,0,0:0:0:0:
256,192,210045,1,0,0:0:0:0:
256,192,210222,1,12,0:0:0:0:
256,192,210575,1,8,0:0:0:0:
256,192,210663,1,0,0:0:0:0:
256,192,210751,1,8,0:0:0:0:
256,192,210840,1,8,0:0:0:0:
256,192,210928,1,8,0:0:0:0:
256,192,211016,1,8,0:0:0:0:
256,192,211104,1,0,0:0:0:0:
256,192,211193,1,0,0:0:0:0:
256,192,211281,1,8,0:0:0:0:
256,192,211369,1,0,0:0:0:0:
256,192,211457,1,0,0:0:0:0:
256,192,211545,1,0,0:0:0:0:
256,192,211634,1,8,0:0:0:0:
256,192,211810,1,8,0:0:0:0:
256,192,211987,1,4,0:0:0:0:
256,192,212251,1,0,0:0:0:0:
256,192,212340,1,8,0:0:0:0:
256,192,212516,1,8,0:0:0:0:
256,192,212693,1,0,0:0:0:0:
256,192,212781,1,0,0:0:0:0:
256,192,212869,1,0,0:0:0:0:
256,192,213045,1,8,0:0:0:0:
256,192,213134,1,8,0:0:0:0:
256,192,213222,1,0,0:0:0:0:
256,192,213310,1,0,0:0:0:0:
256,192,213398,1,8,0:0:0:0:
256,192,213575,1,0,0:0:0:0:
256,192,213663,1,0,0:0:0:0:
256,192,213751,1,8,0:0:0:0:
256,192,213840,1,0,0:0:0:0:
256,192,213928,1,0,0:0:0:0:
256,192,214016,1,0,0:0:0:0:
256,192,214104,1,8,0:0:0:0:
256,192,214281,1,0,0:0:0:0:
256,192,214369,1,0,0:0:0:0:
256,192,214457,1,8,0:0:0:0:
256,192,214545,1,8,0:0:0:0:
256,192,214634,1,8,0:0:0:0:
256,192,214722,1,8,0:0:0:0:
256,192,214810,1,0,0:0:0:0:
256,192,214987,1,0,0:0:0:0:
256,192,215163,1,8,0:0:0:0:
256,192,215251,1,8,0:0:0:0:
256,192,215340,1,0,0:0:0:0:
256,192,215428,1,8,0:0:0:0:
256,192,215516,1,0,0:0:0:0:
256,192,215604,1,0,0:0:0:0:
256,192,215693,1,8,0:0:0:0:
256,192,215781,1,0,0:0:0:0:
256,192,215869,1,8,0:0:0:0:
256,192,216045,1,0,0:0:0:0:
256,192,216222,1,8,0:0:0:0:
256,192,216310,1,0,0:0:0:0:
256,192,216398,1,0,0:0:0:0:
256,192,216487,1,0,0:0:0:0:
256,192,216575,1,8,0:0:0:0:
256,192,216663,1,8,0:0:0:0:
256,192,216751,1,0,0:0:0:0:
256,192,216928,1,8,0:0:0:0:
256,192,217016,1,0,0:0:0:0:
256,192,217104,1,8,0:0:0:0:
256,192,217193,1,8,0:0:0:0:
256,192,217281,1,0,0:0:0:0:
256,192,217457,1,8,0:0:0:0:
256,192,217634,1,4,0:0:0:0:
256,192,217987,1,12,0:0:0:0:
256,192,218251,1,0,0:0:0:0:
256,192,218340,1,0,0:0:0:0:
256,192,218516,1,0,0:0:0:0:
256,192,218693,1,12,0:0:0:0:
256,192,219045,1,0,0:0:0:0:
256,192,219222,1,0,0:0:0:0:
256,192,219398,1,12,0:0:0:0:
256,192,219663,1,0,0:0:0:0:
256,192,219751,1,0,0:0:0:0:
256,192,219928,1,0,0:0:0:0:
256,192,220104,1,12,0:0:0:0:
256,192,220457,1,4,0:0:0:0:
256,192,220634,1,0,0:0:0:0:
256,192,220810,1,12,0:0:0:0:
256,192,221075,1,0,0:0:0:0:
256,192,221163,1,0,0:0:0:0:
256,192,221340,1,8,0:0:0:0:
256,192,221516,1,0,0:0:0:0:
256,192,221693,1,12,0:0:0:0:
256,192,222045,1,8,0:0:0:0:
256,192,222222,1,8,0:0:0:0:
256,192,222398,1,0,0:0:0:0:
256,192,222575,1,12,0:0:0:0:
256,192,222751,1,0,0:0:0:0:
256,192,222928,1,8,0:0:0:0:
256,192,223016,1,8,0:0:0:0:
256,192,223104,1,8,0:0:0:0:
256,192,223281,1,4,0:0:0:0:
256,192,223545,1,0,0:0:0:0:
256,192,223634,1,8,0:0:0:0:
256,192,223810,1,0,0:0:0:0:
256,192,223898,1,0,0:0:0:0:
256,192,223987,1,8,0:0:0:0:
256,192,224075,1,8,0:0:0:0:
256,192,224163,1,0,0:0:0:0:
256,192,224340,1,8,0:0:0:0:
256,192,224428,1,8,0:0:0:0:
256,192,224516,1,0,0:0:0:0:
256,192,224604,1,0,0:0:0:0:
256,192,224693,1,8,0:0:0:0:
256,192,224869,1,8,0:0:0:0:
256,192,225045,1,0,0:0:0:0:
256,192,225134,1,0,0:0:0:0:
256,192,225222,1,8,0:0:0:0:
256,192,225310,1,0,0:0:0:0:
256,192,225398,1,8,0:0:0:0:
256,192,225487,1,8,0:0:0:0:
256,192,225575,1,0,0:0:0:0:
256,192,225663,1,0,0:0:0:0:
256,192,225751,1,8,0:0:0:0:
256,192,225928,1,0,0:0:0:0:
256,192,226104,1,12,0:0:0:0:
256,192,226457,1,0,0:0:0:0:
256,192,226634,1,8,0:0:0:0:
256,192,226810,1,0,0:0:0:0:
256,192,226898,1,0,0:0:0:0:
256,192,226987,1,0,0:0:0:0:
256,192,227075,1,0,0:0:0:0:
256,192,227163,1,8,0:0:0:0:
256,192,227340,1,0,0:0:0:0:
256,192,227428,1,0,0:0:0:0:
256,192,227516,1,8,0:0:0:0:
256,192,227604,1,8,0:0:0:0:
256,192,227692,1,0,0:0:0:0:
256,192,227781,1,8,0:0:0:0:
256,192,227869,1,0,0:0:0:0:
256,192,228045,1,12,0:0:0:0:
256,192,228222,1,0,0:0:0:0:
256,192,228310,1,0,0:0:0:0:
256,192,228398,1,8,0:0:0:0:
256,192,228487,1,8,0:0:0:0:
256,192,228575,1,0,0:0:0:0:
256,192,228663,1,0,0:0:0:0:
256,192,228751,1,8,0:0:0:0:
256,192,228928,1,4,0:0:0:0:
256,192,229192,1,0,0:0:0:0:
256,192,229281,1,8,0:0:0:0:
256,192,229457,1,8,0:0:0:0:
256,192,229634,1,0,0:0:0:0:
256,192,229722,1,0,0:0:0:0:
256,192,229810,1,8,0:0:0:0:
256,192,229898,1,0,0:0:0:0:
256,192,229987,1,8,0:0:0:0:
256,192,230163,1,0,0:0:0:0:
256,192,230340,1,12,0:0:0:0:
256,192,230604,1,8,0:0:0:0:
256,192,230692,1,0,0:0:0:0:
256,192,230869,1,8,0:0:0:0:
256,192,231045,1,0,0:0:0:0:
256,192,231134,1,8,0:0:0:0:
256,192,231222,1,0,0:0:0:0:
256,192,231310,1,0,0:0:0:0:
256,192,231398,1,8,0:0:0:0:
256,192,231575,1,0,0:0:0:0:
256,192,231751,1,12,0:0:0:0:
256,192,232016,1,8,0:0:0:0:
256,192,232104,1,0,0:0:0:0:
256,192,232281,1,8,0:0:0:0:
256,192,232369,1,8,0:0:0:0:
256,192,232457,1,0,0:0:0:0:
256,192,232545,1,8,0:0:0:0:
256,192,232634,1,0,0:0:0:0:
256,192,232722,1,0,0:0:0:0:
256,192,232810,1,8,0:0:0:0:
256,192,232987,1,8,0:0:0:0:
256,192,233163,1,0,0:0:0:0:
256,192,233251,1,0,0:0:0:0:
256,192,233340,1,0,0:0:0:0:
256,192,233516,1,12,0:0:0:0:
256,192,233692,1,0,0:0:0:0:
256,192,233781,1,0,0:0:0:0:
256,192,233869,1,0,0:0:0:0:
256,192,234045,1,12,0:0:0:0:
256,192,234222,1,0,0:0:0:0:
256,192,234398,1,8,0:0:0:0:
256,192,234575,1,4,0:0:0:0:
256,192,234840,1,0,0:0:0:0:
256,192,234928,1,8,0:0:0:0:
256,192,235104,1,8,0:0:0:0:
256,192,235281,1,0,0:0:0:0:
256,192,235369,1,0,0:0:0:0:
256,192,235457,1,0,0:0:0:0:
256,192,235634,1,8,0:0:0:0:
256,192,235722,1,8,0:0:0:0:
256,192,235810,1,0,0:0:0:0:
256,192,235898,1,0,0:0:0:0:
256,192,235987,1,8,0:0:0:0:
256,192,236163,1,0,0:0:0:0:
256,192,236251,1,0,0:0:0:0:
256,192,236340,1,8,0:0:0:0:
256,192,236428,1,8,0:0:0:0:
256,192,236604,1,0,0:0:0:0:
256,192,236692,1,8,0:0:0:0:
256,192,236869,1,0,0:0:0:0:
256,192,236957,1,0,0:0:0:0:
256,192,237045,1,8,0:0:0:0:
256,192,237134,1,8,0:0:0:0:
256,192,237222,1,0,0:0:0:0:
256,192,237398,1,12,0:0:0:0:
256,192,237663,1,0,0:0:0:0:
256,192,237751,1,8,0:0:0:0:
256,192,237928,1,0,0:0:0:0:
256,192,238104,1,12,0:0:0:0:
256,192,238369,1,0,0:0:0:0:
256,192,238457,1,8,0:0:0:0:
256,192,238634,1,8,0:0:0:0:
256,192,238810,1,4,0:0:0:0:
256,192,238987,1,0,0:0:0:0:
256,192,239163,1,8,0:0:0:0:
256,192,239251,1,8,0:0:0:0:
256,192,239428,1,0,0:0:0:0:
256,192,239516,1,8,0:0:0:0:
256,192,239604,1,8,0:0:0:0:
256,192,239692,1,0,0:0:0:0:
256,192,239869,1,12,0:0:0:0:
256,192,240045,1,8,0:0:0:0:
256,192,240222,1,4,0:0:0:0:
256,192,240575,1,8,0:0:0:0:
256,192,240840,1,0,0:0:0:0:
256,192,240928,1,8,0:0:0:0:
256,192,241104,1,0,0:0:0:0:
256,192,241281,1,8,0:0:0:0:
256,192,241369,1,0,0:0:0:0:
256,192,241457,1,0,0:0:0:0:
256,192,241545,1,0,0:0:0:0:
256,192,241634,1,8,0:0:0:0:
256,192,241810,1,0,0:0:0:0:
256,192,241898,1,0,0:0:0:0:
256,192,241987,1,8,0:0:0:0:
256,192,242075,1,0,0:0:0:0:
256,192,242163,1,8,0:0:0:0:
256,192,242251,1,8,0:0:0:0:
256,192,242340,1,0,0:0:0:0:
256,192,242516,1,8,0:0:0:0:
256,192,242604,1,8,0:0:0:0:
256,192,242692,1,0,0:0:0:0:
256,192,242781,1,0,0:0:0:0:
256,192,242869,1,8,0:0:0:0:
256,192,243045,1,4,0:0:0:0:
256,192,243398,1,0,0:0:0:0:
256,192,243575,1,12,0:0:0:0:
256,192,243928,1,0,0:0:0:0:
256,192,244104,1,8,0:0:0:0:
256,192,244192,1,8,0:0:0:0:
256,192,244281,1,8,0:0:0:0:
256,192,244457,1,4,0:0:0:0:
256,192,244810,1,8,0:0:0:0:
256,192,244928,1,8,0:0:0:0:
256,192,245045,1,0,0:0:0:0:
256,192,245163,1,8,0:0:0:0:
256,192,245281,1,8,0:0:0:0:
256,192,245398,1,0,0:0:0:0:
256,192,245516,1,8,0:0:0:0:
256,192,245634,1,8,0:0:0:0:
256,192,245751,1,8,0:0:0:0:
256,192,245869,1,4,0:0:0:0:
256,192,246222,1,0,0:0:0:0:
256,192,246398,1,8,0:0:0:0:
256,192,246487,1,8,0:0:0:0:
256,192,246575,1,0,0:0:0:0:
256,192,246751,1,0,0:0:0:0:
256,192,246928,1,12,0:0:0:0:
256,192,247281,1,0,0:0:0:0:
256,192,247457,1,8,0:0:0:0:
256,192,247545,1,0,0:0:0:0:
256,192,247634,1,8,0:0:0:0:
256,192,247810,1,0,0:0:0:0:
256,192,247987,1,8,0:0:0:0:
256,192,248075,1,8,0:0:0:0:
256,192,248163,1,0,0:0:0:0:
256,192,248251,1,0,0:0:0:0:
256,192,248340,1,8,0:0:0:0:
256,192,248516,1,8,0:0:0:0:
256,192,248692,1,4,0:0:0:0:
256,192,249045,1,8,0:0:0:0:
256,192,249222,1,0,0:0:0:0:
256,192,249310,1,0,0:0:0:0:
256,192,249398,1,8,0:0:0:0:
256,192,249575,1,0,0:0:0:0:
256,192,249751,1,12,0:0:0:0:
256,192,250104,1,0,0:0:0:0:
256,192,250281,1,8,0:0:0:0:
256,192,250457,1,0,0:0:0:0:
256,192,250634,1,0,0:0:0:0:
256,192,250722,1,0,0:0:0:0:
256,192,250810,1,8,0:0:0:0:
256,192,250987,1,0,0:0:0:0:
256,192,251163,1,12,0:0:0:0:
256,192,251516,1,4,0:0:0:0:
256,192,251869,1,0,0:0:0:0:
256,192,252045,1,0,0:0:0:0:
256,192,252222,1,0,0:0:0:0:
256,192,252398,1,8,0:0:0:0:
256,192,252575,1,0,0:0:0:0:
256,192,252751,1,0,0:0:0:0:
256,192,252928,1,8,0:0:0:0:
256,192,253104,1,8,0:0:0:0:
256,192,253281,1,0,0:0:0:0:
256,192,253457,1,8,0:0:0:0:
256,192,253634,1,0,0:0:0:0:
256,192,253810,1,0,0:0:0:0:
256,192,253987,1,8,0:0:0:0:
256,192,254163,1,8,0:0:0:0:
256,192,254340,1,4,0:0:0:0:
256,192,258575,1,4,0:0:0:0:
256,192,258751,1,8,0:0:0:0:
256,192,258839,1,8,0:0:0:0:
256,192,258927,1,0,0:0:0:0:
256,192,259104,1,8,0:0:0:0:
256,192,259280,1,0,0:0:0:0:
256,192,259369,1,0,0:0:0:0:
256,192,259457,1,8,0:0:0:0:
256,192,259633,1,0,0:0:0:0:
256,192,259722,1,0,0:0:0:0:
256,192,259810,1,8,0:0:0:0:
256,192,259898,1,0,0:0:0:0:
256,192,260075,1,0,0:0:0:0:
256,192,260163,1,8,0:0:0:0:
256,192,260339,1,0,0:0:0:0:
256,192,260516,1,8,0:0:0:0:
256,192,260604,1,8,0:0:0:0:
256,192,260692,1,0,0:0:0:0:
256,192,260869,1,0,0:0:0:0:
256,192,261045,1,8,0:0:0:0:
256,192,261133,1,8,0:0:0:0:
256,192,261222,1,8,0:0:0:0:
256,192,261398,1,0,0:0:0:0:
256,192,261486,1,0,0:0:0:0:
256,192,261575,1,8,0:0:0:0:
256,192,261663,1,0,0:0:0:0:
256,192,261751,1,8,0:0:0:0:
256,192,261927,1,0,0:0:0:0:
256,192,262104,1,8,0:0:0:0:
256,192,262192,1,8,0:0:0:0:
256,192,262280,1,0,0:0:0:0:
256,192,262457,1,8,0:0:0:0:
256,192,262633,1,0,0:0:0:0:
256,192,262722,1,8,0:0:0:0:
256,192,262898,1,8,0:0:0:0:
256,192,262986,1,0,0:0:0:0:
256,192,263075,1,0,0:0:0:0:
256,192,263163,1,8,0:0:0:0:
256,192,263339,1,0,0:0:0:0:
256,192,263516,1,12,0:0:0:0:
256,192,263692,1,0,0:0:0:0:
256,192,263869,1,12,0:0:0:0:
256,192,264222,1,4,0:0:0:0:
256,192,264398,1,8,0:0:0:0:
256,192,264486,1,8,0:0:0:0:
256,192,264575,1,0,0:0:0:0:
256,192,264751,1,8,0:0:0:0:
256,192,264927,1,0,0:0:0:0:
256,192,265016,1,0,0:0:0:0:
256,192,265104,1,0,0:0:0:0:
256,192,265280,1,8,0:0:0:0:
256,192,265369,1,8,0:0:0:0:
256,192,265457,1,0,0:0:0:0:
256,192,265545,1,0,0:0:0:0:
256,192,265722,1,0,0:0:0:0:
256,192,265810,1,8,0:0:0:0:
256,192,265986,1,0,0:0:0:0:
256,192,266163,1,8,0:0:0:0:
256,192,266251,1,8,0:0:0:0:
256,192,266339,1,0,0:0:0:0:
256,192,266427,1,8,0:0:0:0:
256,192,266516,1,0,0:0:0:0:
256,192,266604,1,0,0:0:0:0:
256,192,266692,1,8,0:0:0:0:
256,192,266869,1,0,0:0:0:0:
256,192,266957,1,0,0:0:0:0:
256,192,267045,1,8,0:0:0:0:
256,192,267133,1,8,0:0:0:0:
256,192,267222,1,0,0:0:0:0:
256,192,267310,1,8,0:0:0:0:
256,192,267398,1,0,0:0:0:0:
256,192,267486,1,0,0:0:0:0:
256,192,267575,1,8,0:0:0:0:
256,192,267663,1,8,0:0:0:0:
256,192,267751,1,0,0:0:0:0:
256,192,267927,1,12,0:0:0:0:
256,192,268104,1,8,0:0:0:0:
256,192,268280,1,4,0:0:0:0:
