osu file format v14

[General]
AudioFilename: audio.mp3
AudioLeadIn: 0
PreviewTime: 37877
Countdown: 0
SampleSet: Soft
StackLeniency: 0.7
Mode: 0
LetterboxInBreaks: 0
WidescreenStoryboard: 0

[Editor]
Bookmarks: 38230,60818,83406,117288,139877,162465,203406,223171,245759
DistanceSpacing: 0.4
BeatDivisor: 3
GridSize: 32
TimelineZoom: 1.6

[Metadata]
Title:Hana no Tou
TitleUnicode:花の塔
Artist:Sayuri
ArtistUnicode:さユり
Creator:Reillia
Version:Yuri
Source:リコリス・リコイル
Tags:Japanese Anime Curi C_u_r_i [C_u_r_i] Kaguya_Sama Kaguya Sama Shizuku- Kazato_Asa Kazato Asa Shikibe_Mayu Shikibe Mayu 錦木千束 Nishikigi Chisato 井ノ上たきな Inoue Takina Lycoris Recoil ED Ending Tower of Flower Jpop J-pop pop
BeatmapID:3689172
BeatmapSetID:1799574

[Difficulty]
HPDrainRate:6
CircleSize:4
OverallDifficulty:8.2
ApproachRate:9.3
SliderMultiplier:1.67
SliderTickRate:1

[Events]
//Background and Video events
0,0,"99718799_p0.jpg",0,0
//Break Periods
//Storyboard Layer 0 (Background)
//Storyboard Layer 1 (Fail)
//Storyboard Layer 2 (Pass)
//Storyboard Layer 3 (Foreground)
//Storyboard Layer 4 (Overlay)
//Storyboard Sound Samples

[TimingPoints]
112,352.941176470588,4,2,1,80,1,0
112,-100,4,2,1,80,0,0
2583,-71.4285714285714,4,2,1,70,0,0
2847,-71.4285714285714,4,2,1,5,0,0
2935,-100,4,2,1,80,0,0
5671,-100,4,2,1,5,0,0
5759,-100,4,2,1,80,0,0
7877,-71.4285714285714,4,2,1,80,0,0
8583,-100,4,2,1,80,0,0
14230,-100,4,2,1,60,0,0
15730,-100,4,2,1,5,0,0
15818,-100,4,2,1,60,0,0
21112,-83.3333333333333,4,2,1,60,0,0
21377,-83.3333333333333,4,2,1,5,0,0
21465,-83.3333333333333,4,2,1,60,0,0
25435,-83.3333333333333,4,2,1,5,0,0
25524,-100,4,2,1,60,0,0
31171,-100,4,2,1,70,0,0
37347,-71.4285714285714,4,2,1,80,0,0
37612,-71.4285714285714,4,2,1,5,0,0
37700,-71.4285714285714,4,2,1,80,0,0
37877,-100,4,2,1,70,0,0
38229,-76.9230769230769,4,2,1,90,0,1
38494,-76.9230769230769,4,2,1,5,0,1
38583,-76.9230769230769,4,2,1,90,0,1
39906,-76.9230769230769,4,2,1,5,0,1
39994,-76.9230769230769,4,2,1,90,0,1
41318,-76.9230769230769,4,2,1,5,0,1
41406,-76.9230769230769,4,2,1,90,0,1
45200,-76.9230769230769,4,2,1,5,0,1
45288,-76.9230769230769,4,2,1,90,0,1
46965,-76.9230769230769,4,2,1,5,0,1
47053,-76.9230769230769,4,2,1,90,0,1
54024,-76.9230769230769,4,2,1,5,0,1
54112,-76.9230769230769,4,2,1,90,0,1
59230,-66.6666666666667,4,2,1,90,0,1
59494,-76.9230769230769,4,2,1,5,0,1
59583,-76.9230769230769,4,2,1,90,0,1
60464,-76.9230769230769,4,2,1,90,0,0
60817,-76.9230769230769,4,2,1,90,0,1
61788,-76.9230769230769,4,2,1,5,0,1
61877,-76.9230769230769,4,2,1,90,0,1
63024,-76.9230769230769,4,2,1,5,0,1
63112,-76.9230769230769,4,2,1,90,0,1
67435,-76.9230769230769,4,2,1,5,0,1
67524,-76.9230769230769,4,2,1,90,0,1
68671,-76.9230769230769,4,2,1,5,0,1
68759,-76.9230769230769,4,2,1,90,0,1
71053,-66.6666666666667,4,2,1,90,0,1
72112,-100,4,2,1,90,0,1
72377,-100,4,2,1,5,0,1
72465,-76.9230769230769,4,2,1,90,0,1
73435,-76.9230769230769,4,2,1,5,0,1
73524,-76.9230769230769,4,2,1,90,0,1
75200,-76.9230769230769,4,2,1,5,0,1
75288,-76.9230769230769,4,2,1,90,0,1
76612,-76.9230769230769,4,2,1,5,0,1
76700,-76.9230769230769,4,2,1,90,0,1
83406,-100,4,2,1,80,0,0
86141,-100,4,2,1,5,0,0
86230,-100,4,2,1,80,0,0
93112,-76.9230769230769,4,2,1,80,0,0
93377,-76.9230769230769,4,2,1,5,0,0
93465,-76.9230769230769,4,2,1,80,0,0
93641,-100,4,2,1,80,0,0
94700,-100,4,2,1,60,0,0
107671,-100,4,2,1,5,0,0
107759,-100,4,2,1,60,0,0
111641,-100,4,2,1,70,0,0
116935,-250,4,2,1,80,0,0
117200,-250,4,2,1,5,0,0
117288,-76.9230769230769,4,2,1,90,0,1
117553,-76.9230769230769,4,2,1,5,0,1
117641,-76.9230769230769,4,2,1,90,0,1
118965,-76.9230769230769,4,2,1,5,0,1
119053,-76.9230769230769,4,2,1,90,0,1
120377,-76.9230769230769,4,2,1,5,0,1
120465,-76.9230769230769,4,2,1,90,0,1
124259,-76.9230769230769,4,2,1,5,0,1
124347,-76.9230769230769,4,2,1,90,0,1
126024,-76.9230769230769,4,2,1,5,0,1
126112,-76.9230769230769,4,2,1,90,0,1
133083,-76.9230769230769,4,2,1,5,0,1
133171,-76.9230769230769,4,2,1,90,0,1
138553,-76.9230769230769,4,2,1,5,0,1
138641,-76.9230769230769,4,2,1,90,0,1
139523,-76.9230769230769,4,2,1,90,0,0
139876,-76.9230769230769,4,2,1,90,0,1
146318,-76.9230769230769,4,2,1,5,0,1
146406,-76.9230769230769,4,2,1,90,0,1
161759,-90.9090909090909,4,2,1,90,0,1
162464,-62.5,4,2,1,80,0,0
162641,-62.5,4,2,1,5,0,0
162730,-62.5,4,2,1,80,0,0
162906,-62.5,4,2,1,5,0,0
162994,-62.5,4,2,1,80,0,0
163083,-62.5,4,2,1,5,0,0
163171,-62.5,4,2,1,80,0,0
163700,-62.5,4,2,1,5,0,0
163788,-62.5,4,2,1,80,0,0
163965,-62.5,4,2,1,5,0,0
164053,-62.5,4,2,1,80,0,0
164141,-62.5,4,2,1,5,0,0
164230,-62.5,4,2,1,80,0,0
164671,-62.5,4,2,1,5,0,0
164759,-62.5,4,2,1,80,0,0
164847,-62.5,4,2,1,5,0,0
164935,-62.5,4,2,1,80,0,0
165200,-62.5,4,2,1,5,0,0
165288,-62.5,4,2,1,80,0,0
165465,-62.5,4,2,1,5,0,0
165553,-62.5,4,2,1,80,0,0
165730,-62.5,4,2,1,5,0,0
165818,-62.5,4,2,1,80,0,0
165906,-62.5,4,2,1,5,0,0
165994,-62.5,4,2,1,80,0,0
166524,-62.5,4,2,1,5,0,0
166612,-62.5,4,2,1,80,0,0
166788,-62.5,4,2,1,5,0,0
166877,-62.5,4,2,1,80,0,0
168112,-83.3333333333333,4,2,1,70,0,0
168553,-83.3333333333333,4,2,1,5,0,0
168641,-83.3333333333333,4,2,1,70,0,0
169612,-83.3333333333333,4,2,1,5,0,0
169700,-83.3333333333333,4,2,1,70,0,0
171024,-83.3333333333333,4,2,1,5,0,0
171112,-83.3333333333333,4,2,1,70,0,0
173759,-166.666666666667,4,2,1,50,0,0
183641,-125,4,2,2,50,0,0
185053,-100,4,2,2,60,0,0
186730,-100,4,2,2,5,0,0
186818,-100,4,2,2,60,0,0
187700,-100,4,2,1,60,0,0
187788,-100,4,2,2,60,0,0
190347,-83.3333333333333,4,2,1,60,0,0
190700,-83.3333333333333,4,2,1,70,0,0
192112,-83.3333333333333,4,2,1,75,0,0
193524,-83.3333333333333,4,2,1,80,0,0
196347,-71.4285714285714,4,2,1,80,0,0
199965,-71.4285714285714,4,2,1,5,0,0
200053,-71.4285714285714,4,2,1,80,0,0
203406,-55.5555555555556,4,2,1,95,0,1
203671,-55.5555555555556,4,2,1,5,0,1
203759,-76.9230769230769,4,2,1,95,0,1
206494,-76.9230769230769,4,2,1,5,0,1
206583,-76.9230769230769,4,2,1,95,0,1
214965,-76.9230769230769,4,2,1,5,0,1
215053,-76.9230769230769,4,2,1,95,0,1
218847,-76.9230769230769,4,2,1,5,0,1
218935,-76.9230769230769,4,2,1,95,0,1
221847,-76.9230769230769,4,2,1,5,0,1
221935,-76.9230769230769,4,2,1,95,0,1
224141,-76.9230769230769,4,2,1,5,0,1
224230,-76.9230769230769,4,2,1,95,0,1
225377,-76.9230769230769,4,2,1,5,0,1
225465,-76.9230769230769,4,2,1,95,0,1
229788,-76.9230769230769,4,2,1,5,0,1
229877,-76.9230769230769,4,2,1,95,0,1
231024,-76.9230769230769,4,2,1,5,0,1
231112,-76.9230769230769,4,2,1,95,0,1
233406,-66.6666666666667,4,2,1,95,0,1
234465,-100,4,2,1,95,0,1
234730,-100,4,2,1,5,0,1
234818,-76.9230769230769,4,2,1,95,0,1
235788,-76.9230769230769,4,2,1,5,0,1
235877,-76.9230769230769,4,2,1,95,0,1
237553,-76.9230769230769,4,2,1,5,0,1
237641,-76.9230769230769,4,2,1,95,0,1
238965,-76.9230769230769,4,2,1,5,0,1
239053,-76.9230769230769,4,2,1,95,0,1
245759,-76.9230769230769,4,2,1,85,0,0
248847,-76.9230769230769,4,2,1,5,0,0
248935,-76.9230769230769,4,2,1,85,0,0
251406,-76.9230769230769,4,2,1,75,0,0
252818,-76.9230769230769,4,2,1,80,0,0
254230,-76.9230769230769,4,2,1,85,0,0
258288,-76.9230769230769,4,2,1,5,0,0
258465,-100,4,2,1,80,0,0
261200,-100,4,2,1,5,0,0
261289,-100,4,2,1,80,0,0
263759,-66.6666666666667,4,2,1,80,0,0
264112,-100,4,2,1,80,0,0
265612,-100,4,2,1,5,0,0
265700,-100,4,2,1,80,0,0
267288,-83.3333333333333,4,2,1,80,0,0
268170,-172.413793103448,4,2,1,80,0,0
268259,-172.413793103448,4,2,1,60,0,0
269583,-172.413793103448,4,2,1,50,0,0
270994,-172.413793103448,4,2,1,40,0,0
272406,-172.413793103448,4,2,1,30,0,0
273818,-172.413793103448,4,2,1,20,0,0
274877,-172.413793103448,4,2,1,10,0,0
275229,-172.413793103448,4,2,1,5,0,0

[Colours]
Combo1 : 207,207,207
Combo2 : 255,36,36
Combo3 : 49,141,255
Combo4 : 255,255,106

[HitObjects]
187,78,112,5,2,1:2:0:0:
390,103,288,2,0,P|319:123|289:132,1,83.5,2|0,1:2|0:0,0:0:0:0:
150,345,641,5,2,1:2:0:0:
19,254,818,2,0,P|90:274|120:283,1,83.5,2|0,1:2|0:0,0:0:0:0:
432,191,1171,5,2,1:2:0:0:
474,262,1347,2,0,P|416:273|351:191,1,167,2|2,1:2|1:2,0:0:0:0:
273,363,1877,5,2,1:2:0:0:
182,238,2053,1,2,0:0:0:0:
182,238,2141,1,2,0:0:0:0:
182,238,2230,2,0,P|218:250|230:255,2,27.8333333333333,10|0|0,0:0|1:0|1:0,0:0:0:0:
281,279,2406,2,0,P|317:267|332:262,1,27.8333333333333,2|0,1:2|1:0,0:0:0:0:
501,112,2583,6,0,B|439:139|439:139|413:167|413:167|340:203,1,175.349994648743,6|0,0:0|0:0,0:0:0:0:
350,197,2935,5,6,1:2:0:0:
168,133,3112,1,2,0:0:0:0:
384,28,3288,2,0,P|321:54|281:67,1,83.5,8|2,0:0|0:0,0:0:0:0:
85,198,3641,2,0,B|58:168|58:168|68:118,1,83.5,2|0,1:2|0:0,0:0:0:0:
69,117,3906,1,0,0:0:0:0:
71,109,3994,1,10,0:0:0:0:
177,351,4171,6,0,P|129:298|27:304,1,167,2|2,0:0|0:0,0:0:0:0:
352,292,4700,2,0,P|404:274|445:259,1,83.5,10|2,0:0|0:0,0:0:0:0:
438,262,4965,1,2,0:0:0:0:
446,259,5053,5,2,1:2:0:0:
264,377,5230,1,2,0:0:0:0:
186,182,5406,2,0,P|265:199|341:214,1,125.25,10|0,0:0|0:0,0:0:0:0:
316,209,5759,5,2,1:2:0:0:
124,277,5935,1,2,0:0:0:0:
351,368,6112,2,0,B|368:324|368:324|340:267,1,83.5,8|2,0:0|0:0,0:0:0:0:
177,101,6465,2,0,P|226:112|273:122,1,83.5,2|0,1:2|0:0,0:0:0:0:
266,120,6730,1,0,0:0:0:0:
274,119,6818,1,10,0:0:0:0:
485,246,6994,6,0,P|444:299|345:285,1,167,2|2,0:0|0:0,0:0:0:0:
421,101,7524,1,10,0:0:0:0:
228,219,7700,1,2,0:0:0:0:
228,219,7788,1,2,0:0:0:0:
228,219,7877,6,0,P|266:208|301:200,1,58.4499982162476,6|0,1:2|0:0,0:0:0:0:
432,153,8053,2,0,B|437:123|437:123|416:95,1,58.4499982162476,10|0,0:0|0:0,0:0:0:0:
263,0,8230,2,0,B|226:15|196:21|196:21|170:44|170:44|134:49|102:66,1,175.349994648743,10|8,0:0|0:0,0:0:0:0:
103,65,8583,5,6,1:2:0:0:
168,290,8759,1,2,0:0:0:0:
321,114,8935,2,0,P|264:101|221:90,1,83.5,8|2,0:0|0:0,0:0:0:0:
0,269,9288,2,0,P|57:256|100:245,1,83.5,2|0,1:2|0:0,0:0:0:0:
89,247,9553,1,0,0:0:0:0:
97,245,9641,1,10,0:0:0:0:
409,379,9818,6,0,P|457:331|422:233,1,167,2|2,0:0|0:0,0:0:0:0:
223,173,10347,2,0,P|236:225|246:275,1,83.5,10|2,0:0|0:0,0:0:0:0:
244,262,10612,1,2,0:0:0:0:
245,270,10700,1,2,1:2:0:0:
87,370,10877,1,2,0:0:0:0:
141,160,11053,1,10,0:0:0:0:
330,298,11230,1,0,1:0:0:0:
330,298,11318,1,0,1:0:0:0:
330,298,11406,6,0,P|338:260|342:232,1,41.75,10|8,0:0|0:0,0:0:0:0:
314,142,11583,2,0,P|306:180|302:208,1,41.75,2|0,1:2|1:0,0:0:0:0:
171,286,11759,1,10,0:3:0:0:
138,296,11847,1,8,0:3:0:0:
105,294,11935,1,2,1:2:0:0:
73,280,12024,1,0,1:0:0:0:
54,251,12112,1,10,0:0:0:0:
379,381,12288,5,6,0:0:0:0:
327,35,12465,1,10,0:0:0:0:
54,251,12641,1,6,0:0:0:0:
256,192,12730,12,0,13523,0:0:0:0:
159,64,13700,5,0,1:0:0:0:
157,72,13788,1,0,1:0:0:0:
156,80,13876,1,8,0:3:0:0:
406,335,14230,5,6,1:2:0:0:
211,272,14406,1,0,1:0:0:0:
360,129,14583,1,8,0:0:0:0:
265,353,14759,2,0,P|202:301|115:325,1,167,2|0,1:2|1:0,0:0:0:0:
219,138,15288,1,8,0:0:0:0:
0,163,15465,6,0,P|47:179|143:202,1,125.25,2|0,1:2|0:0,0:0:0:0:
120,197,15818,1,0,1:0:0:0:
20,371,15994,1,8,0:0:0:0:
202,290,16171,2,0,P|127:316|101:325,1,83.5,2|0,1:2|0:0,0:0:0:0:
294,208,16524,1,0,1:0:0:0:
401,365,16700,1,10,0:0:0:0:
287,202,16877,1,0,1:0:0:0:
499,192,17053,5,2,1:2:0:0:
311,361,17230,2,0,B|282:328|282:328|292:265,1,83.5,0|8,1:0|0:0,0:0:0:0:
469,70,17583,2,0,P|426:127|332:122,1,167,2|0,1:2|1:0,0:0:0:0:
409,267,18112,1,8,0:0:0:0:
123,317,18288,6,0,P|142:225|157:150,1,167,2|0,1:2|1:0,0:0:0:0:
213,370,18818,1,8,0:0:0:0:
16,267,18994,1,2,1:2:0:0:
161,145,19171,1,0,1:0:0:0:
47,342,19347,5,10,0:0:0:0:
114,79,19524,1,10,0:0:0:0:
313,269,19700,1,0,1:0:0:0:
313,269,19788,1,0,1:0:0:0:
313,269,19877,5,6,1:2:0:0:
110,208,20053,1,0,1:0:0:0:
318,275,20230,1,8,0:0:0:0:
264,64,20406,1,2,1:2:0:0:
127,297,20583,2,0,P|168:283|240:255,1,83.5,0|0,0:0|1:0,0:0:0:0:
442,351,20935,1,8,0:0:0:0:
264,64,21112,6,0,P|309:121|388:102,1,150.299995413208,2|0,1:2|0:0,0:0:0:0:
379,110,21465,1,0,1:0:0:0:
216,186,21641,1,8,0:0:0:0:
411,34,21818,1,2,1:2:0:0:
470,271,21994,2,0,P|414:253|360:234,1,100.199996942139,0|0,0:0|1:0,0:0:0:0:
184,101,22347,1,10,0:0:0:0:
184,101,22524,1,0,1:0:0:0:
374,239,22700,5,6,1:2:0:0:
160,337,22877,1,0,1:0:0:0:
184,101,23053,1,8,0:0:0:0:
470,271,23230,2,0,B|508:229|508:229|463:65,1,200.399993884278,2|0,1:2|1:0,0:0:0:0:
285,325,23759,1,8,0:0:0:0:
117,14,23935,5,2,1:2:0:0:
386,155,24288,1,8,1:2:0:0:
132,328,24641,1,8,1:2:0:0:
303,25,24818,5,10,0:0:0:0:
131,239,24994,1,0,1:0:0:0:
43,48,25171,2,0,P|137:58|162:107,1,150.299995413208,10|0,1:2|0:0,0:0:0:0:
106,158,25524,6,0,P|169:141|278:114,1,167,6|0,0:0|0:0,0:0:0:0:
432,271,26053,2,0,P|351:262|329:170,1,167,10|0,0:0|1:0,0:0:0:0:
382,26,26583,2,0,P|367:79|354:126,1,83.5,10|0,0:0|0:0,0:0:0:0:
488,359,26935,5,2,1:2:0:0:
260,292,27200,1,0,1:0:0:0:
260,292,27288,2,0,P|306:280|320:278,1,41.75
135,376,27465,2,0,P|69:356|-43:324,1,167,10|0,0:0|1:0,0:0:0:0:
177,263,27994,1,10,0:0:0:0:
55,143,28171,1,8,0:0:0:0:
55,143,28259,1,8,0:0:0:0:
55,143,28347,6,0,P|27:193|96:272,1,167,2|0,1:2|0:0,0:0:0:0:
341,357,28877,2,0,P|327:301|297:166,1,167,10|0,0:0|1:0,0:0:0:0:
211,48,29406,2,0,P|193:89|189:150,1,83.5,10|0,0:0|0:0,0:0:0:0:
428,294,29759,6,0,P|414:246|406:205,2,83.5,2|0|0,1:2|1:0|1:0,0:0:0:0:
276,109,30288,1,10,0:0:0:0:
435,300,30465,5,0,1:0:0:0:
223,258,30641,1,8,0:0:0:0:
512,129,30818,1,2,1:2:0:0:
231,19,30994,1,0,1:0:0:0:
231,19,31083,1,0,1:0:0:0:
231,19,31171,5,6,1:2:0:0:
119,203,31347,5,8,0:0:0:0:
81,220,31435,1,8,0:0:0:0:
42,209,31523,1,8,0:0:0:0:
17,176,31611,1,8,0:0:0:0:
16,134,31700,2,0,P|21:94|23:72,1,41.75,6|0,1:2|0:0,0:0:0:0:
231,19,31876,5,8,0:0:0:0:
223,60,31964,1,8,0:0:0:0:
216,101,32052,1,8,0:0:0:0:
210,142,32140,1,8,0:0:0:0:
205,184,32229,2,0,P|200:224|198:246,1,41.75,6|0,1:2|0:0,0:0:0:0:
49,384,32406,5,8,0:0:0:0:
35,336,32494,1,8,0:0:0:0:
66,297,32582,2,0,P|105:306|119:308,1,41.75,6|0,1:2|0:0,0:0:0:0:
313,336,32759,5,8,0:0:0:0:
349,355,32847,1,8,0:0:0:0:
390,353,32935,1,8,0:0:0:0:
424,331,33023,1,8,0:0:0:0:
442,293,33111,2,0,P|438:272|434:245,1,41.75,6|0,1:2|0:0,0:0:0:0:
394,54,33288,5,8,0:0:0:0:
353,45,33376,1,8,0:0:0:0:
312,36,33464,1,8,0:0:0:0:
271,27,33552,1,8,0:0:0:0:
230,18,33641,2,0,P|208:24|165:33,1,41.75,6|0,1:2|0:0,0:0:0:0:
336,239,33818,5,8,0:0:0:0:
368,190,33906,1,8,0:0:0:0:
349,135,33994,1,6,1:2:0:0:
35,27,34347,5,0,1:0:0:0:
119,59,34524,1,0,0:0:0:0:
1,163,34700,5,0,1:0:0:0:
160,128,34876,1,2,0:0:0:0:
0,292,35053,5,8,0:0:0:0:
224,178,35229,1,8,0:0:0:0:
54,384,35406,5,6,1:2:0:0:
119,59,35583,1,8,0:0:0:0:
119,59,35671,1,8,0:0:0:0:
119,59,35759,1,8,0:0:0:0:
415,208,35935,1,2,1:2:0:0:
65,232,36112,5,0,1:0:0:0:
104,244,36200,1,8,0:0:0:0:
143,259,36288,1,8,0:0:0:0:
370,105,36465,5,10,0:0:0:0:
360,65,36553,1,0,1:0:0:0:
354,23,36641,1,0,1:0:0:0:
372,334,36818,5,10,0:0:0:0:
372,334,36906,2,0,L|321:313,1,41.75,10|10,0:0|0:0,0:0:0:0:
154,143,37083,5,10,0:0:0:0:
154,143,37171,2,10,L|103:164,1,41.75
253,362,37347,6,0,B|206:267|287:292|242:189,1,175.349994648743,6|0,1:2|0:0,0:0:0:0:
240,122,37700,1,2,1:2:0:0:
379,74,37877,1,0,0:0:0:0:
347,209,38053,1,0,0:0:0:0:
477,172,38230,6,0,P|497:70|514:2,1,162.824992546463,6|0,1:2|0:0,0:0:0:0:
511,12,38583,1,10,0:0:0:0:
512,284,38759,5,0,0:0:0:0:
512,284,38847,1,8,0:0:0:0:
512,284,38935,2,0,P|458:298|400:317,1,108.549995030976,2|0,0:0|1:0,0:0:0:0:
226,152,39288,1,10,0:0:0:0:
331,369,39465,1,0,0:0:0:0:
109,337,39641,6,0,P|147:291|246:295,1,162.824992546463,2|0,1:2|0:0,0:0:0:0:
324,242,39994,2,0,L|336:183,1,54.2749975154878,10|0,0:0|0:0,0:0:0:0:
266,29,40171,1,0,0:0:0:0:
266,29,40259,1,8,0:0:0:0:
266,29,40347,1,0,0:0:0:0:
392,133,40524,1,0,1:0:0:0:
476,14,40700,2,0,P|427:30|370:46,1,108.549995030976,10|0,0:0|0:0,0:0:0:0:
111,207,41053,6,0,P|56:143|73:51,1,162.824992546463,2|0,1:2|0:0,0:0:0:0:
176,17,41406,2,0,P|158:73|145:127,1,108.549995030976,10|0,0:0|0:0,0:0:0:0:
146,121,41671,1,8,0:0:0:0:
146,121,41759,1,2,0:0:0:0:
240,293,41935,1,0,1:0:0:0:
22,252,42112,2,0,B|74:239|137:220,1,108.549995030976,10|0,0:0|0:0,0:0:0:0:
295,96,42465,5,2,1:2:0:0:
390,372,42641,1,0,1:0:0:0:
504,228,42818,2,0,P|457:182|354:177,1,162.824992546463,8|8,0:0|0:0,0:0:0:0:
288,222,43171,5,0,0:0:0:0:
275,195,43259,1,8,0:0:0:0:
275,163,43347,1,0,1:0:0:0:
336,16,43524,1,10,0:0:0:0:
159,289,43700,5,10,0:0:0:0:
114,258,43788,1,8,0:0:0:0:
58,268,43877,2,0,P|39:220|39:152,1,108.549995030976,6|0,1:2|1:0,0:0:0:0:
222,0,44230,2,0,P|241:48|241:116,1,108.549995030976,10|0,0:0|0:0,0:0:0:0:
243,104,44494,1,8,0:0:0:0:
243,104,44583,1,2,0:0:0:0:
140,179,44759,1,0,1:2:0:0:
290,339,44935,6,0,L|460:309,1,162.824992546463,10|0,0:0|0:0,0:0:0:0:
485,304,45288,1,2,1:2:0:0:
321,160,45465,1,0,1:0:0:0:
510,162,45641,2,0,P|463:217|377:221,1,162.824992546463,10|10,0:0|0:0,0:0:0:0:
321,160,45994,2,0,P|331:108|340:51,1,108.549995030976,0|0,0:0|1:0,0:0:0:0:
165,226,46347,1,10,0:0:0:0:
28,106,46524,5,0,0:0:0:0:
28,106,46612,1,0,0:0:0:0:
28,106,46700,2,0,B|128:81|128:81|196:110,1,162.824992546463,2|0,1:2|0:0,0:0:0:0:
217,118,47053,1,10,0:0:0:0:
314,29,47230,1,0,0:0:0:0:
314,29,47318,5,8,0:0:0:0:
314,29,47406,1,2,0:0:0:0:
120,196,47583,1,0,1:0:0:0:
319,270,47759,2,0,P|306:216|289:164,1,108.549995030976,14|8,0:0|0:3,0:0:0:0:
376,102,48024,1,8,0:3:0:0:
368,116,48112,2,0,P|374:143|383:169,1,54.2749975154878,6|0,1:2|0:0,0:0:0:0:
453,384,48288,5,0,0:0:0:0:
433,357,48377,1,8,0:0:0:0:
401,345,48465,1,0,1:0:0:0:
367,346,48553,1,8,0:0:0:0:
340,362,48641,2,0,P|309:356|275:347,1,54.2749975154878,8|0,0:3|0:0,0:0:0:0:
72,274,48818,5,2,1:2:0:0:
112,287,48906,1,8,0:0:0:0:
157,286,48994,1,8,0:0:0:0:
196,262,49083,1,8,0:0:0:0:
220,228,49171,2,0,P|212:200|203:165,1,54.2749975154878,4|0,1:2|0:0,0:0:0:0:
311,2,49347,5,8,0:0:0:0:
311,2,49435,1,8,0:0:0:0:
311,2,49524,2,0,P|298:60|288:113,1,108.549995030976,6|0,1:2|1:0,0:0:0:0:
504,182,49877,2,0,P|491:240|481:293,1,108.549995030976,10|0,0:0|0:0,0:0:0:0:
481,288,50141,1,8,0:0:0:0:
481,288,50230,1,2,0:0:0:0:
343,189,50406,1,0,1:0:0:0:
234,349,50583,2,0,P|285:335|342:320,1,108.549995030976,10|0,0:0|0:0,0:0:0:0:
390,101,50935,5,2,1:2:0:0:
239,233,51112,1,0,1:0:0:0:
106,7,51288,2,0,P|53:86|70:148,1,162.824992546463,10|8,0:0|0:0,0:0:0:0:
97,169,51641,2,0,P|150:154|202:142,1,108.549995030976,2|0,0:0|1:0,0:0:0:0:
402,243,51994,1,8,0:0:0:0:
330,3,52171,5,0,0:0:0:0:
330,3,52259,1,0,0:0:0:0:
330,3,52347,2,0,B|277:46|277:46|318:206,1,217.099990061951,2|10,1:2|0:0,0:0:0:0:
399,360,52877,1,0,0:0:0:0:
399,360,52965,1,8,0:0:0:0:
399,360,53053,2,0,P|456:370|509:385,1,108.549995030976,2|0,0:0|1:0,0:0:0:0:
313,190,53406,2,0,P|370:180|423:165,1,108.549995030976,10|0,0:0|0:0,0:0:0:0:
254,384,53759,6,0,P|195:327|110:324,1,162.824992546463,2|0,1:2|0:0,0:0:0:0:
73,340,54112,2,0,P|58:284|39:234,1,108.549995030976,10|0,0:0|0:0,0:0:0:0:
13,200,54377,1,8,0:0:0:0:
15,149,54465,1,2,0:0:0:0:
50,119,54553,1,8,0:0:0:0:
99,113,54641,1,0,1:0:0:0:
243,207,54818,1,10,0:0:0:0:
374,9,54994,5,0,0:0:0:0:
374,9,55083,1,8,0:0:0:0:
374,9,55171,2,0,P|354:65|342:117,1,108.549995030976,6|0,1:2|1:0,0:0:0:0:
428,305,55524,1,12,0:0:0:0:
495,178,55700,1,0,0:0:0:0:
495,178,55788,1,8,0:0:0:0:
495,178,55877,1,2,0:0:0:0:
349,225,56053,1,0,1:0:0:0:
220,76,56230,2,0,P|236:127|248:185,1,108.549995030976,12|0,0:0|0:0,0:0:0:0:
428,305,56583,6,0,B|311:281|354:376|210:338,1,217.099990061951,2|12,1:2|0:0,0:0:0:0:
20,278,57112,1,0,0:0:0:0:
20,278,57200,1,8,0:0:0:0:
20,278,57288,1,2,0:0:0:0:
218,179,57465,1,0,1:0:0:0:
127,377,57641,2,0,P|114:323|98:271,1,108.549995030976,12|0,0:0|0:0,0:0:0:0:
108,248,57906,1,0,0:0:0:0:
118,225,57994,6,0,P|188:281|317:245,1,217.099990061951,2|12,1:2|0:0,0:0:0:0:
442,127,58524,1,0,0:0:0:0:
442,127,58612,1,8,0:0:0:0:
442,127,58700,2,0,L|430:181,1,54.2749975154878
489,333,58877,2,0,L|501:279,1,54.2749975154878,0|0,1:0|0:0,0:0:0:0:
333,174,59053,1,10,0:0:0:0:
222,330,59230,6,0,P|131:343|57:290,1,187.875007166863,4|0,1:2|0:0,0:0:0:0:
44,256,59583,6,0,L|56:202,1,54.2749975154878,10|0,0:0|0:0,0:0:0:0:
159,110,59759,2,0,L|171:164,1,54.2749975154878,10|0,0:0|0:0,0:0:0:0:
307,384,59935,1,2,1:2:0:0:
326,349,60024,1,0,1:0:0:0:
321,312,60112,1,12,0:0:0:0:
437,202,60288,6,0,L|495:215,1,54.2749975154878,2|0,1:2|0:0,0:0:0:0:
388,96,60465,1,10,0:3:0:0:
228,248,60641,5,2,1:2:0:0:
228,248,60730,1,0,1:0:0:0:
228,248,60818,5,14,0:0:0:0:
426,327,60994,1,0,1:0:0:0:
287,94,61171,2,0,P|303:160|318:217,1,108.549995030976,2|8,1:2|0:0,0:0:0:0:
105,367,61524,2,0,P|35:329|45:254,1,162.824992546463,2|0,1:2|0:0,0:0:0:0:
63,238,61877,1,10,0:0:0:0:
254,361,62053,1,0,1:0:0:0:
254,361,62141,1,0,0:0:0:0:
254,361,62230,5,14,0:0:0:0:
417,168,62406,2,0,P|335:192|283:209,1,108.549995030976,0|2,1:0|1:2,0:0:0:0:
28,36,62759,2,0,B|132:49|81:79|188:95,1,162.824992546463,8|0,0:0|0:0,0:0:0:0:
211,82,63112,1,0,1:0:0:0:
467,314,63288,2,0,P|501:259|485:223,1,108.549995030976,10|0,0:0|1:0,0:0:0:0:
431,174,63553,1,0,0:0:0:0:
417,168,63641,6,0,P|359:183|189:230,1,217.099990061951,14|0,0:0|1:0,0:0:0:0:
246,0,64171,2,0,P|298:39|286:93,1,108.549995030976,8|0,0:0|1:0,0:0:0:0:
104,199,64524,1,0,1:0:0:0:
270,364,64700,2,0,P|203:345|159:335,1,108.549995030976,10|0,0:0|1:0,0:0:0:0:
389,264,65053,5,10,0:0:0:0:
211,120,65230,1,0,1:0:0:0:
165,336,65406,1,0,1:0:0:0:
377,96,65583,1,12,0:0:0:0:
494,379,65759,1,0,1:0:0:0:
494,379,65847,1,0,0:0:0:0:
494,379,65935,1,8,0:3:0:0:
280,199,66112,2,0,P|292:239|298:264,1,54.2749975154878,10|0,0:0|0:0,0:0:0:0:
480,62,66288,1,10,0:3:0:0:
480,62,66377,1,0,1:0:0:0:
480,62,66465,6,0,P|421:84|357:99,1,108.549995030976,14|0,0:0|1:0,0:0:0:0:
493,241,66818,1,2,1:2:0:0:
323,25,66994,1,8,0:0:0:0:
191,254,67171,2,0,P|113:257|82:181,1,162.824992546463,2|0,1:2|0:0,0:0:0:0:
89,154,67524,1,10,0:0:0:0:
261,338,67700,1,0,1:0:0:0:
261,338,67788,1,0,0:0:0:0:
261,338,67877,5,14,0:0:0:0:
0,319,68053,2,0,P|59:297|123:282,1,108.549995030976,0|2,1:0|1:2,0:0:0:0:
442,121,68406,2,0,B|359:95|375:156|281:134,1,162.824992546463,8|0,0:0|0:0,0:0:0:0:
254,116,68759,1,0,1:0:0:0:
472,354,68935,2,0,P|503:326|484:262,1,108.549995030976,10|0,0:0|1:0,0:0:0:0:
427,226,69200,1,0,0:0:0:0:
408,226,69288,6,0,P|355:242|297:255,1,108.549995030976,14|0,0:0|1:0,0:0:0:0:
91,85,69641,1,0,1:0:0:0:
210,355,69818,2,0,B|233:309|233:309|211:255,1,108.549995030976,8|0,0:0|1:0,0:0:0:0:
38,366,70171,1,0,1:0:0:0:
226,166,70347,1,10,0:0:0:0:
397,384,70524,1,0,1:0:0:0:
140,196,70700,5,10,0:3:0:0:
101,183,70788,1,0,1:0:0:0:
62,193,70876,1,0,1:0:0:0:
34,221,70964,1,0,1:0:0:0:
25,260,71053,2,0,P|63:271|110:283,1,62.6250023889543,12|0,0:0|0:0,0:0:0:0:
239,77,71230,2,0,P|208:84|178:93,1,62.6250023889543,8|8,0:3|0:3,0:0:0:0:
336,316,71406,5,0,1:0:0:0:
309,273,71494,1,0,1:0:0:0:
306,222,71583,1,12,0:0:0:0:
450,23,71759,2,0,P|468:62|477:97,1,62.6250023889543,2|0,1:2|0:0,0:0:0:0:
455,158,71935,1,10,0:0:0:0:
455,158,72024,1,8,0:0:0:0:
455,158,72112,6,0,P|386:162|347:112,1,125.25,6|0,1:2|0:0,0:0:0:0:
450,23,72465,5,10,0:0:0:0:
499,241,72641,1,0,0:0:0:0:
499,241,72730,1,8,0:0:0:0:
499,241,72818,2,0,P|482:306|476:354,1,108.549995030976,2|0,0:0|1:0,0:0:0:0:
188,323,73171,2,0,P|210:263|226:161,1,162.824992546463,10|0,0:0|0:0,0:0:0:0:
214,131,73524,5,0,1:0:0:0:
322,349,73700,1,0,1:0:0:0:
455,158,73877,2,0,P|373:182|319:197,1,108.549995030976,10|0,0:0|0:0,0:0:0:0:
305,131,74141,1,8,0:0:0:0:
317,120,74230,2,0,P|399:96|453:81,1,108.549995030976,2|0,0:0|1:0,0:0:0:0:
245,263,74583,1,10,0:0:0:0:
109,31,74759,1,2,0:0:0:0:
109,31,74847,1,0,0:0:0:0:
109,31,74935,6,0,P|51:80|76:173,1,162.824992546463,6|0,1:2|0:0,0:0:0:0:
162,219,75288,2,0,P|154:181|132:109,1,108.549995030976,10|0,0:0|0:0,0:0:0:0:
191,56,75553,1,8,0:0:0:0:
191,56,75641,1,6,1:2:0:0:
22,266,75818,1,0,1:0:0:0:
317,314,75994,2,0,P|386:332|430:344,1,108.549995030976,10|0,0:0|0:0,0:0:0:0:
495,329,76259,1,8,0:0:0:0:
507,317,76347,6,0,B|528:281|528:281|492:157,1,162.824992546463,6|0,1:2|0:0,0:0:0:0:
438,114,76700,2,0,P|383:121|354:189,1,108.549995030976,10|0,0:0|0:0,0:0:0:0:
336,205,76965,1,8,0:0:0:0:
307,241,77053,1,0,0:0:0:0:
263,249,77141,1,8,0:0:0:0:
220,234,77230,1,0,1:0:0:0:
154,20,77406,2,0,P|199:35|227:44,1,54.2749975154878,14|0,0:0|0:0,0:0:0:0:
217,126,77583,1,8,0:3:0:0:
217,126,77671,1,8,0:3:0:0:
217,126,77759,6,0,P|153:105|99:88,1,108.549995030976,6|0,1:2|0:0,0:0:0:0:
16,375,78112,2,0,P|53:327|167:312,1,162.824992546463,10|8,0:0|0:0,0:0:0:0:
181,324,78465,1,0,0:0:0:0:
16,193,78641,1,0,1:0:0:0:
245,381,78818,2,0,B|268:340|268:340|248:274,1,108.549995030976,10|0,0:0|0:0,0:0:0:0:
287,77,79171,5,2,1:2:0:0:
104,225,79347,1,0,1:0:0:0:
372,339,79524,2,0,P|431:321|480:309,1,108.549995030976,10|0,0:0|0:0,0:0:0:0:
476,309,79788,1,8,0:0:0:0:
476,309,79877,1,2,0:0:0:0:
245,183,80053,1,0,1:0:0:0:
255,184,80141,1,0,1:0:0:0:
265,185,80230,5,10,0:0:0:0:
249,236,80318,1,8,0:0:0:0:
197,254,80406,1,10,0:0:0:0:
144,239,80494,1,8,0:0:0:0:
117,190,80583,6,0,P|129:141|139:75,1,108.549995030976,6|0,1:2|0:0,0:0:0:0:
228,342,80935,1,0,0:0:0:0:
457,152,81112,2,0,P|358:127|249:213,1,217.099990061951,12|0,0:0|1:0,0:0:0:0:
0,302,81641,2,0,P|49:317|116:337,1,108.549995030976,2|0,1:2|1:0,0:0:0:0:
123,342,81906,1,0,0:0:0:0:
141,352,81994,5,12,0:0:0:0:
403,376,83406,5,6,1:2:0:0:
338,173,83583,1,2,0:0:0:0:
206,286,83759,2,0,P|251:294|296:307,1,83.5,8|2,0:0|0:0,0:0:0:0:
287,304,84024,1,0,0:0:0:0:
287,304,84112,1,2,1:2:0:0:
446,218,84288,1,0,0:0:0:0:
403,376,84465,1,10,0:0:0:0:
247,197,84641,6,0,P|175:257|85:237,1,167,2|2,0:0|0:0,0:0:0:0:
129,82,85171,2,0,P|142:120|151:175,1,83.5,8|2,0:0|0:0,0:0:0:0:
149,162,85435,1,2,0:0:0:0:
149,162,85524,1,2,1:2:0:0:
290,110,85700,1,2,0:0:0:0:
378,281,85877,2,0,P|443:264|507:253,1,125.25,10|0,0:0|0:0,0:0:0:0:
500,253,86230,5,2,1:2:0:0:
309,198,86406,1,2,0:0:0:0:
364,378,86583,1,8,0:0:0:0:
416,188,86759,1,2,0:0:0:0:
416,188,86847,1,0,0:0:0:0:
416,188,86935,2,0,P|402:146|396:107,1,83.5,2|0,1:2|0:0,0:0:0:0:
309,198,87288,1,10,0:0:0:0:
483,79,87465,6,0,P|419:26|338:45,1,167,2|2,0:0|0:0,0:0:0:0:
199,1,87994,2,0,P|186:46|174:91,1,83.5,10|2,0:0|0:0,0:0:0:0:
167,109,88259,1,2,0:0:0:0:
157,134,88347,1,6,1:2:0:0:
25,79,88524,2,0,L|66:70,1,41.75,10|0,0:0|0:0,0:0:0:0:
250,172,88700,2,0,P|289:161|333:151,1,83.5,10|0,1:2|0:0,0:0:0:0:
330,151,88965,1,8,0:0:0:0:
330,151,89053,5,6,1:2:0:0:
512,223,89230,1,2,0:0:0:0:
390,302,89406,2,0,P|378:343|367:385,1,83.5,8|2,0:0|0:0,0:0:0:0:
445,156,89759,2,0,P|479:98|444:5,1,167,2|10,1:2|0:0,0:0:0:0:
250,172,90288,6,0,P|262:213|277:270,1,83.5,2|0,0:0|1:0,0:0:0:0:
352,199,90641,1,2,0:0:0:0:
290,358,90818,2,0,P|240:344|191:333,1,83.5,14|10,0:0|0:0,0:0:0:0:
202,335,91082,1,10,0:0:0:0:
195,331,91170,2,0,P|169:343|142:347,2,55.6666666666667,2|8|8,1:2|0:0|0:0,0:0:0:0:
141,255,91523,5,8,0:0:0:0:
95,229,91641,1,8,0:0:0:0:
85,172,91759,1,8,0:0:0:0:
120,128,91876,5,10,0:0:0:0:
446,250,92053,2,0,P|403:261|361:272,1,83.5,6|0,1:2|0:0,0:0:0:0:
252,73,92406,1,2,1:2:0:0:
261,44,92494,1,0,1:0:0:0:
269,11,92583,1,10,0:0:0:0:
390,173,92759,6,0,L|341:185,1,41.75,6|0,1:2|0:0,0:0:0:0:
201,349,92935,5,10,0:0:0:0:
201,349,93024,1,8,0:0:0:0:
201,349,93112,2,0,B|175:340|142:329|142:329|124:292|124:292|98:288|61:274,1,162.824992546463,6|0,1:2|0:0,0:0:0:0:
66,276,93465,1,8,0:3:0:0:
194,147,93641,5,8,0:0:0:0:
194,147,93730,1,8,0:0:0:0:
194,147,93818,2,0,P|201:168|210:201,1,41.75,8|0,0:3|0:0,0:0:0:0:
336,370,93994,1,4,1:2:0:0:
512,257,94171,5,8,0:0:0:0:
482,218,94259,1,8,0:0:0:0:
440,210,94347,1,8,1:2:0:0:
400,217,94435,1,8,0:0:0:0:
362,241,94524,1,8,0:3:0:0:
318,247,94612,1,8,0:3:0:0:
286,216,94700,6,0,P|294:183|308:121,1,83.5,6|2,1:2|1:2,0:0:0:0:
202,7,95053,1,10,0:0:0:0:
57,135,95230,2,0,P|145:147|214:77,1,167,2|2,1:2|1:2,0:0:0:0:
328,41,95759,1,10,0:0:0:0:
409,195,95935,1,2,1:2:0:0:
491,82,96112,6,0,P|446:92|399:106,1,83.5,0|2,0:0|1:2,0:0:0:0:
305,134,96465,1,10,0:0:0:0:
500,228,96641,2,0,P|438:284|343:267,1,167,2|2,1:2|1:2,0:0:0:0:
180,214,97171,1,10,0:0:0:0:
241,357,97347,5,2,0:0:0:0:
241,357,97435,1,0,0:0:0:0:
241,357,97524,1,2,1:2:0:0:
307,168,97700,1,2,1:2:0:0:
241,357,97877,1,10,0:0:0:0:
64,323,98053,6,0,P|12:254|44:154,1,167,2|2,1:2|1:2,0:0:0:0:
139,42,98583,1,10,0:0:0:0:
0,93,98759,6,0,L|185:140,1,167,2|2,1:2|1:2,0:0:0:0:
342,72,99288,1,10,0:0:0:0:
213,9,99465,1,2,1:2:0:0:
273,172,99641,2,0,P|262:216|252:255,1,83.5,0|2,0:0|1:2,0:0:0:0:
380,384,99994,1,10,0:0:0:0:
509,255,100171,5,2,0:0:0:0:
509,255,100259,1,0,0:0:0:0:
509,255,100347,1,2,1:2:0:0:
318,295,100524,1,2,1:2:0:0:
484,362,100700,1,10,0:0:0:0:
395,178,100877,6,0,P|326:230|243:216,1,167,2|2,1:2|1:2,0:0:0:0:
89,160,101406,1,10,0:0:0:0:
133,320,101583,2,0,L|152:235,1,83.5,2|0,1:2|0:0,0:0:0:0:
22,53,101935,5,2,1:2:0:0:
216,160,102112,1,10,0:0:0:0:
41,195,102288,1,2,1:2:0:0:
166,15,102465,2,0,P|153:55|142:100,1,83.5,2|2,0:0|1:2,0:0:0:0:
411,173,102818,5,10,0:0:0:0:
256,33,102994,1,2,1:2:0:0:
151,238,103171,1,6,1:2:0:0:
151,238,104406,5,10,0:0:0:0:
257,218,104759,5,10,0:0:0:0:
345,289,105112,5,0,1:0:0:0:
345,289,105200,1,0,1:0:0:0:
345,289,105288,1,4,1:2:0:0:
290,90,105465,2,0,L|278:140,1,41.75,0|8,1:0|0:3,0:0:0:0:
151,238,105641,5,2,1:2:0:0:
113,252,105730,1,0,0:0:0:0:
76,248,105818,1,10,0:0:0:0:
33,228,105906,1,10,0:0:0:0:
10,182,105994,1,6,1:2:0:0:
10,182,106347,5,0,1:0:0:0:
79,77,106524,2,0,P|89:115|99:158,1,83.5,2|0,0:0|1:0,0:0:0:0:
224,297,106877,5,0,0:0:0:0:
224,297,106965,1,8,0:0:0:0:
224,297,107053,2,0,L|237:244,1,41.75,10|8,0:0|0:0,0:0:0:0:
334,129,107230,2,0,L|347:182,1,41.75,8|8,0:0|0:0,0:0:0:0:
481,319,107406,6,0,L|340:278,1,125.25,2|0,1:2|0:0,0:0:0:0:
341,279,107759,1,0,1:0:0:0:
434,127,107935,2,0,P|444:170|444:215,1,83.5,8|2,0:0|1:2,0:0:0:0:
259,340,108288,5,8,0:0:0:0:
301,175,108465,1,0,1:0:0:0:
137,213,108641,1,10,0:0:0:0:
137,213,108730,1,0,0:0:0:0:
137,213,108818,2,0,L|45:232,1,83.5,6|0,1:2|0:0,0:0:0:0:
236,256,109171,1,2,1:2:0:0:
105,108,109347,1,10,0:0:0:0:
204,0,109524,5,2,1:2:0:0:
137,213,109700,1,0,0:0:0:0:
61,11,109877,1,10,0:0:0:0:
16,156,110053,1,0,0:0:0:0:
199,106,110230,5,2,1:2:0:0:
163,291,110406,2,0,P|151:248|134:207,1,83.5,8|0,0:0|1:0,0:0:0:0:
199,106,110759,1,10,0:0:0:0:
392,229,110935,6,0,P|435:218|475:209,1,83.5,0|8,1:0|0:0,0:0:0:0:
473,209,111200,1,8,0:0:0:0:
473,209,111288,1,2,1:2:0:0:
330,0,111465,5,8,0:0:0:0:
330,0,111553,1,8,0:0:0:0:
330,0,111641,2,0,B|308:49|299:95|299:95|320:117|337:152,1,167,6|0,1:2|1:0,0:0:0:0:
237,357,112171,2,0,P|198:345|157:338,1,83.5,10|0,0:0|1:0,0:0:0:0:
248,232,112524,5,8,0:3:0:0:
50,317,112700,1,2,1:2:0:0:
18,291,112788,1,8,0:0:0:0:
8,255,112877,1,8,0:0:0:0:
7,215,112965,1,8,0:0:0:0:
32,176,113053,1,6,1:2:0:0:
168,71,113230,2,0,L|148:157,1,83.5,0|0,0:0|1:0,0:0:0:0:
336,301,113583,6,0,B|372:284|429:270|429:270|461:295|518:291,1,167,10|8,0:0|0:3,0:0:0:0:
299,170,114112,1,0,1:2:0:0:
506,79,114288,1,8,0:3:0:0:
430,199,114465,5,14,0:0:0:0:
355,10,114641,1,0,1:0:0:0:
256,268,114818,5,10,0:0:0:0:
220,44,114994,1,0,1:0:0:0:
38,305,115171,5,10,0:0:0:0:
91,35,115347,1,0,1:0:0:0:
91,35,115435,1,0,0:0:0:0:
91,35,115524,1,10,0:0:0:0:
321,150,115700,1,0,1:0:0:0:
38,305,115877,5,8,0:0:0:0:
66,269,115965,1,8,0:3:0:0:
109,252,116053,1,8,0:3:0:0:
149,249,116141,1,0,1:0:0:0:
193,265,116230,1,4,0:0:0:0:
360,376,116406,5,0,1:0:0:0:
360,376,116494,1,0,1:0:0:0:
360,376,116583,1,8,0:0:0:0:
435,94,116759,1,0,1:0:0:0:
512,224,116935,6,0,L|462:234,1,50.1,2|0,0:0|0:0,0:0:0:0:
345,126,117288,6,0,B|368:151|390:172|390:172|367:290,1,162.824992546463,6|0,1:2|0:0,0:0:0:0:
371,268,117641,1,10,0:0:0:0:
262,15,117818,1,0,0:0:0:0:
262,15,117906,1,8,0:0:0:0:
262,15,117994,2,0,P|314:29|372:44,1,108.549995030976,2|0,0:0|1:0,0:0:0:0:
219,203,118347,1,10,0:0:0:0:
31,77,118524,1,0,0:0:0:0:
30,324,118700,6,0,P|86:266|66:187,1,162.824992546463,2|0,1:2|0:0,0:0:0:0:
20,130,119053,2,0,L|33:66,1,54.2749975154878,10|0,0:0|0:0,0:0:0:0:
169,8,119230,1,0,0:0:0:0:
169,8,119318,1,8,0:0:0:0:
169,8,119406,1,0,0:0:0:0:
228,210,119583,1,0,1:0:0:0:
438,41,119759,2,0,P|389:57|332:73,1,108.549995030976,10|0,0:0|0:0,0:0:0:0:
172,314,120112,6,0,P|220:371|306:356,1,162.824992546463,2|0,1:2|0:0,0:0:0:0:
357,256,120465,2,0,P|308:272|251:288,1,108.549995030976,10|0,0:0|0:0,0:0:0:0:
253,287,120730,1,8,0:0:0:0:
253,287,120818,1,2,0:0:0:0:
468,363,120994,1,0,1:0:0:0:
418,147,121171,2,0,B|424:103|440:30,1,108.549995030976,10|0,0:0|0:0,0:0:0:0:
140,237,121524,5,2,1:2:0:0:
241,32,121700,1,0,1:0:0:0:
469,228,121877,2,0,P|409:172|312:182,1,162.824992546463,8|8,0:0|0:0,0:0:0:0:
261,214,122230,5,0,0:0:0:0:
248,187,122318,1,8,0:0:0:0:
248,155,122406,1,0,1:0:0:0:
437,40,122583,1,10,0:0:0:0:
411,321,122759,5,10,0:0:0:0:
366,290,122847,1,8,0:0:0:0:
310,300,122936,2,0,P|250:311|172:323,1,108.549995030976,6|0,1:2|1:0,0:0:0:0:
58,88,123288,2,0,P|118:77|196:65,1,108.549995030976,10|0,0:0|0:0,0:0:0:0:
164,69,123553,1,8,0:0:0:0:
164,69,123642,1,2,0:0:0:0:
19,254,123818,1,0,1:0:0:0:
227,3,123994,2,0,B|265:52|265:52|236:161,1,162.824992546463,10|0,0:0|0:0,0:0:0:0:
231,178,124347,5,2,1:2:0:0:
437,39,124524,1,0,1:0:0:0:
511,268,124700,2,0,P|464:213|378:209,1,162.824992546463,10|8,0:0|0:0,0:0:0:0:
300,213,125053,2,0,P|313:162|327:106,1,108.549995030976,0|0,0:0|1:0,0:0:0:0:
421,294,125406,1,10,0:0:0:0:
94,347,125583,5,0,0:0:0:0:
94,347,125671,1,0,0:0:0:0:
94,347,125759,2,0,B|161:327|161:327|184:307|184:307|258:287,1,162.824992546463,2|0,1:2|0:0,0:0:0:0:
265,284,126112,1,10,0:0:0:0:
416,129,126289,1,0,0:0:0:0:
416,129,126377,5,8,0:0:0:0:
416,129,126465,1,2,0:0:0:0:
234,373,126642,1,0,1:0:0:0:
48,123,126818,2,0,P|101:134|152:150,1,108.549995030976,14|8,0:0|0:3,0:0:0:0:
212,75,127083,1,8,0:3:0:0:
198,83,127171,2,0,P|172:76|144:64,1,54.2749975154878,6|0,1:2|0:0,0:0:0:0:
16,258,127347,5,0,0:0:0:0:
36,231,127436,1,8,0:0:0:0:
68,219,127524,1,0,1:0:0:0:
102,220,127612,1,8,0:0:0:0:
129,236,127700,2,0,P|160:230|194:221,1,54.2749975154878,8|0,0:3|0:0,0:0:0:0:
420,378,127877,5,2,1:2:0:0:
376,362,127965,1,8,0:0:0:0:
348,326,128053,1,8,0:0:0:0:
345,280,128141,1,8,0:0:0:0:
366,239,128230,2,0,P|374:206|382:170,1,54.2749975154878,4|0,1:2|0:0,0:0:0:0:
148,326,128406,5,8,0:0:0:0:
148,326,128494,1,8,0:0:0:0:
148,326,128583,2,0,P|227:304|259:296,1,108.549995030976,6|0,1:2|1:0,0:0:0:0:
316,70,128935,2,0,P|368:56|420:41,1,108.549995030976,10|0,0:0|0:0,0:0:0:0:
420,41,129200,1,8,0:0:0:0:
420,41,129288,1,2,0:0:0:0:
259,186,129465,1,0,1:0:0:0:
441,300,129641,2,0,P|449:250|463:190,1,108.549995030976,10|0,0:0|0:0,0:0:0:0:
279,377,129994,5,2,1:2:0:0:
199,120,130171,1,0,1:0:0:0:
0,288,130347,2,0,P|79:341|141:324,1,162.824992546463,10|8,0:0|0:0,0:0:0:0:
198,376,130700,2,0,B|222:333|222:333|200:273,1,108.549995030976,2|0,0:0|1:0,0:0:0:0:
52,60,131053,1,8,0:0:0:0:
339,107,131230,5,0,0:0:0:0:
339,107,131318,1,0,0:0:0:0:
339,107,131406,2,0,P|233:137|117:163,1,217.099990061951,2|10,1:2|0:0,0:0:0:0:
441,300,131936,1,0,0:0:0:0:
441,300,132024,1,8,0:0:0:0:
441,300,132112,2,0,P|451:243|466:190,1,108.549995030976,2|0,0:0|1:0,0:0:0:0:
197,4,132465,2,0,P|211:56|220:109,1,108.549995030976,10|0,0:0|0:0,0:0:0:0:
13,352,132818,6,0,P|65:290|152:302,1,162.824992546463,2|0,1:2|0:0,0:0:0:0:
203,338,133171,2,0,P|257:328|339:311,1,108.549995030976,10|0,0:0|0:0,0:0:0:0:
351,298,133436,1,8,0:0:0:0:
367,249,133524,1,2,0:0:0:0:
345,209,133612,1,8,0:0:0:0:
301,185,133700,1,0,1:0:0:0:
133,370,133877,1,10,0:0:0:0:
17,108,134053,5,0,0:0:0:0:
17,108,134142,1,8,0:0:0:0:
17,108,134230,2,0,P|37:164|49:216,1,108.549995030976,6|0,1:2|1:0,0:0:0:0:
197,4,134583,1,12,0:0:0:0:
367,249,134759,1,0,0:0:0:0:
367,249,134847,1,8,0:0:0:0:
367,249,134936,1,2,0:0:0:0:
145,160,135112,1,0,1:0:0:0:
345,33,135289,2,0,P|394:32|445:84,1,108.549995030976,12|0,0:0|0:0,0:0:0:0:
288,384,135641,6,0,B|239:342|239:342|266:166,1,217.099990061951,2|12,1:2|0:0,0:0:0:0:
392,358,136171,1,0,0:0:0:0:
392,358,136259,1,8,0:0:0:0:
392,358,136347,1,2,0:0:0:0:
220,116,136524,1,0,1:0:0:0:
471,221,136700,2,0,P|398:238|352:254,1,108.549995030976,12|0,0:0|0:0,0:0:0:0:
297,284,136965,1,0,0:0:0:0:
277,303,137053,6,0,P|181:313|115:208,1,217.099990061951,6|12,1:2|0:0,0:0:0:0:
327,141,137583,1,0,0:0:0:0:
327,141,137671,1,8,0:0:0:0:
327,141,137759,2,0,L|315:195,1,54.2749975154878
459,273,137936,2,0,L|471:219,1,54.2749975154878,0|0,1:0|0:0,0:0:0:0:
236,224,138112,1,8,0:0:0:0:
509,7,138288,6,0,P|442:65|339:48,1,162.824992546463,4|0,1:2|0:0,0:0:0:0:
341,44,138641,1,8,0:0:0:0:
71,157,138818,1,8,0:0:0:0:
180,3,138994,1,0,1:0:0:0:
201,36,139083,1,0,1:0:0:0:
199,74,139171,1,12,0:0:0:0:
47,346,139347,6,0,L|59:285,1,54.2749975154878,0|0,1:0|0:0,0:0:0:0:
164,165,139524,1,10,0:3:0:0:
359,344,139700,5,0,1:0:0:0:
359,344,139789,1,0,1:0:0:0:
359,344,139877,1,14,0:0:0:0:
456,139,140053,1,0,1:0:0:0:
193,262,140230,1,2,1:2:0:0:
463,352,140406,1,8,0:0:0:0:
359,76,140583,2,0,P|344:134|331:185,1,108.549995030976,2|0,1:2|1:0,0:0:0:0:
124,380,140935,5,10,0:0:0:0:
88,359,141024,1,0,0:0:0:0:
71,323,141112,1,0,1:0:0:0:
64,278,141200,1,0,0:0:0:0:
80,239,141288,1,14,0:0:0:0:
331,181,141465,1,0,0:0:0:0:
150,5,141641,1,2,1:2:0:0:
226,273,141818,2,0,P|280:286|333:303,1,108.549995030976,8|0,0:0|1:0,0:0:0:0:
509,140,142171,5,0,1:0:0:0:
378,16,142347,2,0,P|389:69|408:122,1,108.549995030976,8|0,0:0|1:0,0:0:0:0:
435,330,142700,6,0,B|319:300|349:392|229:367,1,217.099990061951,14|0,0:0|1:0,0:0:0:0:
36,245,143230,1,8,0:0:0:0:
229,165,143406,1,0,1:0:0:0:
61,371,143583,1,0,1:0:0:0:
136,119,143759,1,10,0:0:0:0:
331,231,143935,5,0,1:0:0:0:
363,241,144024,1,0,0:0:0:0:
392,252,144112,2,0,P|446:238|501:226,1,108.549995030976,10|0,0:0|1:0,0:0:0:0:
394,101,144465,1,0,1:0:0:0:
434,346,144641,6,0,P|364:280|239:280,1,217.099990061951,12|8,0:0|0:3,0:0:0:0:
72,150,145171,1,2,1:2:0:0:
104,377,145347,5,8,0:3:0:0:
104,377,145435,1,8,0:3:0:0:
104,377,145524,2,0,P|116:322|131:267,1,108.549995030976,14|0,0:0|1:0,0:0:0:0:
289,84,145877,1,2,1:2:0:0:
37,15,146053,6,0,B|130:32|75:79|181:92,1,162.824992546463,8|0,0:0|0:0,0:0:0:0:
189,82,146406,1,0,1:0:0:0:
346,227,146583,1,10,0:0:0:0:
468,11,146759,5,0,1:0:0:0:
468,11,146847,1,0,0:0:0:0:
468,11,146935,2,0,P|379:14|304:122,1,217.099990061951,14|2,0:0|1:2,0:0:0:0:
426,310,147465,2,0,P|435:253|447:201,1,108.549995030976,8|0,0:0|1:0,0:0:0:0:
204,34,147818,1,0,1:0:0:0:
266,293,147994,1,10,0:0:0:0:
208,38,148171,1,2,0:0:0:0:
6,179,148347,6,0,B|61:221|61:221|133:211|191:156,1,217.099990061951,14|0,0:0|1:0,0:0:0:0:
348,31,148877,1,8,0:0:0:0:
462,237,149053,1,0,1:0:0:0:
268,94,149230,1,0,1:0:0:0:
447,0,149406,2,0,P|438:55|422:106,1,108.549995030976,10|0,0:0|1:0,0:0:0:0:
448,368,149759,5,10,0:3:0:0:
418,329,149847,1,0,1:0:0:0:
378,311,149935,1,0,1:0:0:0:
336,306,150024,1,0,1:0:0:0:
297,317,150112,1,12,0:0:0:0:
32,224,150288,5,8,0:3:0:0:
71,235,150376,1,8,0:3:0:0:
113,230,150465,1,0,1:0:0:0:
153,212,150553,1,0,1:0:0:0:
183,173,150641,1,12,0:0:0:0:
256,0,150818,2,0,L|243:56,1,54.2749975154878,2|0,1:2|0:0,0:0:0:0:
88,139,150994,5,10,0:0:0:0:
88,139,151083,1,8,0:0:0:0:
88,139,151171,2,0,P|76:82|59:26,1,108.549995030976,6|0,1:2|1:0,0:0:0:0:
269,200,151524,1,10,0:0:0:0:
422,75,151700,5,0,0:0:0:0:
422,75,151788,1,8,0:0:0:0:
422,75,151877,2,0,P|364:98|314:113,1,108.549995030976,2|0,0:0|1:0,0:0:0:0:
512,261,152230,1,10,0:0:0:0:
357,195,152406,1,0,0:0:0:0:
376,383,152583,6,0,P|399:325|414:275,1,108.549995030976,2|0,1:2|1:0,0:0:0:0:
245,6,152935,2,0,P|205:51|86:44,1,162.824992546463,10|8,0:0|0:0,0:0:0:0:
65,33,153288,1,2,0:0:0:0:
243,172,153465,1,0,1:0:0:0:
73,279,153641,2,0,P|85:227|101:175,1,108.549995030976,10|0,0:0|0:0,0:0:0:0:
101,174,153906,1,0,0:0:0:0:
101,174,153994,1,6,1:2:0:0:
330,231,154171,1,0,1:0:0:0:
255,0,154347,6,0,B|211:55|211:55|239:169,1,162.824992546463,10|8,0:0|0:0,0:0:0:0:
243,172,154700,1,4,1:2:0:0:
439,102,154877,1,2,1:2:0:0:
263,306,155053,2,0,P|210:290|156:282,1,108.549995030976,10|0,0:0|0:0,0:0:0:0:
187,384,155318,5,8,0:0:0:0:
187,384,155406,2,0,P|256:329|378:348,1,217.099990061951,6|8,1:2|0:0,0:0:0:0:
492,170,155935,5,0,0:0:0:0:
492,170,156024,1,8,0:0:0:0:
492,170,156112,2,0,L|430:186,1,54.2749975154878,2|8,0:0|0:0,0:0:0:0:
293,99,156288,2,0,L|231:115,1,54.2749975154878,0|0,1:0|0:0,0:0:0:0:
406,13,156465,1,14,0:0:0:0:
336,224,156641,5,10,0:3:0:0:
336,224,156730,1,8,0:3:0:0:
336,224,156818,2,0,B|289:203|289:203|222:218,1,108.549995030976,6|0,1:2|1:0,0:0:0:0:
3,27,157171,6,0,P|61:70|162:45,1,162.824992546463,10|8,0:0|0:0,0:0:0:0:
164,39,157524,1,0,0:0:0:0:
233,215,157700,1,0,1:0:0:0:
350,77,157877,2,0,P|294:92|242:108,1,108.549995030976,10|0,0:0|0:0,0:0:0:0:
444,363,158230,6,0,P|349:295|246:310,1,217.099990061951,2|10,1:2|0:0,0:0:0:0:
76,208,158759,1,0,0:0:0:0:
51,216,158847,1,8,0:0:0:0:
24,227,158936,1,2,0:0:0:0:
254,305,159112,5,0,1:0:0:0:
301,314,159200,1,0,1:0:0:0:
349,305,159288,1,10,0:0:0:0:
387,275,159377,1,8,0:0:0:0:
403,231,159465,1,8,0:0:0:0:
405,186,159553,1,8,0:0:0:0:
386,139,159641,5,6,1:2:0:0:
469,364,159818,1,0,0:0:0:0:
299,213,159994,1,0,0:0:0:0:
464,27,160171,6,0,P|400:91|262:86,1,217.099990061951,12|0,0:0|1:0,0:0:0:0:
41,27,160700,2,0,P|56:84|70:138,1,108.549995030976,10|0,0:3|1:0,0:0:0:0:
76,156,160965,1,0,0:0:0:0:
83,178,161053,1,8,0:0:0:0:
256,232,161230,1,0,0:0:0:0:
61,299,161406,6,0,B|97:274|97:274|132:278|161:299,1,108.549995030976,2|0,1:2|1:0,0:0:0:0:
332,366,161759,2,0,L|391:353,2,61.2333352020264,10|8|8,0:0|0:0|0:0,0:0:0:0:
472,384,162112,5,2,1:2:0:0:
512,320,162230,1,8,0:3:0:0:
491,245,162347,1,8,0:3:0:0:
421,218,162465,6,0,P|414:159|442:90,1,133.6,6|0,1:2|0:0,0:0:0:0:
502,51,162730,2,0,B|485:21|488:-14|488:-14|463:12|433:19,1,133.6,6|0,1:2|0:0,0:0:0:0:
380,70,162994,2,0,P|407:89|440:90,1,66.8,6|0,1:2|0:0,0:0:0:0:
491,245,163171,5,8,0:0:0:0:
442,235,163259,1,8,0:0:0:0:
393,244,163347,1,8,0:0:0:0:
350,270,163435,1,8,0:0:0:0:
320,309,163524,6,0,P|267:345|182:330,1,133.6,6|0,1:2|0:0,0:0:0:0:
126,355,163788,2,0,P|93:315|162:293,1,133.6,6|0,1:2|0:0,0:0:0:0:
199,339,164053,2,0,P|224:303|220:266,1,66.8,6|0,1:2|0:0,0:0:0:0:
164,13,164230,5,8,0:0:0:0:
106,46,164318,1,8,0:0:0:0:
83,108,164406,1,10,0:0:0:0:
103,171,164494,1,8,0:0:0:0:
162,203,164583,6,0,P|198:195|243:188,1,66.8,2|0,1:2|0:0,0:0:0:0:
238,181,164759,2,0,P|202:189|157:196,1,66.8,10|0,0:3|0:0,0:0:0:0:
44,5,164935,5,2,1:2:0:0:
106,46,165024,1,10,0:0:0:0:
167,87,165112,2,0,P|212:79|257:72,1,66.8,10|8,0:3|0:3,0:0:0:0:
496,138,165288,6,0,B|466:119|453:85|453:85|425:109|395:111,1,133.6,6|0,1:2|0:0,0:0:0:0:
320,138,165553,2,0,P|362:186|427:185,1,133.6,6|0,1:2|0:0,0:0:0:0:
496,138,165818,2,0,P|489:104|484:72,1,66.8,6|0,1:2|0:0,0:0:0:0:
506,225,165994,1,8,0:3:0:0:
281,307,166171,5,8,0:0:0:0:
239,329,166259,1,8,0:0:0:0:
196,351,166347,2,0,P|146:348|149:257,1,133.6,6|0,1:2|0:0,0:0:0:0:
190,231,166612,2,0,P|217:175|212:83,1,133.6,6|0,1:2|0:0,0:0:0:0:
174,42,166877,1,6,1:2:0:0:
256,192,166965,12,0,167935,0:0:0:0:
403,2,168111,5,10,1:2:0:0:
103,94,168288,1,10,1:2:0:0:
95,84,168641,5,10,1:2:0:0:
364,208,168817,1,10,1:2:0:0:
372,199,169170,5,10,1:2:0:0:
182,299,169347,1,10,1:2:0:0:
175,289,169700,5,10,1:2:0:0:
299,343,169876,1,10,1:2:0:0:
303,336,170141,6,0,L|296:300,2,25.0499992355347,0|0|10,1:0|1:0|1:2,0:0:0:0:
175,289,170406,1,4,1:2:0:0:
372,199,170582,1,8,0:0:0:0:
95,25,170759,6,0,B|57:59|57:59|75:110|87:168,1,150.299995413208,4|0,1:2|0:0,0:0:0:0:
88,173,171112,1,0,1:0:0:0:
298,311,171288,1,12,0:0:0:0:
250,241,171465,1,0,0:0:0:0:
487,76,171641,2,0,P|441:89|362:110,1,100.199996942139,0|0,1:0|0:0,0:0:0:0:
381,101,171906,1,0,1:0:0:0:
372,99,171994,1,0,0:0:0:0:
0,295,172171,6,0,B|120:264|85:329|205:306,1,200.399993884278,12|0,0:0|1:0,0:0:0:0:
250,241,172612,1,0,1:0:0:0:
256,225,172700,2,0,P|246:187|241:163,1,50.0999984710694,12|0,0:0|0:0,0:0:0:0:
364,306,172877,2,0,P|358:330|351:354,1,50.0999984710694,0|8,0:0|0:0,0:0:0:0:
173,230,173053,5,0,1:2:0:0:
448,168,173229,1,0,1:2:0:0:
265,384,173406,1,0,1:2:0:0:
288,99,173583,1,0,1:2:0:0:
434,342,173759,5,6,1:2:0:0:
442,323,174112,1,0,1:0:0:0:
443,303,174465,1,0,1:0:0:0:
438,283,174818,1,0,1:0:0:0:
301,158,175171,5,2,1:2:0:0:
296,138,175524,1,0,1:0:0:0:
297,118,175877,1,0,1:0:0:0:
304,99,176230,1,0,1:0:0:0:
505,173,176583,6,0,P|455:185|408:196,1,100.199996942139,2|0,1:2|1:0,0:0:0:0:
231,29,177288,2,0,P|281:17|328:6,1,100.199996942139,0|0,1:0|1:0,0:0:0:0:
319,235,177994,6,0,P|305:173|294:131,1,100.199996942139,2|0,1:2|1:0,0:0:0:0:
421,0,178700,2,0,P|435:62|446:104,1,100.199996942139,0|0,1:0|1:2,0:0:0:0:
364,97,179230,1,0,0:0:0:0:
231,29,179406,6,0,P|160:36|100:144,1,200.399993884278,2|0,1:2|1:0,0:0:0:0:
152,198,180465,1,0,1:0:0:0:
22,254,180818,2,0,P|95:265|244:297,1,200.399993884278,2|0,1:2|1:0,0:0:0:0:
288,325,181877,1,0,1:0:0:0:
490,198,182230,6,0,P|426:221|376:241,1,100.199996942139,2|0,1:2|1:0,0:0:0:0:
300,98,182935,2,0,P|364:75|414:55,1,100.199996942139,0|0,1:0|1:0,0:0:0:0:
446,128,183465,1,0,1:0:0:0:
502,274,183641,6,0,P|417:268|394:228,1,133.6,2|0,1:2|1:0,0:0:0:0:
395,232,184171,1,0,0:0:0:0:
473,47,184347,1,0,1:0:0:0:
305,188,184524,1,8,0:3:0:0:
512,143,184700,2,0,P|454:130|419:123,1,66.8,2|8,1:2|0:0,0:0:0:0:
440,127,184965,1,8,0:0:0:0:
433,126,185053,5,2,1:2:0:0:
225,72,185230,1,0,0:0:0:0:
305,188,185406,2,0,B|320:149|320:149|282:95,1,83.5,0|2,1:0|0:0,0:0:0:0:
123,26,185759,2,0,P|139:96|165:219,1,167,0|2,1:0|1:2,0:0:0:0:
228,64,186288,1,0,0:0:0:0:
346,266,186465,6,0,P|294:230|226:242,1,125.25,2|0,1:2|0:0,0:0:0:0:
214,257,186818,1,0,1:0:0:0:
76,373,186994,2,0,P|126:359|170:348,1,83.5,2|0,0:0|1:0,0:0:0:0:
15,240,187347,1,8,0:0:0:0:
132,116,187524,2,0,B|162:151|162:151|157:202,1,83.5,2|0,1:2|0:0,0:0:0:0:
158,196,187788,1,0,0:0:0:0:
157,204,187877,5,2,1:2:0:0:
79,175,188053,1,0,0:0:0:0:
49,96,188230,1,0,1:0:0:0:
88,22,188406,1,2,0:0:0:0:
255,80,188583,5,0,1:0:0:0:
335,100,188759,1,8,0:0:0:0:
415,121,188935,1,2,1:2:0:0:
495,143,189112,1,8,0:0:0:0:
291,243,189288,6,0,P|280:190|272:153,1,83.5,2|0,1:2|0:0,0:0:0:0:
477,61,189641,2,0,P|488:114|496:151,1,83.5,0|2,1:0|0:0,0:0:0:0:
308,13,189994,5,8,1:2:0:0:
502,229,190171,1,0,0:0:0:0:
502,229,190259,1,8,0:0:0:0:
502,229,190347,2,0,P|457:215|390:199,1,100.199996942139,2|0,1:2|0:0,0:0:0:0:
200,325,190700,5,6,1:2:0:0:
200,325,191053,1,0,1:0:0:0:
275,358,191230,1,0,1:0:0:0:
179,249,191406,1,0,1:0:0:0:
352,290,191583,1,0,1:0:0:0:
134,186,191759,1,0,1:0:0:0:
365,132,191935,1,0,1:0:0:0:
130,377,192112,6,0,P|112:323|100:277,1,100.199996942139,0|0,1:0|1:0,0:0:0:0:
419,19,192465,2,0,P|437:73|449:119,1,100.199996942139,0|0,1:0|1:0,0:0:0:0:
65,152,192818,5,0,1:0:0:0:
364,368,192994,1,0,1:0:0:0:
419,19,193171,1,0,1:0:0:0:
18,320,193347,1,8,0:0:0:0:
18,320,193435,1,8,0:0:0:0:
18,320,193524,6,0,P|93:249|213:252,1,200.399993884278,6|0,1:2|0:0,0:0:0:0:
1,62,194053,2,0,P|42:94|37:0,1,200.399993884278,6|0,1:2|0:0,0:0:0:0:
222,363,194583,2,0,P|165:337|109:335,1,100.199996942139,6|0,1:2|0:0,0:0:0:0:
458,57,194935,6,0,B|437:40|419:19|419:19|440:92|456:179,1,200.399993884278,6|0,1:2|0:0,0:0:0:0:
128,333,195465,2,0,P|66:264|88:155,1,200.399993884278,6|0,1:2|0:0,0:0:0:0:
475,255,195994,2,0,P|406:235|365:224,1,100.199996942139,6|8,1:2|0:3,0:0:0:0:
358,224,196259,1,8,0:3:0:0:
338,221,196347,6,0,P|371:210|423:192,1,58.4499982162476,6|0,1:2|0:0,0:0:0:0:
477,343,196524,1,8,0:0:0:0:
433,332,196612,1,8,0:0:0:0:
389,319,196700,1,8,0:0:0:0:
345,306,196788,1,8,0:0:0:0:
300,294,196877,2,0,P|290:326|283:351,1,58.4499982162476,4|0,1:2|0:0,0:0:0:0:
473,170,197053,5,8,0:0:0:0:
492,127,197141,1,8,0:0:0:0:
483,80,197230,1,8,0:0:0:0:
458,40,197318,1,8,0:0:0:0:
413,27,197406,2,0,P|367:39|339:46,1,58.4499982162476,4|0,1:2|0:0,0:0:0:0:
208,159,197583,2,0,P|236:166|264:173,1,58.4499982162476,8|8,0:0|0:0,0:0:0:0:
91,32,197759,5,4,1:2:0:0:
58,65,197847,1,0,0:0:0:0:
49,110,197935,1,8,0:0:0:0:
58,156,198024,1,8,0:0:0:0:
85,193,198112,2,0,P|94:157|108:115,1,58.4499982162476,0|8,1:0|0:0,0:0:0:0:
250,26,198288,2,0,P|258:53|265:82,1,58.4499982162476,8|8,0:0|0:0,0:0:0:0:
440,271,198465,5,0,1:0:0:0:
389,243,198553,1,8,0:0:0:0:
332,251,198641,1,8,0:0:0:0:
292,292,198729,1,8,0:0:0:0:
283,349,198818,5,8,1:2:0:0:
357,337,198906,1,8,0:3:0:0:
406,279,198994,1,8,0:3:0:0:
421,203,199083,1,8,0:3:0:0:
401,129,199171,5,8,0:0:0:0:
401,129,199259,2,0,P|449:144|468:148,1,58.4499982162476,8|8,0:0|0:0,0:0:0:0:
283,349,199435,5,8,0:0:0:0:
283,349,199523,2,0,P|254:356|227:365,1,58.4499982162476,8|8,0:0|0:0,0:0:0:0:
34,142,199700,6,0,B|153:153|89:187|200:205,1,175.349994648743,4|0,1:2|0:0,0:0:0:0:
264,173,200053,1,4,1:2:0:0:
479,49,203230,5,8,0:0:0:0:
479,49,203318,1,8,0:0:0:0:
479,49,203406,2,0,B|393:21|393:21|425:194,1,225.449993119812,6|0,1:2|0:0,0:0:0:0:
447,223,203759,6,0,P|400:195|333:206,1,108.549995030976,10|0,0:0|0:0,0:0:0:0:
348,199,204024,1,8,0:0:0:0:
348,199,204112,1,0,0:0:0:0:
189,24,204288,1,0,1:0:0:0:
73,166,204465,2,0,P|128:152|187:143,1,108.549995030976,10|0,0:0|0:0,0:0:0:0:
325,42,204818,5,2,1:2:0:0:
232,284,204994,1,0,1:0:0:0:
503,197,205171,6,0,P|459:155|350:157,1,162.824992546463,8|8,0:0|0:0,0:0:0:0:
264,158,205524,1,0,0:0:0:0:
272,130,205612,1,8,0:0:0:0:
280,102,205700,1,0,1:0:0:0:
385,338,205877,1,10,0:0:0:0:
181,295,206053,5,10,0:0:0:0:
130,290,206141,1,8,0:0:0:0:
87,314,206230,2,0,B|44:206|107:252|59:131,1,162.824992546463,4|0,1:2|0:0,0:0:0:0:
57,125,206583,1,10,0:0:0:0:
194,186,206759,1,0,0:0:0:0:
194,186,206847,1,8,0:0:0:0:
194,186,206935,1,2,0:0:0:0:
277,7,207112,1,0,1:0:0:0:
425,87,207288,2,0,P|369:100|316:115,1,108.549995030976,10|0,0:0|0:0,0:0:0:0:
98,267,207641,5,0,1:0:0:0:
297,118,207818,1,0,1:0:0:0:
47,13,207994,2,0,P|43:92|121:165,1,162.824992546463,10|8,0:0|0:0,0:0:0:0:
126,162,208347,1,0,0:0:0:0:
297,118,208524,1,0,1:0:0:0:
369,313,208700,2,0,P|322:281|246:281,1,108.549995030976,10|0,0:0|0:0,0:0:0:0:
240,296,208965,5,0,0:0:0:0:
240,296,209053,2,0,P|228:241|209:183,1,108.549995030976,2|0,1:2|1:0,0:0:0:0:
456,0,209406,2,0,P|468:55|487:113,1,108.549995030976,10|0,0:0|0:0,0:0:0:0:
483,104,209671,1,8,0:0:0:0:
483,104,209759,1,2,0:0:0:0:
308,217,209935,1,0,1:0:0:0:
350,5,210112,1,10,0:0:0:0:
447,235,210288,1,8,0:3:0:0:
207,97,210465,6,0,P|179:108|145:117,1,54.2749975154878,6|0,1:2|0:0,0:0:0:0:
8,222,210641,1,8,0:0:0:0:
46,201,210730,1,8,0:0:0:0:
90,197,210818,1,0,1:0:0:0:
133,212,210906,1,8,0:0:0:0:
164,249,210994,2,0,P|191:243|226:232,1,54.2749975154878,8|0,0:3|0:0,0:0:0:0:
460,362,211171,5,0,1:0:0:0:
420,382,211259,1,8,0:0:0:0:
371,384,211347,1,8,0:0:0:0:
333,360,211436,1,8,0:0:0:0:
314,312,211524,1,4,1:2:0:0:
422,193,211700,5,8,0:0:0:0:
422,193,211788,1,8,0:0:0:0:
422,193,211877,2,0,P|409:244|399:299,1,108.549995030976,6|0,1:2|1:0,0:0:0:0:
216,158,212230,2,0,P|229:107|239:52,1,108.549995030976,10|0,0:0|0:0,0:0:0:0:
243,12,212494,1,8,0:0:0:0:
243,12,212583,2,0,P|296:24|365:32,1,108.549995030976,2|0,0:0|1:0,0:0:0:0:
313,217,212935,1,10,0:0:0:0:
140,102,213112,5,0,0:0:0:0:
140,102,213200,1,0,0:0:0:0:
140,102,213288,2,0,P|93:119|21:134,1,108.549995030976,2|0,1:2|1:0,0:0:0:0:
224,317,213641,2,0,P|177:300|105:285,1,108.549995030976,10|0,0:0|0:0,0:0:0:0:
95,283,213906,1,8,0:0:0:0:
95,283,213994,1,2,0:0:0:0:
224,206,214171,1,0,1:0:0:0:
327,378,214347,2,0,P|337:326|353:273,1,108.549995030976,8|0,0:0|0:0,0:0:0:0:
512,89,214700,6,0,P|461:135|354:126,1,162.824992546463,2|0,1:2|0:0,0:0:0:0:
340,116,215053,1,10,0:0:0:0:
139,17,215230,1,0,0:0:0:0:
139,17,215318,1,8,0:0:0:0:
139,17,215406,1,2,0:0:0:0:
230,239,215583,1,0,1:0:0:0:
7,169,215759,2,0,P|60:158|116:138,1,108.549995030976,10|0,0:0|0:0,0:0:0:0:
372,287,216112,5,2,1:2:0:0:
136,225,216288,1,0,1:0:0:0:
313,51,216465,2,0,P|296:104|284:156,1,108.549995030976,10|0,0:0|0:0,0:0:0:0:
316,187,216730,1,8,0:0:0:0:
362,191,216818,1,2,0:0:0:0:
405,173,216906,1,8,0:0:0:0:
423,128,216994,1,0,1:0:0:0:
270,377,217171,1,10,0:0:0:0:
509,300,217347,5,0,0:0:0:0:
509,300,217435,1,8,0:0:0:0:
509,300,217524,2,0,B|463:254|396:266|396:266|367:307|309:317,1,217.099990061951,6|12,1:2|0:0,0:0:0:0:
145,167,218053,1,0,0:0:0:0:
145,167,218141,1,8,0:0:0:0:
145,167,218230,1,2,0:0:0:0:
62,363,218406,1,0,1:0:0:0:
248,240,218583,2,0,P|261:154|281:71,1,162.824992546463,12|0,0:0|0:0,0:0:0:0:
289,42,218935,5,2,1:2:0:0:
374,230,219112,1,0,1:0:0:0:
118,116,219288,2,0,P|62:135|8:151,1,108.549995030976,12|0,0:0|0:0,0:0:0:0:
14,149,219553,1,8,0:0:0:0:
14,149,219641,1,2,0:0:0:0:
170,2,219818,1,0,1:0:0:0:
248,241,219994,1,12,0:0:0:0:
395,56,220171,5,0,0:0:0:0:
395,56,220259,1,0,0:0:0:0:
395,56,220347,2,0,P|488:103|495:210,1,217.099990061951,6|12,1:2|0:0,0:0:0:0:
365,361,220877,1,0,0:0:0:0:
365,361,220965,1,8,0:0:0:0:
365,361,221053,2,0,L|376:304,1,54.2749975154878
197,123,221230,1,0,1:0:0:0:
262,380,221406,1,10,0:0:0:0:
21,271,221583,6,0,P|72:218|157:218,1,162.824992546463,4|0,1:2|0:0,0:0:0:0:
186,233,221935,2,0,P|215:227|240:218,1,54.2749975154878,8|0,0:0|0:0,0:0:0:0:
368,72,222112,2,0,P|358:97|353:124,1,54.2749975154878,8|0,0:0|0:0,0:0:0:0:
463,318,222288,5,0,1:0:0:0:
463,318,222377,1,0,1:0:0:0:
463,318,222465,1,12,0:0:0:0:
264,135,222641,1,0,1:0:0:0:
496,65,222818,1,10,0:3:0:0:
410,210,222994,1,2,1:2:0:0:
410,210,223083,1,0,1:0:0:0:
410,210,223171,6,0,P|352:231|304:247,1,108.549995030976,14|0,0:0|1:0,0:0:0:0:
148,96,223524,1,2,1:2:0:0:
102,346,223700,1,8,0:0:0:0:
1,164,223877,2,0,P|81:173|132:247,1,162.824992546463,2|0,1:2|0:0,0:0:0:0:
136,263,224230,1,10,0:0:0:0:
301,44,224406,1,0,1:0:0:0:
301,44,224494,1,0,0:0:0:0:
301,44,224583,5,12,0:0:0:0:
239,291,224759,2,0,P|223:238|214:183,1,108.549995030976,0|2,1:0|1:2,0:0:0:0:
440,17,225112,2,0,P|463:95|481:189,1,162.824992546463,8|0,0:0|0:0,0:0:0:0:
482,205,225465,1,0,1:0:0:0:
259,384,225641,2,0,P|307:344|356:349,1,108.549995030976,10|0,0:0|1:0,0:0:0:0:
420,368,225906,1,0,0:0:0:0:
435,377,225994,6,0,P|466:329|350:279,1,217.099990061951,14|0,0:0|1:0,0:0:0:0:
117,377,226524,2,0,P|128:313|136:262,1,108.549995030976,8|0,0:0|1:0,0:0:0:0:
299,90,226877,1,0,1:0:0:0:
463,299,227053,2,0,P|395:282|348:268,1,108.549995030976,10|0,0:0|1:0,0:0:0:0:
142,156,227406,5,10,0:0:0:0:
381,65,227583,1,0,1:0:0:0:
242,259,227759,1,0,1:0:0:0:
258,6,227935,1,4,0:0:0:0:
461,148,228112,5,0,1:0:0:0:
261,116,228288,1,8,0:3:0:0:
512,32,228465,1,2,1:2:0:0:
463,299,228641,1,10,0:3:0:0:
463,299,228730,1,0,1:0:0:0:
463,299,228818,6,0,P|407:321|350:344,1,108.549995030976,14|0,0:0|1:0,0:0:0:0:
153,135,229171,1,2,1:2:0:0:
374,241,229347,1,8,0:0:0:0:
101,314,229524,2,0,P|142:253|247:254,1,162.824992546463,2|0,1:2|0:0,0:0:0:0:
252,262,229877,1,10,0:0:0:0:
38,112,230053,1,0,1:0:0:0:
38,112,230141,1,0,0:0:0:0:
38,112,230230,5,12,0:0:0:0:
269,14,230406,2,0,P|252:85|246:134,1,108.549995030976,0|2,1:0|1:2,0:0:0:0:
72,384,230759,2,0,P|58:319|31:213,1,162.824992546463,8|0,0:0|0:0,0:0:0:0:
23,197,231112,1,0,1:0:0:0:
349,321,231288,2,0,P|296:339|245:362,1,108.549995030976,10|0,0:0|1:0,0:0:0:0:
184,323,231553,1,0,0:0:0:0:
173,309,231641,6,0,P|165:254|207:203,1,108.549995030976,14|0,0:0|1:0,0:0:0:0:
398,384,231994,1,0,1:0:0:0:
500,169,232171,2,0,P|446:157|393:145,1,108.549995030976,8|0,0:0|1:0,0:0:0:0:
251,276,232524,1,0,1:0:0:0:
359,55,232700,1,10,0:0:0:0:
512,248,232877,1,0,1:0:0:0:
217,62,233053,5,10,0:3:0:0:
176,57,233141,1,0,1:0:0:0:
138,70,233229,1,0,1:0:0:0:
110,99,233317,1,0,1:0:0:0:
97,137,233406,2,0,P|111:184|120:213,1,62.6250023889543,12|0,0:0|0:0,0:0:0:0:
255,280,233583,2,0,P|264:250|272:220,1,62.6250023889543,8|8,0:3|0:3,0:0:0:0:
41,281,233759,5,0,1:0:0:0:
88,295,233847,1,0,1:0:0:0:
128,323,233935,1,12,0:2:0:0:
308,123,234112,2,0,P|339:115|380:97,1,62.6250023889543,2|0,1:2|0:0,0:0:0:0:
457,242,234288,1,8,0:0:0:0:
457,242,234377,1,8,0:0:0:0:
457,242,234465,6,0,P|430:196|357:190,1,125.25,6|0,1:2|0:0,0:0:0:0:
308,123,234818,5,10,0:0:0:0:
475,26,234994,1,0,0:0:0:0:
475,26,235083,1,8,0:0:0:0:
475,26,235171,2,0,P|491:99|507:157,1,108.549995030976,2|0,0:0|1:0,0:0:0:0:
323,384,235524,2,0,P|313:315|287:213,1,162.824992546463,10|0,0:0|0:0,0:0:0:0:
287,203,235877,5,0,1:0:0:0:
479,340,236053,1,0,1:0:0:0:
216,383,236230,2,0,P|150:366|101:356,1,108.549995030976,10|0,0:0|0:0,0:0:0:0:
43,334,236494,1,8,0:0:0:0:
32,318,236583,2,0,P|15:248|32:213,1,108.549995030976,2|0,0:0|1:0,0:0:0:0:
282,39,236935,1,10,0:0:0:0:
26,99,237112,1,2,0:0:0:0:
26,99,237200,1,0,0:0:0:0:
26,99,237288,6,0,P|60:141|172:110,1,162.824992546463,4|0,1:2|0:0,0:0:0:0:
203,30,237641,2,0,P|128:56|85:71,1,108.549995030976,10|0,0:0|0:0,0:0:0:0:
39,19,237906,1,8,0:0:0:0:
39,19,237994,1,6,1:2:0:0:
221,191,238171,1,0,1:0:0:0:
377,13,238347,2,0,P|449:33|475:94,1,108.549995030976,10|0,0:0|0:0,0:0:0:0:
475,131,238612,1,8,0:0:0:0:
470,143,238700,6,0,P|453:225|438:308,1,162.824992546463,6|0,1:2|0:0,0:0:0:0:
386,355,239053,2,0,P|314:335|288:274,1,108.549995030976,10|0,0:0|0:0,0:0:0:0:
291,264,239318,1,8,0:0:0:0:
261,229,239406,1,2,0:0:0:0:
217,214,239494,1,8,0:0:0:0:
173,229,239583,1,0,1:0:0:0:
376,13,239759,2,0,P|403:9|430:3,1,54.2749975154878,14|0,0:0|0:0,0:0:0:0:
477,75,239935,1,10,0:3:0:0:
477,75,240024,1,8,0:3:0:0:
477,75,240112,6,0,P|426:85|348:101,1,108.549995030976,6|0,1:2|1:0,0:0:0:0:
55,43,240465,2,0,P|152:46|181:112,1,162.824992546463,10|8,0:0|0:0,0:0:0:0:
184,123,240818,1,0,0:0:0:0:
67,350,240994,1,0,1:0:0:0:
5,139,241171,2,0,P|67:161|123:184,1,108.549995030976,10|0,0:0|0:0,0:0:0:0:
397,372,241524,5,2,1:2:0:0:
101,260,241700,1,0,1:0:0:0:
339,65,241877,2,0,B|370:113|370:113|348:172,1,108.549995030976,10|0,0:0|0:0,0:0:0:0:
352,161,242141,1,8,0:0:0:0:
352,161,242230,1,2,0:0:0:0:
195,358,242406,1,0,1:0:0:0:
66,69,242583,1,10,0:0:0:0:
117,85,242671,1,8,0:0:0:0:
169,100,242759,1,8,0:0:0:0:
222,114,242847,1,8,0:0:0:0:
274,128,242935,6,0,P|211:143|157:160,1,108.549995030976,6|0,1:2|0:0,0:0:0:0:
430,51,243288,1,0,0:0:0:0:
264,244,243465,2,0,P|387:255|439:346,1,217.099990061951,12|0,0:0|1:0,0:0:0:0:
89,344,243994,2,0,P|101:294|114:231,1,108.549995030976,10|0,0:3|1:0,0:0:0:0:
360,384,244347,5,12,0:0:0:0:
430,51,244700,2,0,B|463:46|463:46|498:62,2,72.3666633539837,8|8|8,0:0|0:0|0:3,0:0:0:0:
379,112,245053,1,8,0:3:0:0:
314,159,245171,1,8,0:0:0:0:
235,148,245288,1,8,0:0:0:0:
176,93,245406,1,10,0:0:0:0:
157,16,245523,6,0,B|187:44|187:44|183:101,1,72.3666633539837
97,220,245759,2,0,B|221:184|166:281|311:240,1,217.099990061951,12|8,0:0|0:0,0:0:0:0:
487,264,246288,1,2,0:0:0:0:
297,88,246465,1,8,0:0:0:0:
365,327,246641,5,0,1:0:0:0:
365,327,246730,1,0,1:0:0:0:
365,327,246818,2,0,P|444:270|446:153,1,217.099990061951,14|8,0:0|0:0,0:0:0:0:
308,23,247347,1,2,0:0:0:0:
196,230,247524,2,0,P|248:218|301:202,1,108.549995030976,8|0,0:0|1:0,0:0:0:0:
300,202,247788,1,0,1:0:0:0:
300,202,247877,1,10,0:0:0:0:
46,149,248053,1,2,1:2:0:0:
240,348,248230,1,8,0:0:0:0:
170,72,248406,2,0,L|152:125,1,54.2749975154878,2|0,1:2|0:0,0:0:0:0:
330,298,248583,6,0,B|419:272|419:272|496:295,1,162.824992546463,12|0,0:0|0:0,0:0:0:0:
509,302,248935,1,10,0:0:0:0:
287,155,249112,1,2,0:0:0:0:
484,89,249288,1,8,0:0:0:0:
247,250,249465,5,2,1:2:0:0:
210,241,249553,1,0,1:0:0:0:
173,230,249641,2,0,P|149:122|125:17,1,217.099990061951,14|10,0:0|0:0,0:0:0:0:
285,142,250171,1,2,0:0:0:0:
83,324,250347,1,8,0:0:0:0:
227,68,250524,1,2,1:2:0:0:
227,68,250612,1,0,1:0:0:0:
227,68,250700,1,8,0:0:0:0:
317,312,250877,1,2,1:2:0:0:
317,312,250965,1,0,0:0:0:0:
317,312,251053,2,0,L|372:329,1,54.2749975154878,12|0,0:0|0:0,0:0:0:0:
499,128,251230,2,0,L|447:144,1,54.2749975154878
203,192,251406,5,6,1:2:0:0:
203,192,251759,1,0,1:0:0:0:
367,88,251935,1,8,0:0:0:0:
212,6,252112,1,0,1:0:0:0:
333,206,252288,1,10,0:0:0:0:
130,87,252465,1,0,1:0:0:0:
59,309,252641,1,8,0:0:0:0:
274,126,252818,5,8,1:2:0:0:
315,367,252994,1,8,0:0:0:0:
85,222,253171,1,8,1:2:0:0:
443,107,253347,1,10,0:0:0:0:
111,6,253524,5,8,1:2:0:0:
340,254,253700,1,8,0:0:0:0:
0,186,253877,1,8,1:2:0:0:
337,42,254053,1,8,0:0:0:0:
128,339,254230,5,6,1:2:0:0:
256,192,254318,12,0,258288,0:0:0:0:
337,223,258465,5,6,1:2:0:0:
376,372,258641,2,0,P|386:332|400:292,1,83.5,2|8,0:0|0:0,0:0:0:0:
262,163,258994,1,2,0:0:0:0:
479,162,259171,2,0,P|421:216|322:217,1,167,2|10,1:2|0:0,0:0:0:0:
128,122,259700,2,0,P|141:170|155:220,1,83.5,2|0,0:0|1:0,0:0:0:0:
99,378,260053,5,2,0:0:0:0:
247,217,260230,1,10,0:0:0:0:
24,164,260406,1,2,0:0:0:0:
24,164,260494,1,2,0:0:0:0:
24,164,260583,1,2,1:2:0:0:
109,278,260759,1,2,0:0:0:0:
240,111,260935,2,0,B|271:102|271:102|299:107|299:107|334:86|384:92,1,125.25,10|0,0:0|0:0,0:0:0:0:
446,112,261288,5,2,1:2:0:0:
280,6,261465,1,2,0:0:0:0:
327,206,261641,1,8,0:0:0:0:
121,97,261818,1,2,0:0:0:0:
121,97,261906,1,0,0:0:0:0:
121,97,261994,2,0,P|107:137|94:179,1,83.5,2|0,1:2|0:0,0:0:0:0:
216,349,262347,1,10,0:0:0:0:
15,318,262524,6,0,P|75:272|165:272,1,167,2|2,0:0|0:0,0:0:0:0:
390,197,263053,1,10,0:0:0:0:
235,104,263230,5,2,0:0:0:0:
235,104,263318,1,2,0:0:0:0:
235,104,263406,2,0,L|224:151,1,41.75,6|0,1:2|0:0,0:0:0:0:
322,365,263583,2,0,L|332:324,1,41.75,10|0,0:0|0:0,0:0:0:0:
512,169,263759,6,0,L|390:198,1,125.250004777909,10|0,0:0|0:0,0:0:0:0:
345,207,264024,1,8,0:0:0:0:
345,207,264112,2,0,L|354:154,1,41.75,6|0,1:2|0:0,0:0:0:0:
250,21,264288,1,2,0:0:0:0:
204,244,264465,1,8,0:0:0:0:
28,125,264641,1,2,0:0:0:0:
28,125,264730,1,0,0:0:0:0:
28,125,264818,2,0,P|37:167|47:212,1,83.5,2|0,1:2|0:0,0:0:0:0:
219,363,265171,1,10,0:0:0:0:
12,324,265347,6,0,P|71:292|133:300,1,125.25,2|0,0:0|0:0,0:0:0:0:
155,313,265700,2,0,L|171:231,1,83.5,2|10,0:0|0:0,0:0:0:0:
318,128,266053,1,2,0:0:0:0:
318,128,266141,1,2,0:0:0:0:
318,128,266230,1,2,1:2:0:0:
178,53,266406,1,2,0:0:0:0:
269,259,266583,1,10,0:0:0:0:
483,134,266759,2,0,L|473:177,1,41.75,0|0,1:0|1:0,0:0:0:0:
477,362,266935,5,10,0:0:0:0:
439,384,267024,1,8,0:0:0:0:
391,384,267112,1,2,1:2:0:0:
345,359,267200,1,0,1:0:0:0:
319,319,267288,2,0,P|324:294|331:270,1,50.0999984710694,10|10,0:3|0:3,0:0:0:0:
256,80,267464,2,0,P|249:104|243:128,1,50.0999984710694,2|0,1:2|1:0,0:0:0:0:
181,320,267641,5,10,0:0:0:0:
362,181,267818,1,14,1:2:0:0:
120,8,267994,1,10,0:0:0:0:
91,239,268170,6,0,B|136:283|99:397|-44:406|-169:222|-41:10|220:78|163:184|284:172|284:172|235:153|226:96|226:96|241:83|243:55|243:55|264:61|290:55|290:55|328:62|345:109|345:109|345:109|345:109|348:55|399:30|399:30|416:40|441:34|441:34|442:56|457:78|457:78|462:116|424:146|424:146|424:146|424:146|474:133|515:174|515:174|511:193|525:217|525:217|504:224|490:245|490:245|453:261|413:233|413:233|413:232|413:232|442:277|416:327|416:327|396:330|378:351|378:351|364:334|340:323|340:323|313:296|326:248|326:248|327:248|327:248|294:288|237:279|237:279|229:261|204:251|204:251|216:233|219:205|219:205|225:192|230:186,1,1937.20005911865,6|0,0:0|0:0,0:0:0:0:
