osu file format v14

[General]
AudioFilename: audio.mp3
AudioLeadIn: 0
PreviewTime: 37877
Countdown: 0
SampleSet: Soft
StackLeniency: 0.7
Mode: 0
LetterboxInBreaks: 0
WidescreenStoryboard: 1

[Editor]
Bookmarks: 38230,60818,83406,117288,139877,162465,203406,223171,245759
DistanceSpacing: 0.3
BeatDivisor: 4
GridSize: 32
TimelineZoom: 2.3

[Metadata]
Title:Hana no Tou
TitleUnicode:花の塔
Artist:Sayuri
ArtistUnicode:さユり
Creator:Reillia
Version:Collab Insane
Source:リコリス・リコイル
Tags:Japanese Anime Curi C_u_r_i [C_u_r_i] Kaguya_Sama Kaguya Sama Shizuku- Kazato_Asa Kazato Asa Shikibe_Mayu Shikibe Mayu 錦木千束 Nishikigi Chisato 井ノ上たきな Inoue Takina Lycoris Recoil ED Ending Tower of Flower Jpop J-pop pop
BeatmapID:3749842
BeatmapSetID:1799574

[Difficulty]
HPDrainRate:6
CircleSize:4
OverallDifficulty:8
ApproachRate:9
SliderMultiplier:1.6
SliderTickRate:1

[Events]
//Background and Video events
0,0,"99718799_p0.jpg",0,0
//Break Periods
//Storyboard Layer 0 (Background)
//Storyboard Layer 1 (Fail)
//Storyboard Layer 2 (Pass)
//Storyboard Layer 3 (Foreground)
//Storyboard Layer 4 (Overlay)
//Storyboard Sound Samples

[TimingPoints]
112,352.941176470588,4,2,1,80,1,0
2230,-83.3333333333333,4,2,1,80,0,0
2494,-83.3333333333333,4,2,1,5,0,0
2583,-166.666666666667,4,2,1,70,0,0
2847,-166.666666666667,4,2,1,5,0,0
2935,-100,4,2,1,80,0,0
5671,-100,4,2,1,5,0,0
5759,-100,4,2,1,80,0,0
7877,-83.3333333333333,4,2,1,80,0,0
8583,-100,4,2,1,80,0,0
14230,-100,4,2,1,60,0,0
15730,-100,4,2,1,5,0,0
15818,-100,4,2,1,60,0,0
17847,-100,4,2,1,5,0,0
17935,-100,4,2,1,60,0,0
21377,-100,4,2,1,5,0,0
21465,-100,4,2,1,60,0,0
25435,-100,4,2,1,5,0,0
25524,-125,4,2,1,60,0,0
31171,-100,4,2,1,70,0,0
34259,-100,4,2,1,5,0,0
34347,-100,4,2,1,70,0,0
36818,-76.9230769230769,4,2,1,70,0,0
37347,-76.9230769230769,4,2,1,80,0,0
37612,-76.9230769230769,4,2,1,5,0,0
37700,-76.9230769230769,4,2,1,80,0,0
37877,-76.9230769230769,4,2,1,70,0,0
38229,-83.3333333333333,4,2,1,90,0,1
38494,-83.3333333333333,4,2,1,5,0,1
38583,-83.3333333333333,4,2,1,90,0,1
39553,-83.3333333333333,4,2,1,5,0,1
39641,-83.3333333333333,4,2,1,90,0,1
39906,-83.3333333333333,4,2,1,5,0,1
39994,-83.3333333333333,4,2,1,90,0,1
40964,-83.3333333333333,4,2,1,5,0,1
41053,-83.3333333333333,4,2,1,90,0,1
41318,-83.3333333333333,4,2,1,5,0,1
41406,-83.3333333333333,4,2,1,90,0,1
42376,-83.3333333333333,4,2,1,5,0,1
42464,-83.3333333333333,4,2,1,90,0,1
45200,-83.3333333333333,4,2,1,5,0,1
45288,-83.3333333333333,4,2,1,90,0,1
46611,-83.3333333333333,4,2,1,5,0,1
46700,-83.3333333333333,4,2,1,90,0,1
46965,-83.3333333333333,4,2,1,5,0,1
47053,-83.3333333333333,4,2,1,90,0,1
48112,-71.4285714285714,4,2,1,90,0,1
49524,-83.3333333333333,4,2,1,90,0,1
52259,-83.3333333333333,4,2,1,5,0,1
52347,-83.3333333333333,4,2,1,90,0,1
54024,-83.3333333333333,4,2,1,5,0,1
54112,-83.3333333333333,4,2,1,90,0,1
57906,-83.3333333333333,4,2,1,5,0,1
57994,-83.3333333333333,4,2,1,90,0,1
59230,-62.5,4,2,1,90,0,1
59494,-62.5,4,2,1,5,0,1
59583,-62.5,4,2,1,90,0,1
60464,-62.5,4,2,1,90,0,0
60817,-83.3333333333333,4,2,1,90,0,1
61788,-83.3333333333333,4,2,1,5,0,1
61877,-83.3333333333333,4,2,1,90,0,1
63024,-83.3333333333333,4,2,1,5,0,1
63112,-83.3333333333333,4,2,1,90,0,1
67435,-83.3333333333333,4,2,1,5,0,1
67524,-83.3333333333333,4,2,1,90,0,1
67788,-83.3333333333333,4,2,1,5,0,1
67876,-83.3333333333333,4,2,1,90,0,1
68671,-83.3333333333333,4,2,1,5,0,1
68759,-83.3333333333333,4,2,1,90,0,1
72112,-125,4,2,1,90,0,1
72377,-125,4,2,1,5,0,1
72465,-83.3333333333333,4,2,1,90,0,1
73435,-83.3333333333333,4,2,1,5,0,1
73524,-83.3333333333333,4,2,1,90,0,1
75200,-83.3333333333333,4,2,1,5,0,1
75288,-83.3333333333333,4,2,1,90,0,1
76612,-83.3333333333333,4,2,1,5,0,1
76700,-83.3333333333333,4,2,1,90,0,1
83406,-100,4,2,1,80,0,0
84376,-100,4,2,1,5,0,0
84464,-100,4,2,1,80,0,0
86141,-100,4,2,1,5,0,0
86230,-100,4,2,1,80,0,0
87200,-100,4,2,1,5,0,0
87288,-100,4,2,1,80,0,0
88347,-83.3333333333333,4,2,1,80,0,0
89053,-100,4,2,1,80,0,0
90023,-100,4,2,1,5,0,0
90111,-100,4,2,1,80,0,0
93377,-100,4,2,1,5,0,0
93465,-100,4,2,1,80,0,0
94700,-100,4,2,1,60,0,0
96906,-100,4,2,1,5,0,0
96994,-100,4,2,1,60,0,0
98317,-100,4,2,1,5,0,0
98406,-100,4,2,1,60,0,0
101583,-83.3333333333333,4,2,1,60,0,0
101847,-83.3333333333333,4,2,1,5,0,0
101935,-83.3333333333333,4,2,1,60,0,0
104670,-83.3333333333333,4,2,1,5,0,0
104759,-83.3333333333333,4,2,1,60,0,0
105994,-100,4,2,1,60,0,0
107671,-100,4,2,1,5,0,0
107759,-100,4,2,1,60,0,0
111641,-100,4,2,1,70,0,0
116935,-125,4,2,1,80,0,0
117200,-125,4,2,1,5,0,0
117288,-83.3333333333333,4,2,1,90,0,1
117553,-83.3333333333333,4,2,1,5,0,1
117641,-83.3333333333333,4,2,1,90,0,1
118611,-83.3333333333333,4,2,1,5,0,1
118700,-83.3333333333333,4,2,1,90,0,1
118965,-83.3333333333333,4,2,1,5,0,1
119053,-83.3333333333333,4,2,1,90,0,1
120023,-83.3333333333333,4,2,1,5,0,1
120111,-83.3333333333333,4,2,1,90,0,1
120377,-83.3333333333333,4,2,1,5,0,1
120465,-83.3333333333333,4,2,1,90,0,1
124259,-83.3333333333333,4,2,1,5,0,1
124347,-83.3333333333333,4,2,1,90,0,1
125670,-83.3333333333333,4,2,1,5,0,1
125759,-83.3333333333333,4,2,1,90,0,1
126024,-83.3333333333333,4,2,1,5,0,1
126112,-83.3333333333333,4,2,1,90,0,1
127171,-76.9230769230769,4,2,1,90,0,1
131317,-76.9230769230769,4,2,1,5,0,1
131406,-76.9230769230769,4,2,1,90,0,1
132729,-76.9230769230769,4,2,1,5,0,1
132817,-76.9230769230769,4,2,1,90,0,1
133083,-76.9230769230769,4,2,1,5,0,1
133171,-76.9230769230769,4,2,1,90,0,1
136964,-76.9230769230769,4,2,1,5,0,1
137053,-76.9230769230769,4,2,1,90,0,1
138288,-71.4285714285714,4,2,1,90,0,1
138553,-71.4285714285714,4,2,1,5,0,1
138641,-71.4285714285714,4,2,1,90,0,1
139877,-83.3333333333333,4,2,1,90,0,1
142082,-83.3333333333333,4,2,1,5,0,1
142170,-83.3333333333333,4,2,1,90,0,1
146318,-83.3333333333333,4,2,1,5,0,1
146406,-83.3333333333333,4,2,1,90,0,1
151171,-125,4,2,1,90,0,1
151435,-125,4,2,1,5,0,1
151524,-83.3333333333333,4,2,1,90,0,1
153906,-83.3333333333333,4,2,1,5,0,1
153994,-83.3333333333333,4,2,1,90,0,1
160964,-83.3333333333333,4,2,1,5,0,1
161053,-83.3333333333333,4,2,1,90,0,1
162464,-100,4,2,1,80,0,0
162641,-100,4,2,1,5,0,0
162730,-100,4,2,1,80,0,0
162906,-100,4,2,1,5,0,0
162994,-100,4,2,1,80,0,0
163083,-100,4,2,1,5,0,0
163171,-100,4,2,1,80,0,0
163700,-100,4,2,1,5,0,0
163788,-100,4,2,1,80,0,0
163965,-100,4,2,1,5,0,0
164053,-100,4,2,1,80,0,0
164141,-100,4,2,1,5,0,0
164230,-100,4,2,1,80,0,0
164671,-100,4,2,1,5,0,0
164759,-100,4,2,1,80,0,0
164847,-100,4,2,1,5,0,0
164935,-100,4,2,1,80,0,0
165200,-100,4,2,1,5,0,0
165288,-100,4,2,1,80,0,0
165465,-100,4,2,1,5,0,0
165553,-100,4,2,1,80,0,0
165730,-100,4,2,1,5,0,0
165818,-100,4,2,1,80,0,0
165906,-100,4,2,1,5,0,0
165994,-100,4,2,1,80,0,0
166524,-100,4,2,1,5,0,0
166612,-100,4,2,1,80,0,0
166788,-100,4,2,1,5,0,0
166877,-100,4,2,1,80,0,0
167053,-166.666666666667,4,2,1,80,0,0
168023,-166.666666666667,4,2,1,5,0,0
168112,-166.666666666667,4,2,1,70,0,0
168288,-100,4,2,1,70,0,0
168553,-100,4,2,1,5,0,0
168641,-100,4,2,1,70,0,0
169612,-100,4,2,1,5,0,0
169700,-100,4,2,1,70,0,0
171024,-100,4,2,1,5,0,0
171112,-100,4,2,1,70,0,0
171553,-100,4,2,1,5,0,0
171641,-100,4,2,1,70,0,0
173759,-125,4,2,1,50,0,0
183641,-125,4,2,2,50,0,0
185053,-111.111111111111,4,2,2,60,0,0
186730,-111.111111111111,4,2,2,5,0,0
186818,-111.111111111111,4,2,2,60,0,0
187700,-111.111111111111,4,2,1,60,0,0
187788,-111.111111111111,4,2,2,60,0,0
190347,-111.111111111111,4,2,1,60,0,0
190700,-111.111111111111,4,2,1,70,0,0
192112,-111.111111111111,4,2,1,75,0,0
193524,-99.9999999999999,4,2,1,80,0,0
199965,-99.9999999999999,4,2,1,5,0,0
200053,-99.9999999999999,4,2,1,80,0,0
203406,-83.3333333333333,4,2,1,95,0,1
203671,-83.3333333333333,4,2,1,5,0,1
203759,-83.3333333333333,4,2,1,95,0,1
206494,-83.3333333333333,4,2,1,5,0,1
206583,-83.3333333333333,4,2,1,95,0,1
207553,-83.3333333333333,4,2,1,5,0,1
207641,-83.3333333333333,4,2,1,95,0,1
208964,-83.3333333333333,4,2,1,5,0,1
209053,-83.3333333333333,4,2,1,95,0,1
210465,-71.4285714285714,4,2,1,95,0,1
211877,-83.3333333333333,4,2,1,95,0,1
213200,-83.3333333333333,4,2,1,5,0,1
213288,-83.3333333333333,4,2,1,95,0,1
214611,-83.3333333333333,4,2,1,5,0,1
214700,-83.3333333333333,4,2,1,95,0,1
214965,-83.3333333333333,4,2,1,5,0,1
215053,-83.3333333333333,4,2,1,95,0,1
218847,-83.3333333333333,4,2,1,5,0,1
218935,-83.3333333333333,4,2,1,95,0,1
220259,-83.3333333333333,4,2,1,5,0,1
220347,-83.3333333333333,4,2,1,95,0,1
221583,-62.5,4,2,1,95,0,1
221847,-62.5,4,2,1,5,0,1
221935,-62.5,4,2,1,95,0,1
223171,-83.3333333333333,4,2,1,95,0,1
224141,-83.3333333333333,4,2,1,5,0,1
224230,-83.3333333333333,4,2,1,95,0,1
225377,-83.3333333333333,4,2,1,5,0,1
225465,-83.3333333333333,4,2,1,95,0,1
229788,-83.3333333333333,4,2,1,5,0,1
229877,-83.3333333333333,4,2,1,95,0,1
231024,-83.3333333333333,4,2,1,5,0,1
231112,-83.3333333333333,4,2,1,95,0,1
234465,-125,4,2,1,95,0,1
234730,-125,4,2,1,5,0,1
234818,-83.3333333333333,4,2,1,95,0,1
235788,-83.3333333333333,4,2,1,5,0,1
235877,-83.3333333333333,4,2,1,95,0,1
237553,-83.3333333333333,4,2,1,5,0,1
237641,-83.3333333333333,4,2,1,95,0,1
238965,-83.3333333333333,4,2,1,5,0,1
239053,-83.3333333333333,4,2,1,95,0,1
244611,-83.3333333333333,4,2,1,5,0,1
244700,-83.3333333333333,4,2,1,95,0,1
245759,-83.3333333333333,4,2,1,85,0,1
247082,-83.3333333333333,4,2,1,5,0,1
247170,-83.3333333333333,4,2,1,85,0,1
248847,-83.3333333333333,4,2,1,5,0,1
248935,-83.3333333333333,4,2,1,85,0,1
251406,-83.3333333333333,4,2,1,75,0,0
252818,-83.3333333333333,4,2,1,80,0,0
254229,-200,4,2,1,85,0,0
254406,-200,4,2,1,85,0,0
258288,-200,4,2,1,5,0,0
258465,-100,4,2,1,80,0,0
259435,-100,4,2,1,5,0,0
259523,-100,4,2,1,80,0,0
261200,-100,4,2,1,5,0,0
261289,-100,4,2,1,80,0,0
262259,-100,4,2,1,5,0,0
262347,-100,4,2,1,80,0,0
265082,-100,4,2,1,5,0,0
265170,-100,4,2,1,80,0,0
265612,-100,4,2,1,5,0,0
265700,-100,4,2,1,80,0,0
268259,-100,4,2,1,60,0,0
269583,-100,4,2,1,50,0,0
270994,-100,4,2,1,40,0,0
272406,-100,4,2,1,30,0,0
273818,-100,4,2,1,20,0,0
274877,-100,4,2,1,10,0,0
275229,-100,4,2,1,5,0,0
275406,-100,4,2,1,5,0,0

[Colours]
Combo1 : 175,175,175
Combo2 : 255,66,66
Combo3 : 81,159,255
Combo4 : 255,255,132

[HitObjects]
129,323,112,5,2,1:2:0:0:
278,338,288,2,0,P|208:359|170:372,1,80,2|0,1:2|0:0,0:0:0:0:
85,158,641,5,2,1:2:0:0:
53,236,818,2,0,P|118:236|168:159,1,160,2|2,1:2|1:2,0:0:0:0:
91,16,1347,6,0,B|66:45|55:54|55:54|87:168,1,160,2|2,1:2|1:2,0:0:0:0:
233,232,1877,2,0,P|293:247|339:262,1,80,2|2,1:2|0:0,0:0:0:0:
321,257,2141,1,2,0:0:0:0:
331,263,2230,6,0,P|383:238|357:147,1,143.999995605469,10|0,0:0|0:0,0:0:0:0:
283,101,2583,6,0,P|288:122|302:185,1,71.9999978027344,6|0,0:0|0:0,0:0:0:0:
299,171,2935,5,6,1:2:0:0:
453,258,3112,1,2,0:0:0:0:
296,337,3288,2,0,P|242:325|203:316,1,80,8|2,0:0|0:0,0:0:0:0:
23,209,3641,2,0,P|77:197|116:188,1,80,2|0,1:2|0:0,0:0:0:0:
113,189,3906,1,0,0:0:0:0:
124,187,3994,1,10,0:0:0:0:
319,30,4171,6,0,B|224:6|266:70|156:44,1,160,2|2,0:0|0:0,0:0:0:0:
291,226,4700,2,0,P|306:183|307:145,1,80,10|2,0:0|0:0,0:0:0:0:
304,137,4965,1,2,0:0:0:0:
297,126,5053,1,2,1:2:0:0:
348,299,5230,1,2,0:0:0:0:
489,166,5406,2,0,P|428:185|378:221,1,120,10|0,0:0|0:0,0:0:0:0:
382,216,5759,5,2,1:2:0:0:
260,317,5935,1,2,0:0:0:0:
366,376,6112,2,0,P|354:331|347:298,1,80,8|2,0:0|0:0,0:0:0:0:
194,193,6465,2,0,P|185:232|175:270,1,80,2|0,1:2|0:0,0:0:0:0:
172,282,6730,1,0,0:0:0:0:
166,292,6818,1,10,0:0:0:0:
16,55,6994,6,0,P|83:108|180:122,1,160,2|2,0:0|0:0,0:0:0:0:
353,8,7524,2,0,P|295:31|268:51,1,80,10|2,0:0|0:0,0:0:0:0:
274,50,7788,1,2,0:0:0:0:
266,59,7877,1,6,1:2:0:0:
452,169,8053,6,0,P|459:137|468:114,1,47.9999985351563,10|0,0:0|0:0,0:0:0:0:
410,59,8230,2,0,P|377:146|371:206,1,143.999995605469,10|8,0:0|0:0,0:0:0:0:
371,196,8583,5,6,1:2:0:0:
445,339,8759,1,2,0:0:0:0:
287,271,8935,2,0,P|345:284|379:295,1,80,8|2,0:0|0:0,0:0:0:0:
226,377,9288,2,0,B|199:346|199:346|209:299,1,80,2|0,1:2|0:0,0:0:0:0:
209,296,9553,1,0,0:0:0:0:
212,284,9641,1,10,0:0:0:0:
247,121,9818,6,0,P|181:175|83:172,1,160,2|2,0:0|0:0,0:0:0:0:
1,319,10347,2,0,P|39:333|96:365,1,80,10|2,0:0|0:0,0:0:0:0:
84,356,10612,1,2,0:0:0:0:
93,362,10700,1,2,1:2:0:0:
11,214,10877,1,2,0:0:0:0:
141,108,11053,2,0,P|179:147|176:202,1,80,10|0,0:0|1:0,0:0:0:0:
184,182,11318,1,0,1:0:0:0:
183,193,11406,6,0,L|172:248,1,40,10|8,0:0|0:0,0:0:0:0:
218,338,11583,2,0,L|229:283,1,40,2|0,1:2|1:0,0:0:0:0:
114,292,11759,2,0,L|169:303,1,40,10|8,0:3|0:3,0:0:0:0:
287,239,11935,2,0,L|232:228,1,40,2|0,1:2|1:0,0:0:0:0:
353,363,12112,5,10,0:0:0:0:
471,257,12288,1,6,0:0:0:0:
274,160,12465,1,10,0:0:0:0:
467,26,12641,1,6,0:0:0:0:
256,192,12729,12,0,13522,0:0:0:0:
334,74,13700,5,0,1:0:0:0:
336,85,13788,1,0,1:0:0:0:
337,96,13876,1,8,0:3:0:0:
157,181,14230,5,6,1:2:0:0:
222,234,14406,1,0,1:0:0:0:
235,157,14582,1,8,0:0:0:0:
76,244,14759,2,0,P|130:259|168:277,1,80,2|0,1:2|0:0,0:0:0:0:
25,184,15112,1,0,1:0:0:0:
25,184,15288,1,8,0:0:0:0:
178,73,15465,6,0,P|125:112|57:119,1,120,2|0,1:2|0:0,0:0:0:0:
72,120,15818,2,0,P|88:59|97:10,1,80,0|8,1:0|0:0,0:0:0:0:
266,34,16171,2,0,P|248:103|230:207,1,160,2|0,1:2|1:0,0:0:0:0:
273,335,16700,1,10,0:0:0:0:
232,190,16877,1,0,1:0:0:0:
387,263,17053,5,2,1:2:0:0:
387,263,17230,2,0,P|332:252|300:245,1,80,0|8,1:0|0:0,0:0:0:0:
141,336,17583,2,0,P|87:325|4:307,1,120,2|0,1:2|0:0,0:0:0:0:
23,311,17935,1,0,1:0:0:0:
173,245,18112,1,8,0:0:0:0:
0,220,18288,6,0,P|65:211|152:156,1,160,2|0,1:2|1:0,0:0:0:0:
52,7,18818,1,8,0:0:0:0:
0,69,18994,1,2,1:2:0:0:
76,86,19171,1,0,1:0:0:0:
165,11,19347,2,0,P|132:25|110:35,1,40,10|0,0:0|0:0,0:0:0:0:
24,145,19524,2,0,P|57:159|79:169,1,40,10|0,0:0|0:0,0:0:0:0:
173,245,19700,1,0,1:0:0:0:
173,245,19788,1,0,1:0:0:0:
173,245,19877,5,6,1:2:0:0:
270,102,20053,1,0,1:0:0:0:
331,216,20230,2,0,P|283:200|238:188,1,80,8|2,0:0|1:2,0:0:0:0:
369,14,20583,2,0,P|379:76|405:177,1,160,0|8,0:0|0:0,0:0:0:0:
512,318,21112,6,0,P|498:267|396:263,1,160,2|0,1:2|1:0,0:0:0:0:
288,364,21641,1,8,0:0:0:0:
403,256,21818,1,2,1:2:0:0:
448,366,21994,2,0,P|380:342|349:333,1,80,0|0,0:0|1:0,0:0:0:0:
192,306,22347,5,10,0:0:0:0:
192,306,22524,1,0,1:0:0:0:
244,249,22700,5,6,1:2:0:0:
132,357,22877,1,0,1:0:0:0:
254,251,23053,1,8,0:0:0:0:
103,193,23230,2,0,P|119:252|125:287,1,80,2|0,1:2|0:0,0:0:0:0:
217,116,23583,1,0,1:0:0:0:
217,116,23759,1,8,0:0:0:0:
2,46,23935,6,0,P|46:103|138:100,2,160,2|8|8,1:2|1:2|1:2,0:0:0:0:
184,31,24818,1,10,0:0:0:0:
36,182,24994,1,0,1:0:0:0:
249,231,25171,2,0,P|235:183|213:104,1,120,10|0,1:2|0:0,0:0:0:0:
216,115,25524,6,0,P|284:134|352:149,1,128,6|0,0:0|0:0,0:0:0:0:
512,42,26053,2,0,P|444:23|376:8,1,128,10|0,0:0|1:0,0:0:0:0:
427,106,26583,1,10,0:0:0:0:
387,10,26759,1,0,0:0:0:0:
241,48,26935,6,0,P|295:64|352:76,1,96,2|0,1:2|1:0,0:0:0:0:
333,72,27288,1,0,0:0:0:0:
510,205,27465,2,0,P|449:218|369:248,1,128,10|0,0:0|1:0,0:0:0:0:
300,357,27994,1,10,0:0:0:0:
379,384,28171,1,8,0:0:0:0:
379,384,28259,1,8,0:0:0:0:
379,384,28347,5,2,1:2:0:0:
302,349,28524,1,0,0:0:0:0:
220,335,28700,1,0,0:0:0:0:
136,342,28877,1,10,0:0:0:0:
0,360,29053,6,0,P|30:369|61:379,1,64,0|0,0:0|1:0,0:0:0:0:
209,254,29406,2,0,P|239:263|270:272,1,64,10|0,0:0|0:0,0:0:0:0:
51,141,29759,5,2,1:2:0:0:
21,209,29935,1,0,1:0:0:0:
95,202,30112,1,0,1:0:0:0:
51,141,30288,1,10,0:0:0:0:
16,218,30465,1,0,1:0:0:0:
130,135,30641,1,8,0:0:0:0:
13,14,30818,2,0,P|3:65|-2:88,1,64,2|0,1:2|1:0,0:0:0:0:
0,76,31083,1,0,1:0:0:0:
0,76,31170,5,6,1:2:0:0:
130,135,31347,5,8,0:0:0:0:
165,152,31435,1,8,0:0:0:0:
202,142,31523,1,8,0:0:0:0:
225,110,31611,1,8,0:0:0:0:
220,71,31699,1,6,1:2:0:0:
364,16,31876,5,8,0:0:0:0:
356,55,31964,1,8,0:0:0:0:
349,94,32052,1,8,0:0:0:0:
342,134,32140,1,8,0:0:0:0:
336,173,32229,2,0,P|331:211|327:238,1,40,6|0,1:2|0:0,0:0:0:0:
400,344,32406,5,8,0:0:0:0:
400,344,32494,1,8,0:0:0:0:
400,344,32582,1,6,1:2:0:0:
512,210,32759,5,8,0:0:0:0:
474,198,32847,1,8,0:0:0:0:
435,205,32935,1,8,0:0:0:0:
403,229,33023,1,8,0:0:0:0:
387,265,33111,1,6,1:2:0:0:
257,372,33288,5,8,0:0:0:0:
219,384,33376,1,8,0:0:0:0:
180,377,33464,1,8,0:0:0:0:
148,353,33552,1,8,0:0:0:0:
132,317,33640,1,6,1:2:0:0:
215,109,33818,1,8,0:0:0:0:
215,109,33906,1,8,0:0:0:0:
215,109,33994,6,0,P|222:171|235:246,1,120,6|0,1:2|0:0,0:0:0:0:
231,227,34347,1,0,1:0:0:0:
132,317,34524,1,0,0:0:0:0:
63,186,34700,2,0,P|115:205|150:215,1,80,0|2,1:0|0:0,0:0:0:0:
317,320,35053,2,0,P|278:331|242:345,1,80,8|8,0:0|0:0,0:0:0:0:
39,358,35406,6,0,P|32:336|36:309,1,40,6|0,1:2|0:0,0:0:0:0:
138,211,35583,1,8,0:0:0:0:
138,211,35671,1,8,0:0:0:0:
138,211,35759,1,8,0:0:0:0:
241,345,35935,1,2,1:2:0:0:
308,192,36112,1,0,1:0:0:0:
308,192,36200,1,8,0:0:0:0:
308,192,36288,1,8,0:0:0:0:
170,306,36465,2,0,P|148:312|110:323,1,40,10|0,0:0|1:0,0:0:0:0:
37,206,36641,2,0,P|38:179|57:151,1,40,0|0,1:0|0:0,0:0:0:0:
156,80,36818,5,10,0:0:0:0:
170,78,36906,2,0,P|194:73|222:67,1,51.999997619629,10|10,0:0|0:0,0:0:0:0:
317,4,37083,5,10,0:0:0:0:
331,6,37171,2,10,P|355:11|386:18,1,51.999997619629
482,157,37347,6,0,P|399:164|377:89,1,155.999992858887,6|0,1:2|0:0,0:0:0:0:
373,108,37700,1,2,1:2:0:0:
121,347,38230,6,0,P|68:336|57:208,1,191.999994140625,6|10,1:2|0:0,0:0:0:0:
207,179,38759,1,0,0:0:0:0:
207,179,38847,1,8,0:0:0:0:
207,179,38935,2,0,P|189:240|184:277,1,95.9999970703126,2|0,0:0|1:0,0:0:0:0:
0,142,39288,2,0,P|62:126|157:94,1,143.999995605469,10|0,0:0|0:0,0:0:0:0:
137,101,39641,5,2,1:2:0:0:
300,188,39818,1,0,0:0:0:0:
286,15,39994,2,0,B|254:55|254:55|266:107,1,95.9999970703126,10|0,0:0|0:0,0:0:0:0:
264,98,40259,1,8,0:0:0:0:
264,98,40347,2,0,P|308:85|365:71,1,95.9999970703126,0|0,0:0|1:0,0:0:0:0:
435,235,40700,2,0,P|380:212|292:186,1,143.999995605469,10|0,0:0|0:0,0:0:0:0:
299,187,41053,6,0,P|345:175|405:161,1,95.9999970703126,2|0,1:2|0:0,0:0:0:0:
496,304,41406,2,0,P|450:316|390:330,1,95.9999970703126,10|0,0:0|0:0,0:0:0:0:
403,327,41671,1,8,0:0:0:0:
403,327,41759,1,2,0:0:0:0:
219,250,41935,1,0,1:0:0:0:
282,384,42112,2,0,P|322:347|281:272,1,143.999995605469,10|0,0:0|0:0,0:0:0:0:
219,250,42465,5,2,1:2:0:0:
128,373,42641,1,0,1:0:0:0:
15,250,42818,2,0,P|95:274|165:291,1,143.999995605469,8|8,0:0|0:0,0:0:0:0:
219,250,43171,1,0,0:0:0:0:
231,227,43259,1,8,0:0:0:0:
229,201,43347,1,0,1:0:0:0:
0,159,43524,1,10,0:0:0:0:
133,71,43700,1,10,0:0:0:0:
133,71,43788,1,8,0:0:0:0:
133,71,43877,6,0,P|203:56|326:23,1,191.999994140625,6|10,1:2|0:0,0:0:0:0:
489,124,44406,1,0,0:0:0:0:
489,124,44494,1,8,0:0:0:0:
489,124,44583,2,0,P|431:141|383:156,1,95.9999970703126,2|0,0:0|1:2,0:0:0:0:
244,277,44935,2,0,P|213:211|287:147,1,143.999995605469,10|0,0:0|0:0,0:0:0:0:
248,156,45288,5,2,1:2:0:0:
386,261,45465,1,0,1:0:0:0:
215,351,45641,2,0,P|157:334|95:318,1,95.9999970703126,10|0,0:0|0:0,0:0:0:0:
122,324,45906,1,10,0:0:0:0:
122,324,45994,1,0,0:0:0:0:
100,121,46171,1,0,1:0:0:0:
1,276,46347,2,0,P|75:268|120:196,1,143.999995605469,10|0,0:0|0:0,0:0:0:0:
115,216,46700,6,0,P|109:170|99:113,1,95.9999970703126,2|0,1:2|0:0,0:0:0:0:
299,253,47053,2,0,P|305:299|315:356,1,95.9999970703126,10|0,0:0|0:0,0:0:0:0:
314,348,47318,1,8,0:0:0:0:
314,348,47406,1,2,0:0:0:0:
454,212,47583,1,0,1:0:0:0:
505,365,47759,2,0,P|470:317|380:323,1,143.999995605469,14|8,0:0|0:3,0:0:0:0:
314,348,48112,6,0,P|254:330|190:313,1,111.999996582031,6|0,1:2|0:0,0:0:0:0:
206,317,48377,1,8,0:0:0:0:
206,317,48465,2,0,P|220:353|228:375,1,55.9999982910157,0|8,1:0|0:0,0:0:0:0:
277,245,48641,1,8,0:3:0:0:
5,297,48818,1,2,1:2:0:0:
15,337,48906,1,8,0:0:0:0:
45,365,48994,1,8,0:0:0:0:
85,374,49082,1,8,0:0:0:0:
124,360,49171,2,0,P|110:324|102:302,1,55.9999982910157,4|0,1:2|0:0,0:0:0:0:
64,215,49347,1,8,0:0:0:0:
64,215,49435,1,8,0:0:0:0:
64,215,49524,6,0,P|124:233|184:250,1,95.9999970703126,6|0,1:2|1:0,0:0:0:0:
290,124,49877,2,0,P|350:142|410:159,1,95.9999970703126,10|0,0:0|0:0,0:0:0:0:
382,151,50141,1,8,0:0:0:0:
382,151,50230,1,2,0:0:0:0:
269,35,50406,1,0,1:0:0:0:
433,0,50583,2,0,B|467:38|467:38|453:103,1,95.9999970703126,10|0,0:0|0:0,0:0:0:0:
315,214,50935,5,2,1:2:0:0:
457,82,51112,1,0,1:0:0:0:
512,271,51288,2,0,P|452:286|397:304,1,95.9999970703126,10|0,0:0|0:0,0:0:0:0:
419,296,51553,1,8,0:0:0:0:
419,296,51641,1,2,0:0:0:0:
227,373,51818,1,0,1:0:0:0:
107,212,51994,2,0,P|177:209|225:282,1,143.999995605469,8|0,0:0|0:0,0:0:0:0:
222,261,52347,6,0,P|143:288|114:299,1,95.9999970703126,2|0,1:2|0:0,0:0:0:0:
10,86,52700,2,0,P|55:102|100:116,1,95.9999970703126,10|0,0:0|0:0,0:0:0:0:
100,116,52965,1,8,0:0:0:0:
100,116,53053,1,2,0:0:0:0:
249,12,53230,1,0,1:0:0:0:
233,176,53406,2,0,P|210:122|202:78,1,95.9999970703126,10|0,0:0|0:0,0:0:0:0:
343,0,53759,6,0,B|450:15|388:60|513:80,1,191.999994140625,2|10,1:2|0:0,0:0:0:0:
485,253,54288,1,0,0:0:0:0:
459,277,54376,1,8,0:0:0:0:
426,291,54464,1,2,0:0:0:0:
391,292,54552,1,8,0:0:0:0:
358,278,54641,1,0,1:0:0:0:
406,199,54818,1,10,0:0:0:0:
286,348,54994,1,0,0:0:0:0:
286,348,55083,1,8,0:0:0:0:
286,348,55171,6,0,P|274:289|263:241,1,95.9999970703126,6|0,1:2|1:0,0:0:0:0:
46,219,55524,2,0,P|58:278|69:326,1,95.9999970703126,12|0,0:0|0:0,0:0:0:0:
65,312,55788,1,8,0:0:0:0:
65,312,55877,1,2,0:0:0:0:
150,216,56053,1,0,1:0:0:0:
9,117,56230,2,0,P|76:136|110:141,1,95.9999970703126,12|0,0:0|0:0,0:0:0:0:
266,94,56583,5,2,1:2:0:0:
150,216,56759,1,0,0:0:0:0:
64,44,56935,2,0,P|131:63|165:68,1,95.9999970703126,12|0,0:0|0:0,0:0:0:0:
156,67,57200,1,8,0:0:0:0:
156,67,57288,1,2,0:0:0:0:
292,196,57465,1,0,1:0:0:0:
348,13,57641,2,0,P|275:34|266:94,1,143.999995605469,12|0,0:0|0:0,0:0:0:0:
265,93,57994,5,2,1:2:0:0:
390,253,58171,1,0,0:0:0:0:
227,363,58347,2,0,P|236:317|246:262,1,95.9999970703126,12|0,0:0|0:0,0:0:0:0:
244,268,58612,1,8,0:0:0:0:
244,268,58700,2,0,P|294:281|329:324,1,95.9999970703126,0|0,0:0|1:0,0:0:0:0:
453,189,59053,1,10,0:0:0:0:
437,336,59230,6,0,B|416:365|412:386|412:386|386:234,1,192,4|0,1:2|0:0,0:0:0:0:
453,189,59583,2,0,P|477:200|526:216,1,64,10|0,0:0|0:0,0:0:0:0:
323,312,59759,2,0,P|292:322|263:335,1,64,10|0,0:0|0:0,0:0:0:0:
104,198,59935,1,2,1:2:0:0:
142,203,60024,1,0,1:0:0:0:
171,226,60112,1,12,0:0:0:0:
33,339,60288,1,2,1:2:0:0:
0,155,60465,2,0,P|6:123|12:83,1,64,10|0,0:3|0:0,0:0:0:0:
73,43,60641,1,2,1:2:0:0:
73,43,60730,1,0,1:0:0:0:
73,43,60818,6,0,B|146:62|146:62|176:85|176:85|269:109,1,191.999994140625,14|2,0:0|1:2,0:0:0:0:
426,15,61347,1,8,0:0:0:0:
379,201,61524,2,0,P|364:143|359:89,1,95.9999970703126,2|0,1:2|0:0,0:0:0:0:
205,239,61877,2,0,P|258:254|314:276,1,95.9999970703126,10|0,0:0|1:0,0:0:0:0:
296,268,62141,1,0,0:0:0:0:
296,268,62230,5,14,0:0:0:0:
472,357,62406,2,0,P|497:316|482:258,1,95.9999970703126,0|2,1:0|1:2,0:0:0:0:
419,85,62759,2,0,P|367:136|392:214,1,143.999995605469,8|0,0:0|0:0,0:0:0:0:
378,200,63112,1,0,1:0:0:0:
274,348,63288,2,0,P|228:331|182:318,1,95.9999970703126,10|0,0:0|1:0,0:0:0:0:
10,91,63641,6,0,P|74:75|195:30,1,191.999994140625,14|0,0:0|1:0,0:0:0:0:
182,318,64171,2,0,P|117:285|134:162,1,191.999994140625,8|0,0:0|1:0,0:0:0:0:
293,0,64700,2,0,P|279:68|276:102,1,95.9999970703126,10|0,0:0|1:0,0:0:0:0:
276,94,64965,1,0,0:0:0:0:
276,94,65053,5,10,0:0:0:0:
185,233,65230,1,0,1:0:0:0:
192,31,65406,1,0,1:0:0:0:
365,122,65583,1,12,0:0:0:0:
107,96,65759,6,0,P|167:114|216:127,1,95.9999970703126,0|8,1:0|0:3,0:0:0:0:
395,223,66112,2,0,P|335:205|286:192,1,95.9999970703126,10|10,0:0|0:3,0:0:0:0:
289,191,66377,1,0,1:0:0:0:
274,188,66465,6,0,P|211:254|239:346,1,191.999994140625,14|2,0:0|1:2,0:0:0:0:
395,223,66994,1,8,0:0:0:0:
341,384,67171,2,0,P|325:332|318:286,1,95.9999970703126,2|0,1:2|0:0,0:0:0:0:
415,59,67524,2,0,B|320:43|364:92|240:74,1,143.999995605469,10|0,0:0|0:0,0:0:0:0:
274,77,67877,5,14,0:0:0:0:
109,143,68053,2,0,B|86:100|86:100|100:55,1,95.9999970703126,0|2,1:0|1:2,0:0:0:0:
10,284,68406,2,0,P|53:235|142:231,1,143.999995605469,8|0,0:0|0:0,0:0:0:0:
128,225,68759,1,0,1:0:0:0:
274,77,68935,2,0,P|211:65|166:53,1,95.9999970703126,10|0,0:0|1:0,0:0:0:0:
96,331,69288,6,0,P|150:311|285:273,1,191.999994140625,14|0,0:0|1:0,0:0:0:0:
496,178,69818,2,0,B|472:193|453:207|453:207|446:277|435:349,1,191.999994140625,8|0,0:0|1:0,0:0:0:0:
264,368,70347,2,0,P|271:320|278:273,1,95.9999970703126,10|0,0:0|1:0,0:0:0:0:
310,72,70700,5,10,0:3:0:0:
329,101,70788,1,0,1:0:0:0:
360,120,70876,1,0,1:0:0:0:
395,124,70964,1,0,1:0:0:0:
429,112,71052,1,12,0:0:0:0:
244,183,71230,5,8,0:3:0:0:
210,171,71318,1,8,0:3:0:0:
175,175,71406,1,0,1:0:0:0:
144,194,71494,1,0,1:0:0:0:
125,224,71582,1,12,0:0:0:0:
31,131,71759,1,2,1:2:0:0:
140,16,71935,1,10,0:0:0:0:
140,16,72024,1,8,0:0:0:0:
140,16,72112,6,0,P|129:76|119:122,1,96,6|0,1:2|0:0,0:0:0:0:
121,110,72465,6,0,P|206:91|291:70,1,143.999995605469,10|8,0:0|0:0,0:0:0:0:
261,77,72818,1,2,0:0:0:0:
364,210,72994,1,0,1:0:0:0:
431,72,73171,2,0,P|376:91|352:127,1,95.9999970703126,10|0,0:0|0:0,0:0:0:0:
245,360,73524,6,0,P|268:237|281:162,1,191.999994140625,0|10,1:0|0:0,0:0:0:0:
380,315,74053,1,0,0:0:0:0:
380,315,74141,1,8,0:0:0:0:
380,315,74230,1,2,0:0:0:0:
279,171,74406,1,0,1:0:0:0:
452,165,74583,1,10,0:0:0:0:
452,165,74759,1,2,0:0:0:0:
238,274,74935,6,0,P|186:258|122:241,1,95.9999970703126,6|0,1:2|0:0,0:0:0:0:
261,77,75288,2,0,P|324:70|402:5,1,143.999995605469,10|8,0:0|0:0,0:0:0:0:
388,24,75641,1,6,1:2:0:0:
319,172,75818,1,0,1:0:0:0:
179,53,75994,2,0,P|121:37|65:22,1,95.9999970703126,10|0,0:0|0:0,0:0:0:0:
86,27,76259,1,8,0:0:0:0:
86,27,76347,6,0,P|53:75|60:119,1,95.9999970703126,6|0,1:2|0:0,0:0:0:0:
30,296,76700,2,0,P|106:296|148:215,1,143.999995605469,10|8,0:0|0:0,0:0:0:0:
145,246,77053,2,0,P|135:210|129:186,2,47.9999985351563,0|8|0,0:0|0:0|1:0,0:0:0:0:
274,329,77406,1,14,0:0:0:0:
213,161,77583,1,8,0:3:0:0:
213,161,77671,1,8,0:3:0:0:
213,161,77759,6,0,P|229:232|243:281,1,95.9999970703126,6|0,1:2|0:0,0:0:0:0:
441,357,78112,2,0,P|425:286|411:237,1,95.9999970703126,10|0,0:0|0:0,0:0:0:0:
418,263,78377,1,8,0:0:0:0:
418,263,78465,1,0,0:0:0:0:
333,167,78641,1,0,1:0:0:0:
491,57,78818,2,0,P|484:130|450:158,1,95.9999970703126,10|0,0:0|0:0,0:0:0:0:
294,48,79171,6,0,P|354:32|406:18,1,95.9999970703126,2|0,1:2|1:0,0:0:0:0:
512,289,79524,2,0,P|452:273|400:259,1,95.9999970703126,10|0,0:0|0:0,0:0:0:0:
419,264,79788,1,8,0:0:0:0:
419,264,79877,1,2,0:0:0:0:
318,166,80053,1,0,1:0:0:0:
197,321,80230,1,10,0:0:0:0:
230,334,80318,1,8,0:0:0:0:
265,330,80406,1,10,0:0:0:0:
294,310,80494,1,8,0:0:0:0:
311,278,80583,6,0,P|245:295|121:335,1,191.999994140625,6|0,1:2|0:0,0:0:0:0:
53,22,81112,2,0,P|39:104|125:72,1,191.999994140625,12|0,0:0|1:0,0:0:0:0:
313,76,81641,2,0,P|259:97|231:134,1,95.9999970703126,2|0,1:2|1:0,0:0:0:0:
226,201,81906,1,0,0:0:0:0:
230,209,81994,5,12,0:0:0:0:
359,57,83406,5,6,1:2:0:0:
489,146,83583,2,0,P|436:131|382:115,1,80,2|8,0:0|0:0,0:0:0:0:
155,193,83935,1,2,0:0:0:0:
180,113,84112,2,0,P|104:124|72:184,1,120,2|0,1:2|0:0,0:0:0:0:
79,154,84465,1,10,0:0:0:0:
5,16,84641,6,0,P|58:31|105:45,1,80,2|0,0:0|0:0,0:0:0:0:
247,163,84994,2,0,B|268:128|268:128|253:89,1,80,2|8,0:0|0:0,0:0:0:0:
79,154,85347,1,2,0:0:0:0:
79,154,85435,1,2,0:0:0:0:
79,154,85524,1,2,1:2:0:0:
180,113,85700,1,2,0:0:0:0:
278,248,85877,2,0,P|354:237|386:171,1,120,10|0,0:0|0:0,0:0:0:0:
378,206,86230,5,2,1:2:0:0:
330,53,86406,2,0,P|342:108|355:154,1,80,2|8,0:0|0:0,0:0:0:0:
194,268,86759,1,2,0:0:0:0:
159,202,86935,2,0,P|146:275|133:348,1,120,2|0,1:2|0:0,0:0:0:0:
137,320,87288,1,10,0:0:0:0:
332,381,87465,6,0,B|345:344|345:344|321:294,1,80,2|0,0:0|0:0,0:0:0:0:
82,226,87818,2,0,P|121:215|158:201,1,80,2|10,0:0|0:0,0:0:0:0:
346,118,88171,1,2,0:0:0:0:
354,142,88259,1,2,0:0:0:0:
352,164,88347,6,0,P|329:156|283:137,1,47.9999985351563,6|0,1:2|0:0,0:0:0:0:
213,35,88524,2,0,P|190:43|144:62,1,47.9999985351563,10|0,0:0|0:0,0:0:0:0:
46,148,88700,2,0,P|114:146|160:216,1,143.999995605469,10|8,1:2|0:0,0:0:0:0:
158,201,89053,5,6,1:2:0:0:
174,358,89230,2,0,P|157:303|155:262,1,80,2|8,0:0|0:0,0:0:0:0:
306,147,89583,1,2,0:0:0:0:
363,217,89759,2,0,P|379:170|388:100,1,120,2|0,1:2|0:0,0:0:0:0:
387,100,90112,1,10,0:0:0:0:
510,236,90288,6,0,P|461:249|409:268,1,80,2|0,0:0|1:0,0:0:0:0:
239,48,90641,2,0,P|276:60|315:70,1,80,2|14,0:0|0:0,0:0:0:0:
280,231,90994,1,10,0:0:0:0:
272,236,91083,1,10,0:0:0:0:
266,243,91170,2,0,P|270:212|277:177,2,53.3333333333333,2|8|8,1:2|0:0|0:0,0:0:0:0:
284,321,91523,2,0,P|280:352|273:387,2,53.3333333333333,10|8|8,0:0|0:0|0:0,0:0:0:0:
353,276,91877,5,10,0:0:0:0:
190,380,92053,2,0,P|199:328|213:277,1,80,6|0,1:2|0:0,0:0:0:0:
55,166,92406,1,2,1:2:0:0:
55,166,92494,1,0,1:0:0:0:
55,166,92583,1,10,0:0:0:0:
205,301,92759,1,6,1:2:0:0:
270,118,92935,1,10,0:0:0:0:
270,118,93024,1,8,0:0:0:0:
270,118,93112,6,0,P|210:186|122:169,1,160,6|8,1:2|0:3,0:0:0:0:
152,18,93641,1,8,0:0:0:0:
184,28,93730,1,8,0:0:0:0:
214,35,93818,1,8,0:3:0:0:
336,187,93994,2,0,P|387:172|432:159,1,80,4|8,1:2|0:0,0:0:0:0:
433,145,94259,1,8,0:0:0:0:
460,145,94347,1,8,1:2:0:0:
484,158,94435,1,8,0:0:0:0:
499,181,94524,1,8,0:3:0:0:
501,208,94612,1,8,0:3:0:0:
488,232,94700,5,6,1:2:0:0:
425,332,94877,2,0,B|398:301|398:301|406:243,1,80,2|10,1:2|0:0,0:0:0:0:
489,142,95230,2,0,P|412:165|335:186,1,160,2|2,1:2|1:2,0:0:0:0:
271,313,95759,1,10,0:0:0:0:
271,313,95935,1,2,1:2:0:0:
335,186,96112,5,0,0:0:0:0:
176,207,96288,2,0,P|228:220|269:232,1,80,2|10,1:2|0:0,0:0:0:0:
441,67,96641,2,0,P|386:84|307:106,1,120,2|0,1:2|0:0,0:0:0:0:
325,100,96994,1,2,1:2:0:0:
247,40,97171,1,10,0:0:0:0:
338,0,97347,1,2,0:0:0:0:
237,140,97524,5,2,1:2:0:0:
237,140,97700,2,0,P|174:126|144:117,1,80,2|10,1:2|0:0,0:0:0:0:
37,326,98053,2,0,P|103:328|145:264,1,120,2|0,1:2|0:0,0:0:0:0:
138,292,98406,2,0,P|152:349|160:378,1,80,2|10,1:2|0:0,0:0:0:0:
359,215,98759,6,0,B|266:197|311:244|204:231,1,160,2|2,1:2|1:2,0:0:0:0:
333,308,99288,1,10,0:0:0:0:
203,230,99465,1,2,1:2:0:0:
302,111,99641,2,0,P|288:163|285:209,1,80,0|2,0:0|1:2,0:0:0:0:
426,285,99994,2,0,P|440:233|443:187,1,80,10|2,0:0|0:0,0:0:0:0:
328,315,100347,5,2,1:2:0:0:
442,207,100524,1,2,1:2:0:0:
397,356,100700,1,10,0:0:0:0:
374,176,100877,1,2,1:2:0:0:
249,301,101053,1,0,0:0:0:0:
249,301,101230,2,0,P|212:292|145:278,1,80,2|10,1:2|0:0,0:0:0:0:
17,96,101583,6,0,P|92:97|129:27,1,143.999995605469,2|0,1:2|0:0,0:0:0:0:
128,45,101935,1,2,1:2:0:0:
3,202,102112,1,10,0:0:0:0:
47,19,102288,1,2,1:2:0:0:
190,201,102465,2,0,P|136:187|70:174,1,95.9999970703126,2|2,0:0|1:2,0:0:0:0:
263,68,102818,1,10,0:0:0:0:
369,250,102994,1,2,1:2:0:0:
369,250,103082,1,0,1:0:0:0:
369,250,103171,5,6,1:2:0:0:
100,368,104406,6,0,P|128:315|58:268,1,143.999995605469,10|0,0:0|0:0,0:0:0:0:
73,265,104759,2,0,P|124:247|180:226,1,95.9999970703126,10|0,0:0|0:0,0:0:0:0:
243,355,105112,1,0,1:0:0:0:
226,350,105200,1,0,1:0:0:0:
211,345,105288,1,4,1:2:0:0:
235,188,105465,1,0,1:0:0:0:
235,188,105553,1,8,0:3:0:0:
235,188,105641,1,2,1:2:0:0:
270,193,105729,1,0,0:0:0:0:
298,215,105817,1,10,0:0:0:0:
310,248,105905,1,10,0:0:0:0:
304,283,105994,5,6,1:2:0:0:
483,108,106347,1,0,1:0:0:0:
483,108,106524,2,0,P|410:89|323:64,1,160,2|0,0:0|0:0,0:0:0:0:
328,65,106965,1,8,0:0:0:0:
328,65,107053,2,0,P|363:57|393:49,1,40,10|8,0:0|0:0,0:0:0:0:
450,179,107230,2,0,P|430:173|411:169,1,40,8|8,0:0|0:0,0:0:0:0:
239,67,107406,5,2,1:2:0:0:
239,67,107759,1,0,1:0:0:0:
75,44,107935,2,0,P|126:62|168:76,1,80,8|2,0:0|1:2,0:0:0:0:
301,133,108288,2,0,B|330:106|330:106|328:52,1,80,8|0,0:0|1:0,0:0:0:0:
191,182,108641,1,10,0:0:0:0:
194,191,108730,1,0,0:0:0:0:
197,199,108818,5,6,1:2:0:0:
254,257,108994,1,0,0:0:0:0:
331,279,109171,1,2,1:2:0:0:
411,273,109347,1,10,0:0:0:0:
512,180,109524,6,0,P|458:193|425:200,1,80,2|0,1:2|0:0,0:0:0:0:
271,337,109877,2,0,P|217:350|184:357,1,80,10|0,0:0|0:0,0:0:0:0:
109,205,110230,5,2,1:2:0:0:
163,261,110406,1,8,0:0:0:0:
91,283,110583,1,0,1:0:0:0:
109,205,110759,1,10,0:0:0:0:
170,268,110935,1,0,1:0:0:0:
37,227,111112,2,0,P|9:237|-12:244,2,40,8|8|2,0:0|0:0|1:2,0:0:0:0:
149,131,111465,1,8,0:0:0:0:
137,127,111553,1,8,0:0:0:0:
125,122,111641,6,0,P|134:81|146:35,1,80,6|0,1:2|0:0,0:0:0:0:
203,187,111994,1,0,1:0:0:0:
52,60,112171,1,10,0:0:0:0:
41,144,112347,1,0,1:0:0:0:
41,144,112524,1,8,0:3:0:0:
224,111,112700,1,2,1:2:0:0:
252,120,112788,1,8,0:0:0:0:
281,129,112876,1,8,0:0:0:0:
309,138,112964,1,8,0:0:0:0:
338,146,113053,6,0,B|378:113|378:113|354:0,1,160,6|0,1:2|1:0,0:0:0:0:
493,207,113583,2,0,P|435:194|390:184,1,80,10|0,0:0|1:0,0:0:0:0:
299,260,113935,1,8,0:3:0:0:
373,368,114112,2,0,P|394:329|388:284,1,80,0|8,1:2|0:3,0:0:0:0:
195,228,114465,5,14,0:0:0:0:
212,319,114641,1,0,1:0:0:0:
109,207,114818,5,10,0:0:0:0:
136,358,114994,1,0,1:0:0:0:
5,269,115171,6,0,P|59:284|95:295,1,80,10|0,0:0|1:0,0:0:0:0:
251,120,115524,2,0,P|212:131|174:141,1,80,10|0,0:0|1:0,0:0:0:0:
344,291,115877,5,8,0:0:0:0:
380,305,115965,1,8,0:3:0:0:
420,300,116053,1,8,0:3:0:0:
452,277,116141,1,0,1:0:0:0:
469,241,116230,2,0,P|459:209|452:181,1,40,4|0,0:0|0:0,0:0:0:0:
388,35,116406,5,0,1:0:0:0:
431,46,116494,1,0,1:0:0:0:
474,58,116583,2,0,P|500:64|533:73,1,40,8|0,0:0|0:0,0:0:0:0:
358,146,116759,1,0,1:0:0:0:
326,77,116935,6,0,P|277:84|248:131,1,96,2|0,0:0|0:0,0:0:0:0:
254,198,117288,6,0,P|318:216|450:256,1,191.999994140625,6|10,1:2|0:0,0:0:0:0:
305,384,117818,1,0,0:0:0:0:
305,384,117906,1,8,0:0:0:0:
305,384,117994,2,0,B|279:346|279:346|289:290,1,95.9999970703126,2|0,0:0|1:0,0:0:0:0:
376,90,118347,2,0,P|329:128|240:112,1,143.999995605469,10|0,0:0|0:0,0:0:0:0:
249,119,118700,5,2,1:2:0:0:
83,60,118877,1,0,0:0:0:0:
188,231,119053,2,0,P|172:168|163:125,1,95.9999970703126,10|0,0:0|0:0,0:0:0:0:
165,137,119318,1,8,0:0:0:0:
165,137,119406,2,0,P|102:141|74:198,1,95.9999970703126,0|0,0:0|1:0,0:0:0:0:
0,296,119759,2,0,P|67:300|137:342,1,143.999995605469,10|0,0:0|0:0,0:0:0:0:
132,337,120112,6,0,P|194:324|244:315,1,95.9999970703126,2|0,1:2|0:0,0:0:0:0:
408,343,120465,2,0,P|346:356|296:365,1,95.9999970703126,10|0,0:0|0:0,0:0:0:0:
314,362,120730,1,8,0:0:0:0:
314,362,120818,1,2,0:0:0:0:
415,245,120994,1,0,1:0:0:0:
499,384,121171,2,0,B|518:344|518:344|493:280,1,95.9999970703126,10|0,0:0|0:0,0:0:0:0:
349,155,121524,5,2,1:2:0:0:
505,183,121700,1,0,1:0:0:0:
349,155,121877,2,0,P|266:165|218:226,1,143.999995605469,8|8,0:0|0:0,0:0:0:0:
218,281,122230,1,0,0:0:0:0:
192,275,122318,1,8,0:0:0:0:
171,259,122406,1,0,1:0:0:0:
157,86,122583,1,10,0:0:0:0:
36,225,122759,1,10,0:0:0:0:
36,225,122847,1,8,0:0:0:0:
36,225,122935,6,0,B|120:212|120:212|152:219|152:219|225:206,1,191.999994140625,6|10,1:2|0:0,0:0:0:0:
385,333,123465,1,0,0:0:0:0:
385,333,123553,1,8,0:0:0:0:
385,333,123641,2,0,P|330:336|295:303,1,95.9999970703126,2|0,0:0|1:0,0:0:0:0:
241,106,123994,2,0,P|325:90|390:76,1,143.999995605469,10|0,0:0|0:0,0:0:0:0:
382,77,124347,5,2,1:2:0:0:
256,7,124524,1,0,1:0:0:0:
448,141,124700,2,0,B|473:103|473:103|459:51,1,95.9999970703126,10|0,0:0|0:0,0:0:0:0:
459,54,124965,1,8,0:0:0:0:
459,54,125053,1,0,0:0:0:0:
352,163,125230,1,0,1:0:0:0:
470,272,125406,2,0,P|420:260|317:239,1,143.999995605469,10|0,0:0|0:0,0:0:0:0:
329,241,125759,6,0,P|344:306|353:354,1,95.9999970703126,2|0,1:2|0:0,0:0:0:0:
167,384,126112,2,0,P|152:319|143:271,1,95.9999970703126,10|0,0:0|0:0,0:0:0:0:
146,290,126377,1,8,0:0:0:0:
146,290,126465,1,2,0:0:0:0:
220,132,126641,1,0,1:0:0:0:
57,164,126817,2,0,P|118:212|185:186,1,143.999995605469,14|8,0:0|0:3,0:0:0:0:
220,132,127171,6,0,P|209:77|194:7,1,103.999995239258,6|0,1:2|0:0,0:0:0:0:
218,12,127435,1,8,0:0:0:0:
243,5,127524,1,0,1:0:0:0:
268,9,127612,1,8,0:0:0:0:
291,20,127700,1,8,0:3:0:0:
438,142,127877,5,2,1:2:0:0:
401,128,127965,1,8,0:0:0:0:
364,135,128053,1,8,0:0:0:0:
335,161,128141,1,8,0:0:0:0:
324,198,128229,1,4,1:2:0:0:
437,340,128406,5,8,0:0:0:0:
437,340,128494,1,8,0:0:0:0:
437,340,128583,2,0,P|365:322|296:308,1,103.999995239258,6|0,1:2|1:0,0:0:0:0:
205,207,128935,2,0,P|133:189|64:175,1,103.999995239258,10|0,0:0|0:0,0:0:0:0:
103,182,129200,1,8,0:0:0:0:
103,182,129288,1,2,0:0:0:0:
173,337,129465,1,0,1:0:0:0:
19,363,129641,2,0,P|14:306|46:258,1,103.999995239258,10|0,0:0|0:0,0:0:0:0:
211,211,129994,5,2,1:2:0:0:
36,266,130171,1,0,1:0:0:0:
87,78,130347,2,0,P|137:89|188:102,1,103.999995239258,10|0,0:0|0:0,0:0:0:0:
188,102,130612,1,8,0:0:0:0:
188,102,130700,1,2,0:0:0:0:
330,35,130877,1,0,1:0:0:0:
421,217,131053,2,0,P|350:213|306:133,1,155.999992858887,8|0,0:0|0:0,0:0:0:0:
307,147,131406,6,0,P|318:197|331:268,1,103.999995239258,2|0,1:2|0:0,0:0:0:0:
507,372,131759,2,0,P|496:322|483:251,1,103.999995239258,10|0,0:0|0:0,0:0:0:0:
486,270,132024,1,8,0:0:0:0:
486,270,132112,1,2,0:0:0:0:
482,105,132288,1,0,1:0:0:0:
307,147,132465,2,0,B|217:147|257:185|160:190,1,155.999992858887,10|0,0:0|0:0,0:0:0:0:
160,189,132818,6,0,P|180:136|161:84,1,103.999995239258,2|0,1:2|0:0,0:0:0:0:
7,230,133171,2,0,P|-12:283|6:335,1,103.999995239258,10|0,0:0|0:0,0:0:0:0:
17,345,133435,1,8,0:0:0:0:
41,355,133524,1,2,0:0:0:0:
65,358,133612,1,8,0:0:0:0:
90,352,133700,1,0,1:0:0:0:
216,260,133877,1,10,0:0:0:0:
349,377,134053,1,0,0:0:0:0:
349,377,134141,1,8,0:0:0:0:
349,377,134230,6,0,P|335:324|324:264,1,103.999995239258,6|0,1:2|1:0,0:0:0:0:
413,78,134583,2,0,P|427:131|438:191,1,103.999995239258,12|0,0:0|0:0,0:0:0:0:
436,179,134847,1,8,0:0:0:0:
436,179,134935,1,2,0:0:0:0:
283,137,135112,1,0,1:0:0:0:
229,289,135288,2,0,P|279:298|325:275,1,103.999995239258,12|0,0:0|0:0,0:0:0:0:
413,78,135641,6,0,P|346:63|294:51,1,103.999995239258,2|0,1:2|0:0,0:0:0:0:
127,49,135994,2,0,P|194:64|246:76,1,103.999995239258,12|0,0:0|0:0,0:0:0:0:
228,71,136259,1,8,0:0:0:0:
228,71,136347,1,2,0:0:0:0:
137,278,136524,1,0,1:0:0:0:
316,147,136700,2,0,P|241:155|176:209,1,155.999992858887,12|0,0:0|0:0,0:0:0:0:
179,203,137053,5,6,1:2:0:0:
43,142,137230,1,0,0:0:0:0:
37,308,137406,2,0,P|91:290|140:276,1,103.999995239258,12|0,0:0|0:0,0:0:0:0:
136,277,137671,1,8,0:0:0:0:
136,277,137759,2,0,P|165:351|153:379,1,103.999995239258,0|0,0:0|1:0,0:0:0:0:
304,230,138112,1,8,0:0:0:0:
440,346,138288,6,0,B|458:364|476:375|476:375|314:343,1,167.999994873047,4|0,1:2|0:0,0:0:0:0:
289,314,138641,2,0,P|280:355|284:380,1,55.9999982910157,8|0,0:0|0:0,0:0:0:0:
383,262,138818,2,0,P|392:221|388:196,1,55.9999982910157,8|0,0:0|0:0,0:0:0:0:
287,118,138994,1,0,1:0:0:0:
260,126,139082,1,0,1:0:0:0:
232,131,139170,1,12,0:0:0:0:
354,20,139347,1,0,1:0:0:0:
156,66,139524,2,0,P|133:126|148:180,1,111.999996582031,10|0,0:3|1:0,0:0:0:0:
143,171,139788,1,0,1:0:0:0:
143,171,139877,6,0,P|233:186|318:258,1,191.999994140625,14|2,0:0|1:2,0:0:0:0:
498,204,140406,1,8,0:0:0:0:
393,322,140583,2,0,P|400:276|404:205,1,95.9999970703126,2|0,1:2|1:0,0:0:0:0:
490,65,140935,2,0,P|472:113|429:129,1,95.9999970703126,10|0,0:0|1:0,0:0:0:0:
433,128,141200,1,0,0:0:0:0:
433,128,141288,5,14,0:0:0:0:
279,29,141465,2,0,P|214:52|153:65,1,95.9999970703126,0|2,0:0|1:2,0:0:0:0:
90,176,141818,2,0,P|169:184|261:214,1,143.999995605469,8|0,0:0|0:0,0:0:0:0:
230,201,142171,1,0,1:0:0:0:
365,308,142347,2,0,P|402:255|393:202,1,95.9999970703126,8|0,0:0|1:0,0:0:0:0:
465,120,142700,6,0,B|365:150|441:201|301:236,1,191.999994140625,14|0,0:0|1:0,0:0:0:0:
137,315,143230,2,0,B|98:276|98:276|132:134,1,191.999994140625,8|0,0:0|1:0,0:0:0:0:
217,0,143759,2,0,P|229:60|239:106,1,95.9999970703126,10|0,0:0|1:0,0:0:0:0:
367,163,144112,5,10,0:0:0:0:
320,92,144288,1,0,1:0:0:0:
236,94,144465,1,0,1:0:0:0:
317,236,144641,1,12,0:0:0:0:
156,371,144818,5,0,0:0:0:0:
82,342,144994,1,8,0:3:0:0:
12,315,145171,2,0,P|-6:270|34:228,1,95.9999970703126,2|8,1:2|0:3,0:0:0:0:
18,233,145435,1,8,0:3:0:0:
18,233,145524,5,14,0:0:0:0:
0,78,145700,2,0,P|100:103|118:103,1,95.9999970703126,0|2,1:0|1:2,0:0:0:0:
234,166,146053,1,8,0:0:0:0:
280,48,146230,2,0,P|241:-8|173:0,1,143.999995605469,2|0,1:2|0:0,0:0:0:0:
161,9,146583,2,0,P|171:73|177:131,1,95.9999970703126,10|0,0:0|1:0,0:0:0:0:
117,244,146935,6,0,B|247:262|153:315|304:342,1,191.999994140625,14|2,0:0|1:2,0:0:0:0:
409,305,147465,1,8,0:0:0:0:
324,183,147641,2,0,B|307:229|307:229|337:286,1,95.9999970703126,0|0,1:0|1:0,0:0:0:0:
493,334,147994,2,0,P|485:261|481:200,1,95.9999970703126,10|2,0:0|0:0,0:0:0:0:
415,99,148347,6,0,P|363:120|215:154,1,191.999994140625,14|0,0:0|1:0,0:0:0:0:
130,98,148877,1,8,0:0:0:0:
14,219,149053,1,0,1:0:0:0:
73,305,149230,1,0,1:0:0:0:
67,153,149406,2,0,P|44:111|52:65,1,95.9999970703126,10|0,0:0|1:0,0:0:0:0:
216,13,149759,5,10,0:3:0:0:
221,36,149847,1,0,1:0:0:0:
226,59,149935,1,0,1:0:0:0:
231,82,150024,1,0,1:0:0:0:
236,105,150112,1,12,0:0:0:0:
351,236,150288,5,8,0:3:0:0:
317,248,150376,1,8,0:3:0:0:
282,244,150464,1,0,1:0:0:0:
251,225,150552,1,0,1:0:0:0:
232,195,150640,1,12,0:0:0:0:
327,49,150818,1,2,1:2:0:0:
400,137,150994,1,10,0:0:0:0:
400,137,151083,1,8,0:0:0:0:
400,137,151171,6,0,L|299:162,1,96,6|0,1:2|0:0,0:0:0:0:
306,160,151524,6,0,P|392:232|462:222,1,143.999995605469,10|8,0:0|0:0,0:0:0:0:
418,233,151877,1,2,0:0:0:0:
349,327,152053,1,0,1:0:0:0:
501,281,152230,2,0,B|522:234|522:234|491:177,1,95.9999970703126,10|0,0:0|0:0,0:0:0:0:
448,40,152583,6,0,B|344:77|428:126|275:169,1,191.999994140625,2|10,1:2|0:0,0:0:0:0:
138,58,153112,1,0,0:0:0:0:
138,58,153200,1,8,0:0:0:0:
138,58,153288,1,2,0:0:0:0:
74,132,153465,1,0,1:0:0:0:
0,20,153641,2,0,P|90:49|185:63,1,143.999995605469,10|0,0:0|0:0,0:0:0:0:
146,57,153994,5,6,1:2:0:0:
284,167,154171,1,0,1:0:0:0:
336,56,154347,2,0,P|270:81|216:95,1,95.9999970703126,10|0,0:0|0:0,0:0:0:0:
245,87,154612,1,8,0:0:0:0:
245,87,154700,1,4,1:2:0:0:
88,219,154877,1,2,1:2:0:0:
181,291,155053,2,0,P|168:210|161:134,1,143.999995605469,10|8,0:0|0:0,0:0:0:0:
166,142,155406,6,0,P|100:127|65:116,1,95.9999970703126,6|0,1:2|1:0,0:0:0:0:
257,239,155759,2,0,P|323:224|358:213,1,95.9999970703126,8|0,0:0|0:0,0:0:0:0:
358,225,156024,1,8,0:0:0:0:
368,233,156112,2,0,P|397:235|421:243,2,47.9999985351563,2|8|0,0:0|0:0|1:0,0:0:0:0:
512,381,156465,1,14,0:0:0:0:
423,341,156641,1,10,0:3:0:0:
498,191,156818,6,0,P|514:136|470:98,1,95.9999970703126,6|0,1:2|1:0,0:0:0:0:
327,27,157171,2,0,P|343:95|349:128,1,95.9999970703126,10|0,0:0|0:0,0:0:0:0:
347,120,157435,1,8,0:0:0:0:
347,120,157524,1,0,0:0:0:0:
284,273,157700,1,0,1:0:0:0:
370,301,157877,2,0,B|378:251|378:251|343:207,1,95.9999970703126,10|0,0:0|0:0,0:0:0:0:
183,209,158230,6,0,B|146:229|83:242,1,95.9999970703126,2|0,1:2|1:0,0:0:0:0:
0,354,158583,2,0,B|53:364|90:384,1,95.9999970703126,10|0,0:0|0:0,0:0:0:0:
90,384,158847,1,8,0:0:0:0:
90,384,158935,1,2,0:0:0:0:
92,239,159112,1,0,1:0:0:0:
80,243,159200,1,0,1:0:0:0:
68,247,159288,1,10,0:0:0:0:
46,218,159376,1,8,0:0:0:0:
38,183,159464,1,8,0:0:0:0:
44,148,159552,1,8,0:0:0:0:
65,119,159641,6,0,P|168:159|284:174,1,191.999994140625,6|0,1:2|0:0,0:0:0:0:
428,94,160171,1,12,0:0:0:0:
367,242,160347,2,0,P|352:182|341:117,1,95.9999970703126,2|0,0:0|1:0,0:0:0:0:
501,253,160700,2,0,P|499:305|405:307,1,143.999995605469,10|0,0:3|0:0,0:0:0:0:
412,315,161053,1,8,0:0:0:0:
181,195,161406,6,0,B|187:174|171:165|171:165|160:185|179:204,1,63.9999980468751,2|0,1:2|0:0,0:0:0:0:
195,280,161641,1,0,0:0:0:0:
269,313,161759,6,0,B|283:328|299:319|299:319|287:299|261:306,1,63.9999980468751,10|8,0:0|0:0,0:0:0:0:
195,280,161994,1,8,0:0:0:0:
121,323,162112,6,0,B|100:327|100:346|100:346|123:345|130:319,1,63.9999980468751,2|8,1:2|0:3,0:0:0:0:
195,280,162347,1,8,0:3:0:0:
170,193,162465,6,0,B|102:181|121:228|29:210,2,120,6|6|6,1:2|1:2|1:2,0:0:0:0:
312,95,163171,1,8,0:0:0:0:
307,73,163259,1,8,0:0:0:0:
303,51,163347,1,8,0:0:0:0:
299,30,163435,1,8,0:0:0:0:
295,7,163524,6,0,P|352:44|428:55,2,120,6|6|6,1:2|1:2|1:2,0:0:0:0:
105,39,164230,1,8,0:0:0:0:
73,47,164318,1,8,0:0:0:0:
53,72,164406,1,10,0:0:0:0:
50,105,164494,1,8,0:0:0:0:
67,132,164582,1,2,1:2:0:0:
158,241,164759,1,10,0:3:0:0:
207,75,164935,1,2,1:2:0:0:
204,61,165024,1,10,0:0:0:0:
202,47,165112,1,10,0:3:0:0:
336,164,165288,6,0,B|359:203|359:203|324:295,2,120,6|6|6,1:2|1:2|1:2,0:0:0:0:
228,206,165994,2,0,L|289:218,1,40,8|0,0:3|0:0,0:0:0:0:
327,285,166171,2,0,L|370:276,1,40,8|8,0:0|0:0,0:0:0:0:
488,159,166347,6,0,P|466:112|393:101,2,120,6|6|6,1:2|1:2|1:2,0:0:0:0:
477,282,167053,6,0,P|354:296|213:341,1,263.99999194336
213,343,168112,5,10,1:2:0:0:
94,309,168288,1,10,1:2:0:0:
81,304,168641,5,10,1:2:0:0:
216,259,168817,1,10,1:2:0:0:
230,255,169170,5,10,1:2:0:0:
60,219,169347,1,10,1:2:0:0:
48,214,169700,5,10,1:2:0:0:
241,167,169876,1,10,1:2:0:0:
271,78,170141,6,0,L|280:97,1,20,0|0,1:0|1:0,0:0:0:0:
271,78,170230,1,8,1:2:0:0:
354,135,170406,1,4,1:2:0:0:
431,95,170583,1,8,0:0:0:0:
341,0,170759,6,0,P|360:132|364:170,1,160,4|0,1:2|1:0,0:0:0:0:
444,325,171288,2,0,P|497:301|505:244,1,120,12|0,0:0|0:0,0:0:0:0:
501,233,171641,1,0,1:0:0:0:
449,162,171818,1,0,0:0:0:0:
269,294,171994,1,0,0:0:0:0:
332,378,172171,6,0,P|322:312|304:209,1,160,12|0,0:0|1:0,0:0:0:0:
306,220,172612,1,0,1:0:0:0:
306,220,172700,1,12,0:0:0:0:
174,132,172877,1,0,0:0:0:0:
171,143,172965,1,8,0:0:0:0:
168,154,173053,1,0,1:2:0:0:
110,221,173230,1,0,1:2:0:0:
25,197,173406,1,0,1:2:0:0:
4,111,173583,1,0,1:2:0:0:
67,50,173759,6,0,B|97:69|97:69|202:49,1,128,6|0,1:2|1:0,0:0:0:0:
328,17,174288,2,0,P|315:89|304:154,1,128
277,271,174818,1,0,1:0:0:0:
242,194,174994,1,0,0:0:0:0:
173,252,175171,6,0,P|119:243|111:160,1,128,2|0,1:2|1:0,0:0:0:0:
182,114,175700,2,0,P|258:135|313:144,1,128
463,64,176230,2,0,P|449:93|437:122,1,64,0|0,1:0|0:0,0:0:0:0:
385,206,176583,5,2,1:2:0:0:
460,251,176759,1,0,0:0:0:0:
389,293,176935,2,0,P|383:335|375:367,1,64,0|0,1:0|0:0,0:0:0:0:
248,347,177288,5,0,1:0:0:0:
170,366,177465,1,0,0:0:0:0:
229,269,177641,1,0,1:0:0:0:
151,288,177818,1,0,0:0:0:0:
75,237,177994,5,2,1:2:0:0:
75,237,178171,2,0,P|101:165|109:106,1,128,0|2,0:0|0:0,0:0:0:0:
256,40,178700,1,0,1:0:0:0:
256,40,178877,2,0,P|290:42|330:76,2,64,0|0|0,0:0|1:2|0:0,0:0:0:0:
122,35,179406,6,0,B|210:64|151:91|245:122,1,128,2|0,1:2|0:0,0:0:0:0:
311,176,179935,1,0,0:0:0:0:
246,237,180112,2,0,P|238:189|216:102,1,128,0|0,1:0|1:0,0:0:0:0:
370,114,180641,2,0,P|405:134|437:143,1,64,0|2,0:0|1:2,0:0:0:0:
391,222,180994,2,0,P|356:202|324:193,1,64
219,112,181347,6,0,B|164:125|164:125|154:135|154:135|90:147,1,128
37,245,181877,2,0,P|55:305|59:330,1,64,0|0,1:0|0:0,0:0:0:0:
173,366,182230,6,0,P|225:338|207:260,1,128,2|0,1:2|1:0,0:0:0:0:
119,137,182759,2,0,P|145:47|151:9,2,128,0|0|0,0:0|0:0|1:0,0:0:0:0:
14,263,183641,6,0,P|65:264|154:284,1,128,2|0,1:2|1:0,0:0:0:0:
192,217,184171,1,0,0:0:0:0:
283,359,184347,5,0,1:0:0:0:
419,295,184524,1,8,0:3:0:0:
342,209,184700,1,2,1:2:0:0:
278,270,184877,1,8,0:0:0:0:
278,270,184965,1,8,0:0:0:0:
278,270,185053,6,0,P|362:287|444:298,1,143.999995605469,2|0,1:2|1:0,0:0:0:0:
512,192,185583,2,0,P|531:149|459:93,1,143.999995605469,2|0,0:0|0:0,0:0:0:0:
342,209,186112,1,2,1:2:0:0:
282,148,186288,1,0,0:0:0:0:
370,75,186465,6,0,P|358:155|349:221,1,143.999995605469,2|0,1:2|1:0,0:0:0:0:
196,194,186994,2,0,P|208:114|217:48,1,143.999995605469,2|8,0:0|0:0,0:0:0:0:
74,17,187524,1,2,1:2:0:0:
36,115,187700,1,0,0:0:0:0:
36,115,187788,1,0,0:0:0:0:
36,115,187877,6,0,P|82:124|123:131,1,71.9999978027344,2|0,1:2|0:0,0:0:0:0:
216,51,188230,2,0,P|209:86|201:121,1,71.9999978027344,0|2,1:0|0:0,0:0:0:0:
87,223,188583,1,0,1:0:0:0:
107,129,188759,1,8,0:0:0:0:
237,209,188935,1,2,1:2:0:0:
166,269,189112,1,8,0:0:0:0:
201,121,189288,5,2,1:2:0:0:
296,72,189465,2,0,P|290:30|290:-8,2,71.9999978027344,0|0|2,0:0|1:0|0:0,0:0:0:0:
390,136,189994,1,8,1:2:0:0:
485,82,190171,1,0,0:0:0:0:
485,82,190259,1,8,0:0:0:0:
485,82,190347,1,2,1:2:0:0:
392,149,190524,1,0,0:0:0:0:
457,282,190700,6,0,P|354:260|297:252,1,143.999995605469,6|0,1:2|1:0,0:0:0:0:
145,342,191230,1,0,1:0:0:0:
116,266,191406,2,0,P|128:215|131:193,1,71.9999978027344,0|0,1:0|1:0,0:0:0:0:
212,215,191759,2,0,P|200:266|197:288,1,71.9999978027344,0|0,1:0|1:0,0:0:0:0:
388,346,192112,5,0,1:0:0:0:
497,285,192288,1,0,1:0:0:0:
330,290,192465,5,0,1:0:0:0:
495,263,192641,1,0,1:0:0:0:
314,211,192818,5,0,1:0:0:0:
498,244,192994,1,0,1:0:0:0:
339,137,193171,5,0,1:0:0:0:
502,226,193347,2,0,L|460:236,1,35.9999989013672,8|8,0:0|0:0,0:0:0:0:
320,296,193524,6,0,B|228:275|271:318|147:287,1,160,6|0,1:2|0:0,0:0:0:0:
32,378,194053,2,0,B|14:253|14:253|52:211,1,160,6|0,1:2|0:0,0:0:0:0:
208,145,194583,2,0,P|214:105|224:66,1,80,6|0,1:2|0:0,0:0:0:0:
94,58,194935,6,0,P|111:135|124:228,1,160,6|0,1:2|0:0,0:0:0:0:
206,356,195465,2,0,P|284:344|257:283,1,160,6|0,1:2|0:0,0:0:0:0:
68,283,195994,2,0,P|123:303|169:284,1,80,6|8,1:2|0:3,0:0:0:0:
281,194,196347,5,6,1:2:0:0:
370,304,196524,1,8,0:0:0:0:
389,300,196612,1,8,0:0:0:0:
409,297,196700,1,8,0:0:0:0:
429,294,196788,1,8,0:0:0:0:
448,291,196877,2,0,L|453:231,1,40,4|0,1:2|0:0,0:0:0:0:
377,149,197053,6,0,L|384:199,3,40,8|8|8|8,0:0|0:0|0:0|0:0,0:0:0:0:
447,90,197406,1,4,1:2:0:0:
332,20,197583,1,8,0:0:0:0:
332,20,197671,1,8,0:0:0:0:
332,20,197759,2,0,L|277:11,1,40,4|0,1:2|0:0,0:0:0:0:
169,100,197935,5,8,0:0:0:0:
140,116,198023,1,8,0:0:0:0:
120,143,198111,1,0,1:0:0:0:
114,175,198199,1,8,0:0:0:0:
120,208,198287,1,8,0:0:0:0:
140,234,198376,1,8,0:0:0:0:
168,251,198465,6,0,P|199:245|229:224,1,40,0|8,1:0|0:0,0:0:0:0:
264,299,198641,2,0,P|282:272|288:237,1,40,8|8,0:0|0:0,0:0:0:0:
364,265,198818,2,0,P|358:233|337:203,1,40,8|8,1:2|0:3,0:0:0:0:
410,170,198994,2,0,P|383:151|348:145,1,40,8|8,0:3|0:3,0:0:0:0:
241,73,199171,5,8,0:0:0:0:
208,96,199259,1,8,0:0:0:0:
169,100,199347,1,8,0:0:0:0:
132,85,199435,1,8,0:0:0:0:
107,55,199524,1,8,0:0:0:0:
62,33,199612,1,8,0:0:0:0:
24,66,199700,6,0,P|35:138|46:248,1,160,4|4,1:2|1:2,0:0:0:0:
444,318,203230,5,8,0:0:0:0:
444,318,203318,1,8,0:0:0:0:
444,318,203406,2,0,P|431:248|428:184,1,95.9999970703126,6|0,1:2|0:0,0:0:0:0:
512,113,203759,2,0,P|453:95|395:145,1,143.999995605469,10|8,0:0|0:0,0:0:0:0:
395,144,204112,1,0,0:0:0:0:
512,259,204288,1,0,1:0:0:0:
360,291,204465,2,0,B|313:279|236:265,1,95.9999970703126,10|0,0:0|0:0,0:0:0:0:
132,244,204818,5,2,1:2:0:0:
223,350,204994,1,0,1:0:0:0:
260,184,205171,2,0,B|169:195|229:238|91:250,1,143.999995605469,8|8,0:0|0:0,0:0:0:0:
57,222,205524,1,0,0:0:0:0:
32,191,205612,1,8,0:0:0:0:
37,151,205700,1,0,1:0:0:0:
142,58,205877,1,10,0:0:0:0:
260,184,206053,1,10,0:0:0:0:
260,184,206141,1,8,0:0:0:0:
260,184,206230,6,0,P|329:204|462:232,1,191.999994140625,4|10,1:2|0:0,0:0:0:0:
493,97,206759,1,0,0:0:0:0:
493,97,206847,1,8,0:0:0:0:
493,97,206935,2,0,P|432:114|418:167,1,95.9999970703126,2|0,0:0|1:0,0:0:0:0:
395,311,207288,2,0,P|303:314|260:252,1,143.999995605469,10|0,0:0|0:0,0:0:0:0:
270,280,207641,5,0,1:0:0:0:
102,182,207818,1,0,1:0:0:0:
192,316,207994,2,0,B|175:269|175:269|198:206,1,95.9999970703126,10|0,0:0|0:0,0:0:0:0:
190,225,208259,1,8,0:0:0:0:
190,225,208347,1,0,0:0:0:0:
307,119,208524,1,0,1:0:0:0:
411,254,208700,2,0,P|345:264|269:281,1,143.999995605469,10|0,0:0|0:0,0:0:0:0:
269,280,209053,6,0,P|283:348|290:387,1,95.9999970703126,2|0,1:2|1:0,0:0:0:0:
429,348,209406,2,0,P|415:280|408:241,1,95.9999970703126,10|0,0:0|0:0,0:0:0:0:
410,253,209671,1,8,0:0:0:0:
410,253,209759,1,2,0:0:0:0:
512,294,209935,1,0,1:0:0:0:
298,187,210112,2,0,B|241:194|241:194|216:220|216:220|124:230,1,143.999995605469,10|0,0:0|1:0,0:0:0:0:
92,187,210465,6,0,P|67:141|106:66,1,111.999996582031,6|8,1:2|0:0,0:0:0:0:
99,71,210730,1,8,0:0:0:0:
119,62,210818,1,0,1:0:0:0:
141,60,210906,1,8,0:0:0:0:
162,65,210994,1,8,0:3:0:0:
289,203,211171,5,0,1:0:0:0:
319,230,211259,1,8,0:0:0:0:
360,234,211347,1,8,0:0:0:0:
396,213,211435,1,8,0:0:0:0:
412,175,211524,2,0,P|403:130|400:114,1,55.9999982910157,4|0,1:2|0:0,0:0:0:0:
512,0,211700,1,8,0:0:0:0:
512,0,211788,1,8,0:0:0:0:
512,0,211877,6,0,P|506:72|503:138,1,95.9999970703126,6|0,1:2|1:0,0:0:0:0:
396,213,212230,2,0,P|390:285|387:351,1,95.9999970703126,10|0,0:0|0:0,0:0:0:0:
388,308,212494,1,8,0:0:0:0:
388,308,212583,1,2,0:0:0:0:
495,277,212759,1,0,1:0:0:0:
299,152,212935,2,0,P|243:197|183:146,1,143.999995605469,10|0,0:0|0:0,0:0:0:0:
184,158,213288,6,0,P|195:99|202:36,1,95.9999970703126,2|0,1:2|1:0,0:0:0:0:
29,39,213641,2,0,P|18:98|11:161,1,95.9999970703126,10|0,0:0|0:0,0:0:0:0:
13,133,213906,1,8,0:0:0:0:
13,133,213994,1,2,0:0:0:0:
128,223,214171,1,0,1:0:0:0:
0,384,214347,2,0,B|85:359|29:329|113:302,1,143.999995605469,8|0,0:0|0:0,0:0:0:0:
112,302,214700,5,2,1:2:0:0:
299,384,214877,1,0,0:0:0:0:
186,360,215053,2,0,B|212:317|212:317|191:260,1,95.9999970703126,10|0,0:0|0:0,0:0:0:0:
196,274,215318,1,8,0:0:0:0:
196,274,215406,1,2,0:0:0:0:
340,140,215583,1,0,1:0:0:0:
263,213,215759,2,0,P|254:163|244:114,1,95.9999970703126,10|0,0:0|0:0,0:0:0:0:
446,35,216112,6,0,P|473:107|395:195,1,191.999994140625,2|10,1:2|0:0,0:0:0:0:
245,118,216641,1,0,0:0:0:0:
209,125,216729,1,8,0:0:0:0:
174,132,216817,1,2,0:0:0:0:
139,140,216905,1,8,0:0:0:0:
103,147,216993,1,0,1:0:0:0:
0,71,217171,1,10,0:0:0:0:
51,235,217347,1,0,0:0:0:0:
51,235,217435,1,8,0:0:0:0:
51,235,217524,6,0,P|124:256|171:271,1,95.9999970703126,6|0,1:2|0:0,0:0:0:0:
245,118,217877,2,0,P|318:139|365:154,1,95.9999970703126,12|0,0:0|0:0,0:0:0:0:
337,144,218141,1,8,0:0:0:0:
337,144,218230,1,2,0:0:0:0:
388,276,218406,1,0,1:0:0:0:
505,206,218583,2,0,P|524:156|502:105,1,95.9999970703126,12|0,0:0|0:0,0:0:0:0:
295,242,218935,6,0,P|308:315|313:365,1,95.9999970703126,2|0,1:2|1:0,0:0:0:0:
438,154,219288,2,0,P|425:81|420:31,1,95.9999970703126,12|0,0:0|0:0,0:0:0:0:
422,59,219553,1,8,0:0:0:0:
422,59,219641,1,2,0:0:0:0:
272,4,219818,1,0,1:0:0:0:
243,145,219994,2,0,B|163:161|221:200|91:228,1,143.999995605469,12|0,0:0|0:0,0:0:0:0:
124,219,220347,5,6,1:2:0:0:
7,100,220524,1,0,0:0:0:0:
134,35,220700,2,0,P|123:114|116:154,1,95.9999970703126,12|0,0:0|0:0,0:0:0:0:
120,130,220965,1,8,0:0:0:0:
120,130,221053,1,0,0:0:0:0:
250,229,221230,1,0,1:0:0:0:
167,368,221406,1,10,0:0:0:0:
43,243,221583,6,0,B|28:213|-1:196|-1:196|164:227,1,192,4|0,1:2|0:0,0:0:0:0:
182,272,221935,2,0,P|253:306|276:296,1,64,8|0,0:0|0:0,0:0:0:0:
316,184,222112,2,0,P|245:150|222:160,1,64,8|0,0:0|0:0,0:0:0:0:
115,10,222288,1,0,1:0:0:0:
83,11,222376,1,0,1:0:0:0:
55,26,222464,1,12,0:0:0:0:
39,166,222641,1,0,1:0:0:0:
204,72,222818,1,10,0:3:0:0:
265,149,222994,1,2,1:2:0:0:
265,149,223083,1,0,1:0:0:0:
265,149,223171,6,0,P|156:154|105:82,1,191.999994140625,14|2,0:0|1:2,0:0:0:0:
262,2,223700,1,8,0:0:0:0:
364,114,223876,2,0,P|350:168|343:213,1,95.9999970703126,2|0,1:2|1:0,0:0:0:0:
492,244,224229,2,0,P|506:190|513:145,1,95.9999970703126,10|0,0:0|1:0,0:0:0:0:
512,150,224494,1,0,0:0:0:0:
512,150,224582,5,12,0:0:0:0:
403,270,224759,2,0,P|351:295|302:280,1,95.9999970703126,0|2,1:0|1:2,0:0:0:0:
179,152,225112,1,8,0:0:0:0:
163,246,225288,2,0,P|216:226|268:218,1,95.9999970703126,0|0,1:0|1:0,0:0:0:0:
200,55,225641,2,0,P|147:75|95:83,1,95.9999970703126,10|0,0:0|1:0,0:0:0:0:
100,81,225906,1,0,0:0:0:0:
91,77,225994,6,0,P|36:107|74:230,1,191.999994140625,14|0,0:0|1:0,0:0:0:0:
23,363,226524,2,0,B|142:352|79:302|197:278,1,191.999994140625,8|0,0:0|1:0,0:0:0:0:
304,384,227053,2,0,P|294:330|289:277,1,95.9999970703126,10|0,0:0|1:0,0:0:0:0:
395,85,227406,5,10,0:0:0:0:
471,120,227583,1,0,1:0:0:0:
482,202,227759,1,0,1:0:0:0:
323,132,227935,1,4,0:0:0:0:
200,230,228112,5,0,1:0:0:0:
109,160,228288,1,8,0:3:0:0:
124,67,228465,2,0,P|44:85|13:87,1,95.9999970703126,2|10,1:2|0:3,0:0:0:0:
30,86,228730,1,0,1:0:0:0:
30,86,228818,5,14,0:0:0:0:
199,104,228994,2,0,B|220:62|220:62|199:18,1,95.9999970703126,0|2,1:0|1:2,0:0:0:0:
109,160,229347,1,8,0:0:0:0:
186,236,229524,2,0,P|232:224|280:217,1,95.9999970703126,2|0,1:2|1:0,0:0:0:0:
361,358,229877,2,0,P|408:365|455:376,1,95.9999970703126,10|0,0:0|1:0,0:0:0:0:
438,207,230230,6,0,B|393:200|329:230|385:267|325:301|281:298,1,191.999994140625,12|2,0:0|1:2,0:0:0:0:
86,262,230759,1,8,0:0:0:0:
280,217,230935,1,0,1:0:0:0:
227,359,231112,1,0,1:0:0:0:
162,184,231288,2,0,P|155:134|144:81,1,95.9999970703126,10|0,0:0|1:0,0:0:0:0:
35,12,231641,6,0,P|-6:80|54:168,1,191.999994140625,14|0,0:0|1:0,0:0:0:0:
146,90,232171,2,0,B|265:116|187:173|330:193,1,191.999994140625,8|0,0:0|1:0,0:0:0:0:
282,339,232700,2,0,P|246:273|268:230,1,95.9999970703126,10|0,0:0|1:0,0:0:0:0:
389,156,233053,5,10,0:3:0:0:
400,190,233141,1,0,1:0:0:0:
394,225,233229,1,0,1:0:0:0:
372,254,233317,1,0,1:0:0:0:
341,270,233405,1,12,0:0:0:0:
170,211,233583,5,8,0:3:0:0:
173,175,233671,1,8,0:3:0:0:
177,139,233759,1,0,1:0:0:0:
180,103,233847,1,0,1:0:0:0:
184,67,233935,1,12,0:2:0:0:
43,159,234112,1,2,1:2:0:0:
133,304,234288,1,8,0:0:0:0:
133,304,234377,1,8,0:0:0:0:
133,304,234465,6,0,L|231:330,1,96,6|0,1:2|0:0,0:0:0:0:
226,329,234818,6,0,P|229:285|151:205,1,143.999995605469,10|8,0:0|0:0,0:0:0:0:
169,210,235171,1,2,0:0:0:0:
51,88,235347,1,0,1:0:0:0:
17,164,235524,2,0,P|81:169|116:138,1,95.9999970703126,10|0,0:0|0:0,0:0:0:0:
276,41,235877,6,0,P|264:131|254:241,1,191.999994140625,0|10,1:0|0:0,0:0:0:0:
369,365,236406,1,0,0:0:0:0:
369,365,236494,1,8,0:0:0:0:
369,365,236583,2,0,P|381:301|358:265,1,95.9999970703126,2|0,0:0|1:0,0:0:0:0:
241,326,236935,1,10,0:0:0:0:
170,269,237112,1,2,0:0:0:0:
33,332,237288,5,4,1:2:0:0:
45,180,237465,1,0,0:0:0:0:
161,275,237641,2,0,P|173:204|185:122,1,143.999995605469,10|8,0:0|0:0,0:0:0:0:
183,132,237994,1,6,1:2:0:0:
78,260,238171,1,0,1:0:0:0:
175,378,238347,2,0,P|234:361|251:305,1,95.9999970703126,10|0,0:0|0:0,0:0:0:0:
249,333,238612,1,8,0:0:0:0:
249,333,238700,6,0,P|308:341|366:349,1,95.9999970703126,6|0,1:2|0:0,0:0:0:0:
482,258,239053,2,0,P|502:208|477:159,1,95.9999970703126,10|0,0:0|0:0,0:0:0:0:
483,166,239318,1,8,0:0:0:0:
477,162,239406,2,0,P|462:120|461:115,2,47.9999985351563,2|8|0,0:0|0:0|1:0,0:0:0:0:
394,266,239759,1,14,0:0:0:0:
299,180,239935,1,10,0:3:0:0:
299,180,240024,1,8,0:3:0:0:
299,180,240112,6,0,P|246:192|182:205,1,95.9999970703126,6|0,1:2|1:0,0:0:0:0:
26,148,240465,2,0,P|1:105|11:56,1,95.9999970703126,10|0,0:0|0:0,0:0:0:0:
8,61,240730,1,8,0:0:0:0:
8,61,240818,1,0,0:0:0:0:
115,180,240994,1,0,1:0:0:0:
178,115,241171,2,0,P|224:104|271:94,1,95.9999970703126,10|0,0:0|0:0,0:0:0:0:
450,34,241524,6,0,P|440:85|433:135,1,95.9999970703126,2|0,1:2|1:0,0:0:0:0:
272,95,241877,2,0,P|282:44|289:-6,1,95.9999970703126,10|0,0:0|0:0,0:0:0:0:
288,0,242141,1,8,0:0:0:0:
288,0,242230,1,2,0:0:0:0:
432,143,242406,2,0,L|375:159,1,47.9999985351563,0|0,1:0|0:0,0:0:0:0:
283,277,242583,1,10,0:0:0:0:
247,274,242671,1,8,0:0:0:0:
215,258,242759,1,8,0:0:0:0:
192,230,242847,1,8,0:0:0:0:
183,196,242935,6,0,P|303:243|394:269,1,191.999994140625,6|0,1:2|0:0,0:0:0:0:
512,383,243465,2,0,P|437:329|505:287,1,191.999994140625,12|0,0:0|1:0,0:0:0:0:
512,184,243994,1,10,0:3:0:0:
432,143,244171,1,0,1:0:0:0:
354,181,244347,2,0,P|344:124|309:43,1,143.999995605469,12|0,0:0|0:0,0:0:0:0:
310,45,244700,6,0,P|242:60|224:60,1,63.9999980468751,8|8,0:0|0:0,0:0:0:0:
178,36,244935,1,8,0:3:0:0:
191,112,245053,6,0,P|239:162|247:178,1,63.9999980468751,8|8,0:3|0:0,0:0:0:0:
253,233,245288,1,8,0:0:0:0:
312,183,245406,6,0,P|331:117|341:102,1,63.9999980468751,10|0,0:0|1:0,0:0:0:0:
388,73,245641,1,0,1:0:0:0:
314,27,245759,6,0,P|377:-11|473:58,1,191.999994140625,12|8,0:0|0:0,0:0:0:0:
425,191,246288,1,2,0:0:0:0:
506,288,246465,2,0,P|445:302|406:315,1,95.9999970703126,8|0,0:0|1:0,0:0:0:0:
413,312,246730,1,0,1:0:0:0:
413,312,246818,2,0,P|352:318|367:229,1,143.999995605469,14|0,0:0|0:0,0:0:0:0:
338,249,247171,6,0,P|333:191|319:137,1,95.9999970703126,8|2,0:0|0:0,0:0:0:0:
152,172,247524,2,0,P|156:229|170:283,1,95.9999970703126,8|0,0:0|1:0,0:0:0:0:
165,266,247788,1,0,1:0:0:0:
165,266,247877,1,10,0:0:0:0:
247,211,248053,1,2,1:2:0:0:
72,128,248230,1,8,0:0:0:0:
68,271,248406,1,2,1:2:0:0:
204,93,248583,6,0,B|313:82|237:22|374:12,1,191.999994140625,12|10,0:0|0:0,0:0:0:0:
505,115,249112,1,2,0:0:0:0:
398,206,249288,2,0,B|443:231|443:231|484:215,1,95.9999970703126,8|2,0:0|1:2,0:0:0:0:
485,216,249553,1,0,1:0:0:0:
485,216,249641,6,0,P|465:94|455:13,1,191.999994140625,14|10,0:0|0:0,0:0:0:0:
335,136,250171,1,2,0:0:0:0:
382,299,250347,2,0,P|327:278|273:267,1,95.9999970703126,8|2,0:0|1:2,0:0:0:0:
291,269,250612,1,0,1:0:0:0:
291,269,250700,1,8,0:0:0:0:
151,212,250877,1,2,1:2:0:0:
266,352,251053,1,12,0:0:0:0:
323,154,251230,1,0,0:0:0:0:
212,289,251406,5,6,1:2:0:0:
202,301,251759,5,0,1:0:0:0:
124,334,251935,1,8,0:0:0:0:
59,159,252112,1,0,1:0:0:0:
151,212,252288,1,10,0:0:0:0:
233,120,252465,2,0,P|227:72|218:8,1,95.9999970703126,0|8,1:0|0:0,0:0:0:0:
404,51,252818,5,8,1:2:0:0:
318,158,252994,1,8,0:0:0:0:
217,6,253171,2,0,P|281:18|320:22,1,95.9999970703126,8|10,1:2|0:0,0:0:0:0:
395,191,253524,2,0,P|366:232|320:244,1,95.9999970703126,8|8,1:2|0:0,0:0:0:0:
136,170,253877,1,8,1:2:0:0:
278,89,254053,1,8,0:0:0:0:
234,260,254230,54,0,B|233:246|237:300|192:319|192:319|191:325|191:325|192:319|192:319|149:295|156:244|156:244|107:264|75:226|75:226|69:228|69:228|76:227|76:227|85:178|135:169|135:169|101:129|126:87|126:87|123:82|123:82|127:86|127:86|174:81|199:126|199:126|227:81|274:91|274:91|278:88|278:88|275:91|275:91|295:136|259:172|259:172|311:185|314:234|314:234|320:236|320:236|315:233|315:233|279:267|234:248,1,940,6|0,1:2|0:0,0:0:0:0:
234,248,258465,5,6,1:2:0:0:
305,346,258641,2,0,P|365:330|414:321,1,80,2|8,0:0|0:0,0:0:0:0:
443,202,258994,1,2,0:0:0:0:
480,282,259171,2,0,P|417:282|370:239,1,120,2|0,1:2|0:0,0:0:0:0:
374,247,259524,1,10,0:0:0:0:
425,118,259700,6,0,P|369:134|339:140,1,80,2|0,0:0|1:0,0:0:0:0:
183,133,260053,2,0,B|167:95|167:95|179:41,1,80,2|10,0:0|0:0,0:0:0:0:
324,23,260406,1,2,0:0:0:0:
324,23,260494,1,2,0:0:0:0:
324,23,260583,1,2,1:2:0:0:
259,89,260759,1,2,0:0:0:0:
175,57,260935,2,0,P|118:49|46:40,1,120,10|0,0:0|0:0,0:0:0:0:
56,41,261288,5,2,1:2:0:0:
21,192,261465,2,0,P|46:148|93:133,1,80,2|8,0:0|0:0,0:0:0:0:
232,184,261818,1,2,0:0:0:0:
107,221,261994,2,0,B|188:226|144:263|234:273,1,120,2|0,1:2|0:0,0:0:0:0:
212,269,262347,1,10,0:0:0:0:
132,384,262524,6,0,P|127:354|107:303,1,80,2|0,0:0|0:0,0:0:0:0:
294,332,262877,2,0,P|302:292|316:255,1,80,2|10,0:0|0:0,0:0:0:0:
459,309,263230,1,2,0:0:0:0:
448,327,263318,1,2,0:0:0:0:
427,332,263406,6,0,P|395:322|378:317,1,40,6|0,1:2|0:0,0:0:0:0:
318,244,263583,2,0,P|298:249|279:255,1,40,10|0,0:0|0:0,0:0:0:0:
200,311,263759,2,0,B|174:256|174:256|201:185,1,120,10|8,0:0|0:0,0:0:0:0:
195,200,264112,5,6,1:2:0:0:
332,137,264288,2,0,P|284:129|224:110,1,80,2|8,0:0|0:0,0:0:0:0:
105,31,264641,1,2,0:0:0:0:
91,147,264818,2,0,P|165:108|163:55,1,120,2|0,1:2|0:0,0:0:0:0:
169,79,265171,1,10,0:0:0:0:
16,5,265347,6,0,P|25:54|29:93,1,80,2|0,0:0|0:0,0:0:0:0:
178,208,265700,1,2,0:0:0:0:
78,225,265877,2,0,P|82:185|90:146,1,80,10|2,0:0|0:0,0:0:0:0:
90,146,266141,1,2,0:0:0:0:
90,146,266230,1,2,1:2:0:0:
151,293,266406,1,2,0:0:0:0:
271,188,266583,2,0,P|304:212|317:275,1,80,10|0,0:0|1:0,0:0:0:0:
286,328,266847,1,0,1:0:0:0:
291,340,266935,5,10,0:0:0:0:
329,347,267023,1,8,0:0:0:0:
368,337,267111,1,2,1:2:0:0:
397,311,267199,1,0,1:0:0:0:
412,274,267288,6,0,P|417:241|419:220,1,40,10|10,0:3|0:3,0:0:0:0:
373,124,267465,2,0,P|368:157|366:178,1,40,2|0,1:2|1:0,0:0:0:0:
318,247,267641,5,10,0:0:0:0:
469,147,267818,1,14,1:2:0:0:
501,273,267994,5,10,0:0:0:0:
278,164,268171,1,6,0:0:0:0:
256,192,268259,12,0,275406,0:0:0:0:
