osu file format v14

[General]
AudioFilename: audio.mp3
AudioLeadIn: 0
PreviewTime: 173610
Countdown: 0
SampleSet: Soft
StackLeniency: 0.7
Mode: 0
LetterboxInBreaks: 0
WidescreenStoryboard: 1

[Editor]
DistanceSpacing: 1
BeatDivisor: 4
GridSize: 8
TimelineZoom: 2

[Metadata]
Title:Hana no Tou
TitleUnicode:花の塔
Artist:Sayuri
ArtistUnicode:さユり
Creator:Mrgglock
Version:A Future With You
Source:リコリス・リコイル
Tags:notabox kyairie astromi pancakespk tower of flower lycoris recoil リコリコ rikoriko lycoreco ending ed theme full song version ver. female vocals vocalist japanese jpop j-pop jrock j-rock anime 酸欠少女さユり sanketsu-girl sanketsu shoujo shojo hypoxia girl SawanoHiroyuki[nZk]: asuka あすか
BeatmapID:3706110
BeatmapSetID:1807138

[Difficulty]
HPDrainRate:5.5
CircleSize:4
OverallDifficulty:9
ApproachRate:9
SliderMultiplier:1.8
SliderTickRate:1

[Events]
//Background and Video events
0,0,"bg.jpg",0,0
//Break Periods
2,200521,202603
//Storyboard Layer 0 (Background)
//Storyboard Layer 1 (Fail)
//Storyboard Layer 2 (Pass)
//Storyboard Layer 3 (Foreground)
Sprite,Foreground,CentreRight,"sb\lyricsEn\_001.png",0,0 S,0,0,,0.2 MX,0,0,,540 F,0,11345,11595,0,1 MY,22,11345,12580,300,330 F,0,11595,13566,1 MY,21,12581,13816,330,360 F,0,13566,13816,1,0
//Storyboard Layer 4 (Overlay)
//Storyboard Sound Samples

[TimingPoints]
-2772,352.941176470588,4,2,1,55,1,0
2522,-250,4,2,1,55,0,0
2786,-250,4,2,1,5,0,0
2875,-250,4,2,1,70,0,0
3051,-100,4,2,1,70,0,0
12580,-181.818181818182,4,2,1,70,0,0
14169,-117.647058823529,4,2,1,55,0,0
23963,-117.647058823529,4,2,1,5,0,0
24227,-117.647058823529,4,2,1,55,0,0
24315,-117.647058823529,4,2,1,5,0,0
24580,-117.647058823529,4,2,1,55,0,0
24668,-117.647058823529,4,2,1,5,0,0
24757,-117.647058823529,4,2,1,55,0,0
25198,-117.647058823529,4,2,1,5,0,0
25463,-142.857142857143,4,2,1,40,0,0
31110,-100,4,2,1,70,0,0
37816,-100,4,2,8,70,0,0
38169,352.941176470588,4,2,99,85,1,1
38169,-68.9655172413793,4,2,99,85,0,1
38433,-68.9655172413793,4,2,99,5,0,1
38521,-86.9565217391304,4,2,12,85,0,1
38874,-86.9565217391304,4,2,13,85,0,1
39227,-86.9565217391304,4,2,12,85,0,1
39580,-86.9565217391304,4,2,97,85,0,1
39933,-86.9565217391304,4,2,11,85,0,1
40992,-68.9655172413793,4,2,95,85,0,1
41256,-68.9655172413793,4,2,95,5,0,1
41345,-86.9565217391304,4,2,11,85,0,1
42051,-86.9565217391304,4,2,13,85,0,1
42227,-86.9565217391304,4,2,12,85,0,1
42404,-86.9565217391304,4,2,93,85,0,1
43109,-86.9565217391304,4,2,92,85,0,1
43462,-86.9565217391304,4,2,8,85,0,1
43816,-68.9655172413793,4,2,99,85,0,1
44080,-68.9655172413793,4,2,99,5,0,1
44168,-86.9565217391304,4,2,12,85,0,1
44521,-86.9565217391304,4,2,13,85,0,1
44874,-86.9565217391304,4,2,12,85,0,1
45227,-86.9565217391304,4,2,97,85,0,1
45580,-86.9565217391304,4,2,11,85,0,1
46639,-68.9655172413793,4,2,95,85,0,1
46903,-68.9655172413793,4,2,95,5,0,1
46992,-86.9565217391304,4,2,11,85,0,1
47345,-86.9565217391304,4,2,14,85,0,1
47698,-86.9565217391304,4,2,13,85,0,1
47874,-86.9565217391304,4,2,12,85,0,1
48051,-86.9565217391304,4,2,94,85,0,1
48757,-86.9565217391304,4,2,13,85,0,1
49463,-68.9655172413793,4,2,97,85,0,1
49727,-68.9655172413793,4,2,97,5,0,1
49816,-86.9565217391304,4,2,12,85,0,1
50168,-86.9565217391304,4,2,15,85,0,1
50521,-86.9565217391304,4,2,12,85,0,1
50874,-86.9565217391304,4,2,96,85,0,1
51227,-86.9565217391304,4,2,8,85,0,1
52286,-68.9655172413793,4,2,91,85,0,1
52550,-68.9655172413793,4,2,91,5,0,1
52639,-86.9565217391304,4,2,11,85,0,1
52992,-86.9565217391304,4,2,90,85,0,1
53345,-86.9565217391304,4,2,14,85,0,1
53698,-86.9565217391304,4,2,98,85,0,1
54051,-86.9565217391304,4,2,14,85,0,1
54404,-86.9565217391304,4,2,13,85,0,1
54756,-86.9565217391304,4,2,12,85,0,1
54933,-86.9565217391304,4,2,11,85,0,1
55110,-86.9565217391304,4,2,89,70,0,0
55815,-86.9565217391304,4,2,11,70,0,0
56521,-86.9565217391304,4,2,89,70,0,0
57226,-86.9565217391304,4,2,13,70,0,0
57933,-86.9565217391304,4,2,95,70,0,0
58992,-86.9565217391304,4,2,11,70,0,0
59168,-86.9565217391304,4,2,87,70,0,0
59345,-86.9565217391304,4,2,10,70,0,0
60404,-86.9565217391304,4,2,8,70,0,0
60757,-86.9565217391304,4,2,99,85,0,1
61109,-86.9565217391304,4,2,12,85,0,1
61462,-86.9565217391304,4,2,13,85,0,1
61816,-86.9565217391304,4,2,12,85,0,1
62168,-86.9565217391304,4,2,97,85,0,1
62521,-86.9565217391304,4,2,11,85,0,1
63580,-86.9565217391304,4,2,86,85,0,1
64639,-86.9565217391304,4,2,9,85,0,1
64815,-86.9565217391304,4,2,8,85,0,1
64992,-86.9565217391304,4,2,85,85,0,1
65697,-86.9565217391304,4,2,92,85,0,1
66051,-86.9565217391304,4,2,8,85,0,1
66404,-86.9565217391304,4,2,99,85,0,1
66756,-86.9565217391304,4,2,12,85,0,1
67109,-86.9565217391304,4,2,13,85,0,1
67463,-86.9565217391304,4,2,12,85,0,1
67816,-86.9565217391304,4,2,97,85,0,1
68168,-86.9565217391304,4,2,11,85,0,1
69227,-86.9565217391304,4,2,95,85,0,1
70286,-86.9565217391304,4,2,13,85,0,1
70639,-86.9565217391304,4,2,93,85,0,1
71697,-86.9565217391304,4,2,11,85,0,1
72051,-68.9655172413793,4,2,97,85,0,1
72315,-68.9655172413793,4,2,97,5,0,1
72404,-86.9565217391304,4,2,12,85,0,1
72757,-86.9565217391304,4,2,15,85,0,1
73110,-86.9565217391304,4,2,11,85,0,1
73463,-86.9565217391304,4,2,96,85,0,1
73816,-86.9565217391304,4,2,15,85,0,1
74521,-86.9565217391304,4,2,11,85,0,1
74874,-86.9565217391304,4,2,84,85,0,1
75226,-86.9565217391304,4,2,15,85,0,1
75580,-86.9565217391304,4,2,83,85,0,1
75933,-86.9565217391304,4,2,10,85,0,1
76286,-86.9565217391304,4,2,99,85,0,1
76639,-86.9565217391304,4,2,15,85,0,1
77345,-86.9565217391304,4,2,8,85,0,1
77698,-68.9655172413793,4,2,82,85,0,1
77962,-68.9655172413793,4,2,82,5,0,1
78051,-86.9565217391304,4,2,11,85,0,1
78757,-86.9565217391304,4,2,8,85,0,1
79110,-86.9565217391304,4,2,82,85,0,1
79463,-86.9565217391304,4,2,11,85,0,1
80168,-86.9565217391304,4,2,13,85,0,1
80521,-86.9565217391304,4,2,95,85,0,1
81227,-86.9565217391304,4,2,11,85,0,1
81580,-86.9565217391304,4,2,14,85,0,1
81933,-86.9565217391304,4,2,75,70,0,0
82286,-86.9565217391304,4,2,13,70,0,0
82639,-86.9565217391304,4,2,11,70,0,0
82992,-86.9565217391304,4,2,10,70,0,0
83345,-86.9565217391304,4,2,1,70,0,0
83521,-100,4,2,1,70,0,0
94639,-117.647058823529,4,2,1,55,0,0
103198,-117.647058823529,4,2,1,5,0,0
104345,-117.647058823529,4,2,1,55,0,0
104433,-117.647058823529,4,2,1,5,0,0
104698,-117.647058823529,4,2,1,55,0,0
104786,-117.647058823529,4,2,1,5,0,0
105051,-117.647058823529,4,2,1,55,0,0
105933,-142.857142857143,4,2,1,40,0,0
111580,-117.647058823529,4,2,1,55,0,0
114404,-100,4,2,1,70,0,0
116874,-100,4,2,28,70,0,0
117227,-68.9655172413793,4,2,59,85,0,1
117491,-68.9655172413793,4,2,59,5,0,1
117580,-86.9565217391304,4,2,32,85,0,1
117933,-86.9565217391304,4,2,33,85,0,1
118286,-86.9565217391304,4,2,32,85,0,1
118639,-86.9565217391304,4,2,57,85,0,1
118992,-86.9565217391304,4,2,31,85,0,1
120051,-68.9655172413793,4,2,55,85,0,1
120315,-68.9655172413793,4,2,55,5,0,1
120404,-86.9565217391304,4,2,31,85,0,1
121110,-86.9565217391304,4,2,33,85,0,1
121286,-86.9565217391304,4,2,32,85,0,1
121463,-86.9565217391304,4,2,53,85,0,1
122168,-86.9565217391304,4,2,52,85,0,1
122521,-86.9565217391304,4,2,28,85,0,1
122874,-68.9655172413793,4,2,59,85,0,1
123138,-68.9655172413793,4,2,59,5,0,1
123227,-86.9565217391304,4,2,32,85,0,1
123580,-86.9565217391304,4,2,33,85,0,1
123933,-86.9565217391304,4,2,32,85,0,1
124286,-86.9565217391304,4,2,57,85,0,1
124639,-86.9565217391304,4,2,31,85,0,1
125698,-68.9655172413793,4,2,55,85,0,1
125962,-68.9655172413793,4,2,55,5,0,1
126051,-86.9565217391304,4,2,31,85,0,1
126404,-86.9565217391304,4,2,34,85,0,1
126757,-86.9565217391304,4,2,33,85,0,1
126933,-86.9565217391304,4,2,32,85,0,1
127110,-86.9565217391304,4,2,54,85,0,1
127816,-86.9565217391304,4,2,33,85,0,1
128521,-68.9655172413793,4,2,57,85,0,1
128785,-68.9655172413793,4,2,57,5,0,1
128874,-86.9565217391304,4,2,32,85,0,1
129227,-86.9565217391304,4,2,35,85,0,1
129580,-86.9565217391304,4,2,32,85,0,1
129933,-86.9565217391304,4,2,56,85,0,1
130286,-86.9565217391304,4,2,28,85,0,1
131345,-68.9655172413793,4,2,51,85,0,1
131609,-68.9655172413793,4,2,51,5,0,1
131698,-86.9565217391304,4,2,31,85,0,1
132051,-86.9565217391304,4,2,50,85,0,1
132404,-86.9565217391304,4,2,34,85,0,1
132757,-86.9565217391304,4,2,58,85,0,1
133110,-86.9565217391304,4,2,34,85,0,1
133462,-86.9565217391304,4,2,33,85,0,1
133815,-86.9565217391304,4,2,32,85,0,1
133992,-86.9565217391304,4,2,31,85,0,1
134168,-86.9565217391304,4,2,49,70,0,0
134873,-86.9565217391304,4,2,31,70,0,0
135580,-86.9565217391304,4,2,49,70,0,0
136285,-86.9565217391304,4,2,33,70,0,0
136992,-86.9565217391304,4,2,55,70,0,0
138051,-86.9565217391304,4,2,31,70,0,0
138227,-86.9565217391304,4,2,47,70,0,0
138403,-86.9565217391304,4,2,30,70,0,0
139463,-86.9565217391304,4,2,28,70,0,0
139816,-86.9565217391304,4,2,59,85,0,1
140168,-86.9565217391304,4,2,32,85,0,1
140521,-86.9565217391304,4,2,33,85,0,1
140874,-86.9565217391304,4,2,32,85,0,1
141227,-86.9565217391304,4,2,41,85,0,1
141580,-86.9565217391304,4,2,31,85,0,1
142639,-86.9565217391304,4,2,46,85,0,1
143698,-86.9565217391304,4,2,29,85,0,1
143874,-86.9565217391304,4,2,28,85,0,1
144051,-86.9565217391304,4,2,45,85,0,1
144756,-86.9565217391304,4,2,52,85,0,1
145110,-86.9565217391304,4,2,28,85,0,1
145463,-86.9565217391304,4,2,59,85,0,1
145815,-86.9565217391304,4,2,32,85,0,1
146168,-86.9565217391304,4,2,33,85,0,1
146521,-86.9565217391304,4,2,32,85,0,1
146874,-86.9565217391304,4,2,57,85,0,1
147227,-86.9565217391304,4,2,31,85,0,1
148286,-86.9565217391304,4,2,55,85,0,1
149345,-86.9565217391304,4,2,33,85,0,1
149698,-86.9565217391304,4,2,53,85,0,1
150756,-86.9565217391304,4,2,31,85,0,1
151110,-68.9655172413793,4,2,57,85,0,1
151374,-68.9655172413793,4,2,57,5,0,1
151463,-86.9565217391304,4,2,32,85,0,1
151816,-86.9565217391304,4,2,35,85,0,1
152168,-86.9565217391304,4,2,31,85,0,1
152521,-86.9565217391304,4,2,56,85,0,1
152874,-86.9565217391304,4,2,35,85,0,1
153580,-86.9565217391304,4,2,31,85,0,1
153933,-86.9565217391304,4,2,44,85,0,1
154285,-86.9565217391304,4,2,35,85,0,1
154639,-86.9565217391304,4,2,43,85,0,1
154992,-86.9565217391304,4,2,30,85,0,1
155345,-86.9565217391304,4,2,59,85,0,1
155698,-86.9565217391304,4,2,35,85,0,1
156404,-86.9565217391304,4,2,28,85,0,1
156757,-68.9655172413793,4,2,42,85,0,1
157021,-68.9655172413793,4,2,42,5,0,1
157110,-86.9565217391304,4,2,31,85,0,1
157816,-86.9565217391304,4,2,28,85,0,1
158168,-86.9565217391304,4,2,42,85,0,1
158521,-86.9565217391304,4,2,31,85,0,1
159227,-86.9565217391304,4,2,33,85,0,1
159580,-86.9565217391304,4,2,55,85,0,1
160286,-86.9565217391304,4,2,31,85,0,1
160639,-86.9565217391304,4,2,34,85,0,1
160992,-86.9565217391304,4,2,47,85,0,1
161345,-86.9565217391304,4,2,33,85,0,1
161698,-86.9565217391304,4,2,31,85,0,1
162051,-86.9565217391304,4,2,30,85,0,1
162404,-86.9565217391304,4,2,1,85,0,0
162492,-86.9565217391304,4,2,1,5,0,0
162668,-86.9565217391304,4,2,1,85,0,0
162756,-86.9565217391304,4,2,1,5,0,0
162933,-86.9565217391304,4,2,1,85,0,0
163021,-86.9565217391304,4,2,1,5,0,0
163110,-86.9565217391304,4,2,1,85,0,0
163551,-86.9565217391304,4,2,1,5,0,0
163727,-86.9565217391304,4,2,1,85,0,0
163815,-86.9565217391304,4,2,1,5,0,0
163992,-86.9565217391304,4,2,1,85,0,0
164080,-86.9565217391304,4,2,1,5,0,0
164168,-86.9565217391304,4,2,1,85,0,0
165315,-86.9565217391304,4,2,1,5,0,0
165492,-86.9565217391304,4,2,1,85,0,0
165580,-86.9565217391304,4,2,1,5,0,0
165757,-86.9565217391304,4,2,1,85,0,0
165845,-86.9565217391304,4,2,1,5,0,0
165933,-86.9565217391304,4,2,1,85,0,0
166374,-86.9565217391304,4,2,1,5,0,0
166551,-86.9565217391304,4,2,1,85,0,0
166639,-86.9565217391304,4,2,1,5,0,0
166816,-86.9565217391304,4,2,1,85,0,0
166904,-86.9565217391304,4,2,1,5,0,0
167521,-250,4,2,1,55,0,0
167962,-250,4,2,1,5,0,0
168051,-250,4,2,1,70,0,0
170168,-100,4,2,1,70,0,0
173698,-100,4,2,1,40,0,0
174227,-142.857142857143,4,2,1,40,0,0
184992,-117.647058823529,4,2,1,55,0,0
190639,-100,4,2,1,70,0,0
200521,352.941176470588,4,2,1,85,1,0
203203,-100,4,2,1,85,0,0
203344,-68.9655172413793,4,2,95,85,0,1
203608,-68.9655172413793,4,2,95,5,0,1
203697,-86.9565217391304,4,2,11,85,0,1
204403,-86.9565217391304,4,2,13,85,0,1
204579,-86.9565217391304,4,2,12,85,0,1
204756,-86.9565217391304,4,2,93,85,0,1
205461,-86.9565217391304,4,2,92,85,0,1
205814,-86.9565217391304,4,2,8,85,0,1
206168,-68.9655172413793,4,2,99,85,0,1
206432,-68.9655172413793,4,2,99,5,0,1
206521,-86.9565217391304,4,2,12,85,0,1
206873,-86.9565217391304,4,2,13,85,0,1
207226,-86.9565217391304,4,2,12,85,0,1
207579,-86.9565217391304,4,2,97,85,0,1
207932,-86.9565217391304,4,2,11,85,0,1
208991,-68.9655172413793,4,2,95,85,0,1
209255,-68.9655172413793,4,2,95,5,0,1
209344,-86.9565217391304,4,2,11,85,0,1
209697,-86.9565217391304,4,2,14,85,0,1
210050,-86.9565217391304,4,2,13,85,0,1
210226,-86.9565217391304,4,2,12,85,0,1
210403,-86.9565217391304,4,2,94,85,0,1
211109,-86.9565217391304,4,2,13,85,0,1
211815,-68.9655172413793,4,2,97,85,0,1
212079,-68.9655172413793,4,2,97,5,0,1
212168,-86.9565217391304,4,2,12,85,0,1
212520,-86.9565217391304,4,2,15,85,0,1
212873,-86.9565217391304,4,2,12,85,0,1
213226,-86.9565217391304,4,2,96,85,0,1
213579,-86.9565217391304,4,2,8,85,0,1
214638,-68.9655172413793,4,2,91,85,0,1
214902,-68.9655172413793,4,2,91,5,0,1
214991,-86.9565217391304,4,2,11,85,0,1
215344,-86.9565217391304,4,2,90,85,0,1
215697,-86.9565217391304,4,2,14,85,0,1
216050,-86.9565217391304,4,2,98,85,0,1
216403,-86.9565217391304,4,2,14,85,0,1
216756,-86.9565217391304,4,2,13,85,0,1
217108,-86.9565217391304,4,2,12,85,0,1
217285,-86.9565217391304,4,2,11,85,0,1
217462,-86.9565217391304,4,2,89,70,0,0
218167,-86.9565217391304,4,2,11,70,0,0
218873,-86.9565217391304,4,2,89,70,0,0
219578,-86.9565217391304,4,2,13,70,0,0
220285,-86.9565217391304,4,2,95,70,0,0
221344,-86.9565217391304,4,2,11,70,0,0
221520,-86.9565217391304,4,2,87,70,0,0
221697,-86.9565217391304,4,2,10,70,0,0
222756,-86.9565217391304,4,2,8,70,0,0
223109,-86.9565217391304,4,2,99,85,0,1
223461,-86.9565217391304,4,2,12,85,0,1
223814,-86.9565217391304,4,2,13,85,0,1
224168,-86.9565217391304,4,2,12,85,0,1
224520,-86.9565217391304,4,2,97,85,0,1
224873,-86.9565217391304,4,2,11,85,0,1
225932,-86.9565217391304,4,2,86,85,0,1
226991,-86.9565217391304,4,2,9,85,0,1
227167,-86.9565217391304,4,2,8,85,0,1
227344,-86.9565217391304,4,2,85,85,0,1
228049,-86.9565217391304,4,2,92,85,0,1
228403,-86.9565217391304,4,2,8,85,0,1
228756,-86.9565217391304,4,2,99,85,0,1
229108,-86.9565217391304,4,2,12,85,0,1
229461,-86.9565217391304,4,2,13,85,0,1
229815,-86.9565217391304,4,2,12,85,0,1
230168,-86.9565217391304,4,2,97,85,0,1
230520,-86.9565217391304,4,2,11,85,0,1
231579,-86.9565217391304,4,2,95,85,0,1
232638,-86.9565217391304,4,2,13,85,0,1
232991,-86.9565217391304,4,2,93,85,0,1
234049,-86.9565217391304,4,2,11,85,0,1
234403,-68.9655172413793,4,2,97,85,0,1
234667,-68.9655172413793,4,2,97,5,0,1
234756,-86.9565217391304,4,2,12,85,0,1
235109,-86.9565217391304,4,2,15,85,0,1
235462,-86.9565217391304,4,2,11,85,0,1
235815,-86.9565217391304,4,2,96,85,0,1
236168,-86.9565217391304,4,2,15,85,0,1
236873,-86.9565217391304,4,2,11,85,0,1
237226,-86.9565217391304,4,2,84,85,0,1
237578,-86.9565217391304,4,2,15,85,0,1
237932,-86.9565217391304,4,2,83,85,0,1
238285,-86.9565217391304,4,2,10,85,0,1
238638,-86.9565217391304,4,2,99,85,0,1
238991,-86.9565217391304,4,2,15,85,0,1
239697,-86.9565217391304,4,2,8,85,0,1
240050,-68.9655172413793,4,2,82,85,0,1
240314,-68.9655172413793,4,2,82,5,0,1
240403,-86.9565217391304,4,2,11,85,0,1
241109,-86.9565217391304,4,2,8,85,0,1
241462,-86.9565217391304,4,2,82,85,0,1
241815,-86.9565217391304,4,2,11,85,0,1
242520,-86.9565217391304,4,2,13,85,0,1
242873,-86.9565217391304,4,2,95,85,0,1
243579,-86.9565217391304,4,2,11,85,0,1
243932,-86.9565217391304,4,2,14,85,0,1
244285,-86.9565217391304,4,2,87,70,0,1
244638,-86.9565217391304,4,2,13,70,0,1
244991,-86.9565217391304,4,2,11,70,0,1
245344,-86.9565217391304,4,2,10,70,0,1
245697,-86.9565217391304,4,2,69,70,0,1
246226,-86.9565217391304,4,2,1,70,0,1
246756,-86.9565217391304,4,2,68,70,0,1
247285,-86.9565217391304,4,2,1,70,0,1
248520,-86.9565217391304,4,2,67,70,0,1
249050,-86.9565217391304,4,2,1,70,0,1
249579,-86.9565217391304,4,2,66,70,0,1
250109,-86.9565217391304,4,2,1,70,0,1
250991,-86.9565217391304,4,2,8,70,0,1
251344,-100,4,2,65,70,0,0
251696,-100,4,2,11,70,0,0
252403,-100,4,2,8,70,0,0
253109,-100,4,2,11,70,0,0
253815,-100,4,2,13,70,0,0
254168,-243.90243902439,4,2,12,70,0,0
254873,-243.90243902439,4,2,11,70,0,0
255226,-243.90243902439,4,2,14,70,0,0
255932,-243.90243902439,4,2,13,70,0,0
256285,-243.90243902439,4,2,11,70,0,0
256638,-243.90243902439,4,2,10,70,0,0
258050,-243.90243902439,4,2,10,5,0,0
258403,352.941176470588,4,2,1,70,1,0
268108,-344.827586206897,4,2,1,70,0,0
268991,-344.827586206897,4,2,1,60,0,0
269697,-344.827586206897,4,2,1,50,0,0
270403,-344.827586206897,4,2,1,40,0,0
271108,-344.827586206897,4,2,1,30,0,0
271814,-344.827586206897,4,2,1,20,0,0
273932,-344.827586206897,4,2,1,10,0,0
275166,-344.827586206897,4,2,1,5,0,0

[Colours]
Combo1 : 202,0,0
Combo2 : 255,152,102
Combo3 : 204,102,0
Combo4 : 255,85,85

[HitObjects]
100,129,51,5,2,1:2:0:0:
55,216,227,1,2,1:2:0:0:
181,74,580,5,2,1:2:0:0:
9,137,757,1,2,1:2:0:0:
229,154,1110,5,2,1:2:0:0:
46,53,1286,1,2,1:2:0:0:
263,0,1639,5,2,1:2:0:0:
157,233,1816,1,2,1:2:0:0:
322,144,2169,6,0,L|352:149,4,30,2|0|0|2|0,1:2|1:1|1:1|1:2|1:1,0:0:0:0:
299,161,2522,2,0,P|303:197|304:222,1,54,14|0,2:2|0:0,0:0:0:0:
304,300,2875,5,2,1:2:0:0:
142,322,3051,2,0,P|146:274|160:228,1,90,2|8,2:2|2:2,0:0:0:0:
228,355,3404,1,2,2:2:0:0:
52,265,3580,2,0,P|48:217|34:171,1,90,2|0,1:2|0:0,0:0:0:0:
116,80,3933,1,10,2:2:0:0:
220,254,4110,6,0,B|319:231|302:303|412:272,1,180,2|2,2:2|2:2,0:0:0:0:
504,209,4639,1,10,2:2:0:0:
353,35,4816,1,2,2:2:0:0:
361,68,4904,1,2,2:2:0:0:
369,97,4992,2,0,P|361:150|359:188,1,90,2|2,1:2|2:2,0:0:0:0:
245,134,5345,2,0,P|242:89|235:44,1,90,10|0,2:2|0:0,0:0:0:0:
117,0,5698,5,2,1:2:0:0:
36,221,5875,2,0,P|88:233|124:220,1,90,2|8,2:2|2:2,0:0:0:0:
29,95,6227,1,2,2:2:0:0:
173,301,6404,2,0,P|209:261|216:224,1,90,2|0,1:2|0:0,0:0:0:0:
153,110,6757,1,10,2:2:0:0:
319,291,6933,6,0,P|323:202|342:103,1,180,2|2,2:2|2:2,0:0:0:0:
404,8,7463,1,10,2:2:0:0:
504,216,7639,1,2,2:2:0:0:
472,205,7727,1,2,2:2:0:0:
443,196,7816,1,6,1:2:0:0:
310,26,7992,1,10,2:2:0:0:
235,213,8169,2,0,P|292:201|314:164,1,90,10|0,2:2|1:1,0:0:0:0:
255,102,8433,1,0,1:1:0:0:
255,102,8522,5,6,1:2:0:0:
145,257,8698,2,0,P|142:215|132:160,1,90,2|8,2:2|2:2,0:0:0:0:
39,232,9051,1,2,2:2:0:0:
239,319,9227,2,0,P|242:277|252:222,1,90,2|0,1:2|0:0,0:0:0:0:
339,292,9580,1,10,2:2:0:0:
433,89,9757,6,0,B|383:98|354:57|354:57|323:95|274:88,1,180,2|2,2:2|2:2,0:0:0:0:
167,16,10286,1,10,2:2:0:0:
121,223,10463,1,2,2:2:0:0:
116,194,10551,1,2,2:2:0:0:
112,157,10639,2,0,P|71:143|22:157,1,90,2|2,1:2|2:2,0:0:0:0:
15,276,10992,1,10,2:2:0:0:
209,211,11169,1,0,1:1:0:0:
209,211,11257,1,0,1:1:0:0:
209,211,11345,5,10,2:2:0:0:
251,198,11433,1,8,2:2:0:0:
293,211,11521,1,2,1:2:0:0:
321,245,11609,1,0,1:1:0:0:
326,289,11698,1,0,1:1:0:0:
359,296,11786,1,0,1:1:0:0:
392,289,11875,1,2,1:2:0:0:
419,269,11963,1,0,1:1:0:0:
435,239,12051,2,0,P|424:189|420:127,1,90,10|6,2:2|1:2,0:0:0:0:
472,0,12404,1,10,2:2:0:0:
285,123,12580,6,0,B|202:116|202:116|153:148|153:148|66:140|66:140|108:135|129:102,1,297.000009063721,6|2,1:2|1:2,0:0:0:0:
57,51,13727,1,0,1:1:0:0:
57,51,13816,1,2,1:2:0:0:
0,262,14169,6,0,P|36:255|87:255,1,76.5000000000003,6|0,1:2|1:1,0:0:0:0:
169,328,14522,1,10,2:2:0:0:
332,269,14698,2,0,P|268:307|261:386,1,153.000000000001,2|2,1:2|1:2,0:0:0:0:
355,364,15227,1,8,2:2:0:0:
365,174,15404,6,0,B|289:147|296:209|213:178,1,153.000000000001,2|0,1:2|1:1,0:0:0:0:
126,108,15933,1,8,2:2:0:0:
45,240,16110,2,0,P|40:160|28:69,1,153.000000000001,2|2,1:2|1:2,0:0:0:0:
144,18,16639,1,10,2:2:0:0:
144,18,16816,1,2,1:2:0:0:
201,191,16992,6,0,P|206:152|218:100,1,76.5000000000003,2|2,1:2|1:2,0:0:0:0:
109,122,17345,1,8,2:2:0:0:
262,18,17522,2,0,B|299:14|325:36|325:36|378:45|406:19,1,153.000000000001,2|2,1:2|1:2,0:0:0:0:
512,86,18051,1,10,2:2:0:0:
413,198,18227,6,0,P|414:156|426:105,1,76.5000000000003,2|0,1:2|0:0,0:0:0:0:
313,158,18580,2,0,P|319:195|321:233,1,76.5000000000003,2|8,1:2|2:2,0:0:0:0:
401,303,18933,1,2,1:2:0:0:
401,303,19110,1,2,1:2:0:0:
228,183,19286,1,12,2:2:0:0:
138,206,19463,1,8,2:2:0:0:
313,158,19639,1,0,1:1:0:0:
344,150,19727,1,0,1:1:0:0:
376,139,19816,6,0,P|419:136|453:153,1,76.5000000000003,2|0,1:2|1:1,0:0:0:0:
397,221,20169,1,8,2:2:0:0:
397,221,20345,1,2,1:2:0:0:
295,72,20522,2,0,B|213:44|227:107|143:75,1,153.000000000001,2|10,2:2|2:2,0:0:0:0:
1,0,21051,6,0,P|10:41|15:82,1,76.5000000000003,2|0,1:2|0:0,0:0:0:0:
20,195,21404,2,0,P|50:165|84:141,1,76.5000000000003,2|8,1:2|2:2,0:0:0:0:
114,55,21757,1,2,1:2:0:0:
154,205,21933,2,0,P|226:233|297:198,1,153.000000000001,2|10,2:2|2:2,0:0:0:0:
223,139,22463,1,2,1:2:0:0:
383,199,22639,6,0,P|386:156|398:115,1,76.5000000000003,6|2,1:2|1:2,0:0:0:0:
444,47,22992,1,10,2:2:0:0:
295,17,23169,2,0,P|304:54|306:92,1,76.5000000000003,2|0,1:2|0:0,0:0:0:0:
289,216,23522,1,2,1:2:0:0:
289,216,23698,1,8,2:2:0:0:
149,84,23875,6,0,L|205:80,1,38.2500000000001,2|0,1:2|0:0,0:0:0:0:
156,168,24227,6,0,L|212:164,1,38.2500000000001,2|0,1:2|0:0,0:0:0:0:
83,17,24580,6,0,P|62:46|57:68,1,38.2500000000001,10|0,2:2|0:0,0:0:0:0:
9,127,24757,2,0,P|57:149|66:193,1,76.5000000000003,10|0,2:2|1:1,0:0:0:0:
85,280,25110,2,0,P|106:251|111:229,1,38.2500000000001,2|0,1:2|0:0,0:0:0:0:
240,90,25463,6,0,B|291:87|291:87|316:104|316:104|360:101,1,126,4|0,1:2|0:0,0:0:0:0:
454,58,25992,2,0,P|440:128|437:184,1,126,10|2,2:2|1:2,0:0:0:0:
446,272,26522,1,10,2:2:0:0:
306,363,26875,2,0,B|257:375|257:375|194:357,2,94.4999999999999,2|0|10,1:2|1:1|2:2,0:0:0:0:
111,261,27757,1,2,1:2:0:0:
111,261,27933,2,0,P|117:229|120:183,1,62.9999999999999,10|8,2:2|2:2,0:0:0:0:
122,159,28198,1,8,2:2:0:0:
122,159,28286,6,0,P|152:146|195:150,2,62.9999999999999,6|2|2,1:2|2:2|2:2,0:0:0:0:
60,90,28816,2,0,P|30:77|-13:81,2,62.9999999999999,10|2|2,2:2|2:2|1:2,0:0:0:0:
123,25,29345,1,10,2:2:0:0:
303,132,29698,2,0,P|304:101|309:61,2,62.9999999999999,2|2|0,1:2|1:2|1:1,0:0:0:0:
238,233,30227,2,0,P|311:221|360:251,1,126,12|2,2:2|1:2,0:0:0:0:
389,329,30757,1,0,1:1:0:0:
307,384,30933,1,2,1:2:0:0:
307,384,31022,1,0,1:1:0:0:
307,384,31110,6,0,P|264:377|216:374,1,90,4|8,1:2|2:2,0:0:0:0:
120,361,31375,1,8,2:2:0:0:
129,317,31463,1,8,2:2:0:0:
161,286,31551,1,8,2:2:0:0:
204,276,31639,2,0,P|213:251|217:222,1,45,6|0,1:2|1:1,0:0:0:0:
163,54,31816,1,10,2:2:0:0:
196,25,31904,1,8,2:2:0:0:
241,18,31992,1,8,2:2:0:0:
282,35,32080,1,8,2:2:0:0:
308,71,32169,2,0,P|302:123|266:154,1,90,6|2,1:2|1:2,0:0:0:0:
352,215,32433,1,0,1:1:0:0:
352,215,32522,6,0,P|402:203|457:201,1,90,4|10,1:2|2:2,0:0:0:0:
504,269,32786,1,8,2:2:0:0:
498,312,32874,1,8,2:2:0:0:
467,344,32962,1,8,2:2:0:0:
424,353,33051,2,0,P|401:345|379:344,1,45,6|0,1:2|1:1,0:0:0:0:
187,384,33227,1,8,2:2:0:0:
155,352,33315,1,8,2:2:0:0:
150,309,33403,1,10,2:2:0:0:
173,271,33491,1,8,2:2:0:0:
214,255,33580,2,0,P|237:226|224:166,1,90,4|2,1:2|1:2,0:0:0:0:
95,127,33845,1,0,1:1:0:0:
95,127,33933,6,0,B|127:117|142:87|142:87|124:205,1,180,6|0,1:2|1:1,0:0:0:0:
41,368,34463,1,0,1:1:0:0:
31,262,34639,1,2,1:2:0:0:
130,311,34816,1,0,1:1:0:0:
32,384,34992,1,2,1:2:0:0:
24,158,35169,1,2,1:2:0:0:
222,252,35345,5,4,1:2:0:0:
195,39,35522,1,8,2:2:0:0:
189,69,35610,1,8,2:2:0:0:
182,101,35698,1,8,2:2:0:0:
345,155,35875,5,0,1:1:0:0:
116,166,36051,1,8,2:2:0:0:
122,196,36139,1,8,2:2:0:0:
129,228,36227,1,8,2:2:0:0:
282,54,36404,5,0,1:1:0:0:
296,57,36492,1,0,1:1:0:0:
312,59,36580,1,0,1:1:0:0:
328,60,36669,1,0,1:1:0:0:
360,47,36757,5,8,2:2:0:0:
402,60,36845,1,8,2:2:0:0:
435,90,36933,1,8,2:2:0:0:
452,132,37021,1,8,2:2:0:0:
450,176,37109,1,8,2:2:0:0:
429,216,37198,1,8,2:2:0:0:
394,243,37286,2,0,P|379:294|377:349,1,90,4|0,1:2|0:0,0:0:0:0:
345,155,37639,1,0,1:1:0:0:
78,174,38169,6,0,B|130:154|165:190|165:190|226:198|255:150,1,195.75,6|0,1:2|0:0,0:0:0:0:
297,70,38521,2,0,P|335:108|344:165,1,103.5,10|8,2:2|2:2,0:0:0:0:
307,234,38786,1,8,2:2:0:0:
307,234,38874,1,2,1:2:0:0:
423,198,39051,1,0,1:1:0:0:
221,129,39227,1,10,2:2:0:0:
271,345,39404,1,0,0:0:0:0:
111,205,39580,6,0,P|166:207|214:222,1,103.5,2|0,1:2|1:1,0:0:0:0:
78,289,39933,1,10,2:2:0:0:
13,59,40110,1,8,2:2:0:0:
19,80,40198,1,8,2:2:0:0:
26,103,40286,2,0,P|81:101|129:86,1,103.5,0|0,1:1|1:1,0:0:0:0:
257,33,40639,2,0,P|231:81|220:130,1,103.5,10|0,2:2|0:0,0:0:0:0:
399,340,40992,6,0,B|383:286|403:238|403:238|355:210|308:245,1,195.75,2|0,1:2|0:0,0:0:0:0:
307,325,41345,2,0,P|264:318|230:270,1,103.5,10|8,2:2|2:2,0:0:0:0:
242,183,41610,1,8,2:2:0:0:
242,183,41698,1,0,1:1:0:0:
141,266,41874,1,0,1:1:0:0:
182,100,42051,1,10,2:2:0:0:
214,332,42227,1,2,2:2:0:0:
16,188,42404,6,0,P|44:142|109:122,1,103.5,2|0,1:2|1:1,0:0:0:0:
157,250,42757,1,8,2:2:0:0:
310,180,42933,1,8,2:2:0:0:
286,187,43021,2,0,P|255:186|230:181,1,51.75,8|2,2:2|2:2,0:0:0:0:
415,259,43198,1,8,2:2:0:0:
391,252,43286,2,0,P|376:315|374:358,1,103.5,0|10,1:1|2:2,0:0:0:0:
512,96,43639,1,10,2:2:0:0:
482,86,43727,1,8,2:2:0:0:
452,75,43816,6,0,B|407:61|362:101|362:101|332:56|275:62,1,195.75,6|0,1:2|0:0,0:0:0:0:
205,6,44168,2,0,P|185:62|198:109,1,103.5,10|8,2:2|2:2,0:0:0:0:
276,165,44433,1,8,2:2:0:0:
276,165,44521,1,2,1:2:0:0:
144,174,44698,1,0,1:1:0:0:
336,280,44874,1,10,2:2:0:0:
337,56,45051,1,0,0:0:0:0:
223,274,45227,6,0,P|174:303|114:300,1,103.5,2|0,1:2|1:1,0:0:0:0:
135,156,45580,1,10,2:2:0:0:
25,380,45757,1,8,2:2:0:0:
19,358,45845,1,8,2:2:0:0:
13,336,45933,2,0,P|18:276|31:217,1,103.5,0|0,1:1|1:1,0:0:0:0:
223,119,46286,2,0,P|177:156|133:155,1,103.5,10|0,2:2|0:0,0:0:0:0:
384,384,46639,6,0,B|375:345|351:323|351:323|394:179,1,195.75,2|0,1:2|0:0,0:0:0:0:
470,165,46992,2,0,P|441:125|368:118,1,103.5,10|8,2:2|2:2,0:0:0:0:
312,160,47257,1,8,2:2:0:0:
312,160,47345,1,2,1:2:0:0:
223,119,47521,1,0,1:1:0:0:
250,322,47698,6,0,P|245:273|231:203,1,103.5,14|2,2:2|1:2,0:0:0:0:
156,183,47963,1,0,1:1:0:0:
156,183,48051,2,0,P|126:187|104:183,1,51.75,6|0,1:2|1:1,0:0:0:0:
10,75,48227,5,8,2:2:0:0:
34,45,48316,1,8,2:2:0:0:
69,29,48404,1,8,2:2:0:0:
107,29,48492,1,8,2:2:0:0:
142,46,48580,2,0,P|135:80|134:100,1,51.75,0|0,1:1|1:1,0:0:0:0:
235,219,48757,5,10,2:2:0:0:
275,239,48845,1,8,2:2:0:0:
318,239,48933,1,8,2:2:0:0:
359,221,49021,1,8,2:2:0:0:
386,186,49110,2,0,P|392:156|394:127,1,51.75,0|0,1:1|1:1,0:0:0:0:
474,354,49286,5,8,2:2:0:0:
423,342,49374,1,8,2:2:0:0:
372,328,49463,2,0,B|329:310|294:337|294:337|234:352|187:303,1,195.75,6|0,1:2|0:0,0:0:0:0:
148,224,49816,2,0,P|101:275|105:324,1,103.5,10|8,2:2|2:2,0:0:0:0:
152,384,50080,1,8,2:2:0:0:
152,384,50168,1,2,1:2:0:0:
17,342,50345,1,0,1:1:0:0:
237,234,50521,1,10,2:2:0:0:
99,306,50698,1,0,0:0:0:0:
339,384,50874,6,0,P|342:330|354:276,1,103.5,2|0,1:2|1:1,0:0:0:0:
425,170,51227,1,10,2:2:0:0:
188,119,51404,1,8,2:2:0:0:
212,128,51492,1,8,2:2:0:0:
236,136,51580,2,0,P|251:192|231:239,1,103.5,2|0,1:2|1:1,0:0:0:0:
71,240,51933,2,0,P|111:199|162:191,1,103.5,8|0,2:2|0:0,0:0:0:0:
396,341,52286,6,0,B|365:347|353:376|353:376|328:332|327:286|353:245,1,195.75,2|0,1:2|0:0,0:0:0:0:
445,243,52639,2,0,P|431:190|390:158,1,103.5,10|8,2:2|2:2,0:0:0:0:
303,168,52904,1,8,2:2:0:0:
303,168,52992,1,2,1:2:0:0:
389,70,53168,1,0,1:1:0:0:
178,117,53345,1,10,2:2:0:0:
325,285,53521,1,0,0:0:0:0:
266,19,53698,6,0,P|218:22|160:36,1,103.5,2|0,1:2|1:1,0:0:0:0:
90,152,54051,1,10,2:2:0:0:
207,235,54227,1,8,2:2:0:0:
215,215,54316,2,0,P|213:188|204:154,1,51.75,8|2,2:2|2:2,0:0:0:0:
84,332,54492,1,8,2:2:0:0:
76,312,54580,2,0,P|137:316|178:351,1,103.5,0|10,1:1|2:2,0:0:0:0:
381,177,54933,1,10,2:2:0:0:
374,207,55021,1,8,2:2:0:0:
366,239,55110,5,6,1:2:0:0:
403,98,55286,1,0,1:1:0:0:
343,325,55463,2,0,P|405:353|506:273,1,207,8|2,2:2|1:2,0:0:0:0:
502,153,55992,1,0,1:1:0:0:
278,262,56168,2,0,B|237:267|237:267|217:255|217:255|178:259,1,103.5,8|0,2:2|0:0,0:0:0:0:
26,208,56521,5,2,1:2:0:0:
70,333,56698,1,0,1:1:0:0:
125,99,56874,2,0,P|239:107|332:130,1,207,8|2,2:2|1:2,0:0:0:0:
420,218,57404,1,0,1:1:0:0:
193,319,57580,2,0,P|247:321|296:340,1,103.5,8|0,2:2|0:0,0:0:0:0:
447,384,57933,5,6,1:2:0:0:
497,296,58110,1,0,1:1:0:0:
403,119,58286,2,0,P|286:110|197:97,1,207,12|0,2:2|1:1,0:0:0:0:
41,224,58816,1,0,1:1:0:0:
83,106,58992,1,10,2:2:0:0:
120,384,59168,6,0,B|142:356|179:351|179:351|33:326,1,207,6|8,1:2|2:2,0:0:0:0:
141,204,59698,1,8,2:2:0:0:
277,380,59874,1,0,1:1:0:0:
269,337,59963,1,0,1:1:0:0:
260,295,60051,1,12,2:2:0:0:
239,194,60227,1,0,1:1:0:0:
368,363,60404,1,2,1:2:0:0:
409,369,60492,1,0,1:1:0:0:
450,355,60580,1,2,1:2:0:0:
479,325,60668,1,0,1:1:0:0:
491,284,60757,6,0,B|499:239|472:202|472:202|491:164|491:164|467:132|473:86,1,207,14|2,2:2|1:2,0:0:0:0:
303,264,61286,2,0,P|344:280|404:262,1,103.5,8|2,2:2|1:2,0:0:0:0:
352,191,61639,1,0,1:1:0:0:
224,361,61816,2,0,P|219:306|210:249,1,103.5,10|0,2:2|1:1,0:0:0:0:
98,59,62168,5,14,2:2:0:0:
87,149,62345,1,0,1:1:0:0:
75,242,62521,1,2,1:2:0:0:
183,18,62698,5,8,2:2:0:0:
8,95,62874,1,0,1:1:0:0:
165,212,63051,1,0,1:1:0:0:
18,0,63227,5,10,2:2:0:0:
246,185,63404,1,0,1:1:0:0:
285,176,63492,1,0,1:1:0:0:
325,168,63580,6,0,P|391:174|438:188,1,103.5,14|0,2:2|1:1,0:0:0:0:
512,278,63933,1,0,1:1:0:0:
245,295,64110,2,0,P|295:282|346:279,1,103.5,8|0,2:2|1:1,0:0:0:0:
512,186,64463,1,0,1:1:0:0:
287,5,64639,2,0,P|252:48|250:95,1,103.5,10|2,2:2|1:2,0:0:0:0:
110,317,64992,5,14,2:2:0:0:
136,191,65168,1,0,1:1:0:0:
17,235,65345,1,0,1:1:0:0:
235,283,65521,6,0,P|295:279|336:246,1,103.5,12|2,2:2|1:2,0:0:0:0:
251,169,65874,1,0,1:1:0:0:
431,279,66051,5,10,2:2:0:0:
442,28,66227,1,2,1:2:0:0:
432,74,66316,1,0,1:1:0:0:
420,115,66404,6,0,B|374:117|356:76|356:76|296:40|236:77,1,207,14|2,2:2|1:2,0:0:0:0:
146,288,66933,2,0,P|142:235|136:183,1,103.5,8|2,2:2|1:2,0:0:0:0:
112,63,67286,1,0,1:1:0:0:
238,243,67463,2,0,P|297:258|343:235,1,103.5,10|0,2:2|1:1,0:0:0:0:
400,51,67816,5,14,2:2:0:0:
413,138,67992,1,0,1:1:0:0:
426,227,68168,1,2,1:2:0:0:
478,0,68345,5,8,2:2:0:0:
432,248,68521,1,0,1:1:0:0:
315,11,68698,1,0,1:1:0:0:
503,173,68874,5,10,2:2:0:0:
266,279,69051,1,0,1:1:0:0:
275,247,69139,1,0,1:1:0:0:
282,218,69227,6,0,P|279:165|268:102,1,103.5,14|0,2:2|1:1,0:0:0:0:
191,22,69580,1,0,1:1:0:0:
76,246,69757,2,0,P|129:264|187:240,1,103.5,8|0,2:2|1:1,0:0:0:0:
166,123,70110,1,0,1:1:0:0:
365,321,70286,2,0,P|368:268|379:205,1,103.5,10|0,2:2|1:1,0:0:0:0:
290,69,70639,5,2,1:2:0:0:
253,59,70727,1,0,1:1:0:0:
215,66,70816,1,0,1:1:0:0:
184,89,70904,1,0,1:1:0:0:
166,123,70992,2,0,P|173:154|176:180,1,51.75,12|0,2:2|1:1,0:0:0:0:
149,347,71168,5,0,1:1:0:0:
104,359,71257,1,0,1:1:0:0:
59,350,71345,1,0,1:1:0:0:
21,323,71433,1,0,1:1:0:0:
0,282,71521,2,0,P|8:244|12:213,3,51.75,12|0|2|0,2:2|1:1|1:2|1:1,0:0:0:0:
196,264,71874,5,10,2:2:0:0:
247,257,71963,1,8,2:2:0:0:
298,251,72051,2,0,P|397:257|497:278,1,195.75,6|0,1:2|0:0,0:0:0:0:
512,196,72404,2,0,P|462:183|410:173,1,103.5,10|8,2:2|2:2,0:0:0:0:
358,103,72668,1,8,2:2:0:0:
358,103,72757,1,2,1:2:0:0:
476,71,72933,1,0,1:1:0:0:
288,0,73110,1,10,2:2:0:0:
316,215,73286,1,0,0:0:0:0:
107,56,73463,6,0,P|160:43|210:56,1,103.5,2|0,1:2|1:1,0:0:0:0:
219,165,73816,1,10,2:2:0:0:
0,232,73992,1,8,2:2:0:0:
29,239,74080,1,8,2:2:0:0:
62,247,74168,2,0,P|112:281|121:336,1,103.5,2|0,1:2|1:1,0:0:0:0:
291,357,74521,2,0,P|236:383|184:363,1,103.5,10|2,2:2|2:2,0:0:0:0:
359,177,74874,6,0,B|419:133|482:169|482:169|432:170|402:207,1,207,6|10,1:2|2:2,0:0:0:0:
485,280,75404,1,8,2:2:0:0:
478,311,75492,1,8,2:2:0:0:
469,340,75580,2,0,P|417:347|366:352,1,103.5,6|0,1:2|1:1,0:0:0:0:
203,195,75933,1,10,2:2:0:0:
0,320,76110,1,8,2:2:0:0:
32,317,76198,1,8,2:2:0:0:
63,312,76286,6,0,P|67:260|75:209,1,103.5,6|0,1:2|1:1,0:0:0:0:
19,109,76639,1,10,2:2:0:0:
193,82,76816,1,8,2:2:0:0:
166,74,76904,2,0,P|135:75|109:83,1,51.75,8|2,2:2|2:2,0:0:0:0:
301,134,77080,1,8,2:2:0:0:
274,142,77168,1,0,1:1:0:0:
457,4,77345,2,0,P|440:55|435:108,1,103.5,14|10,2:2|2:2,0:0:0:0:
512,182,77610,1,8,2:2:0:0:
512,182,77698,6,0,P|421:212|424:303,1,195.75,6|0,1:2|0:0,0:0:0:0:
435,384,78051,2,0,P|388:382|341:325,1,103.5,10|8,2:2|2:2,0:0:0:0:
320,261,78316,1,8,2:2:0:0:
320,261,78404,1,0,1:1:0:0:
244,358,78580,1,0,1:1:0:0:
279,130,78757,1,10,2:2:0:0:
202,241,78933,1,0,0:0:0:0:
78,44,79110,6,0,P|135:76|147:110,1,103.5,2|0,1:2|1:1,0:0:0:0:
64,256,79463,1,10,2:2:0:0:
44,148,79639,1,8,2:2:0:0:
164,354,79816,1,2,1:2:0:0:
202,241,79992,1,0,1:1:0:0:
202,241,80080,1,0,1:1:0:0:
202,241,80168,1,10,2:2:0:0:
235,222,80257,1,8,2:2:0:0:
273,216,80345,1,8,2:2:0:0:
311,224,80433,1,8,2:2:0:0:
343,245,80521,6,0,P|391:273|496:179,1,207,14|0,2:2|0:0,0:0:0:0:
301,32,81051,2,0,P|313:83|318:138,1,103.5,12|2,2:2|2:2,0:0:0:0:
118,230,81404,1,0,1:1:0:0:
131,145,81580,1,2,1:2:0:0:
150,12,81757,2,0,L|143:72,1,51.75,0|0,1:1|1:1,0:0:0:0:
115,253,81933,5,14,2:2:0:0:
115,253,83345,5,6,1:2:0:0:
266,350,83521,2,0,P|218:346|172:332,1,90,2|8,2:2|2:2,0:0:0:0:
81,350,83874,1,2,2:2:0:0:
299,231,84051,2,0,P|255:243|210:246,1,90,2|0,1:2|0:0,0:0:0:0:
77,159,84404,1,10,2:2:0:0:
279,73,84580,6,0,P|348:87|374:193,1,180,2|2,2:2|2:2,0:0:0:0:
337,315,85110,1,10,2:2:0:0:
147,224,85286,1,2,2:2:0:0:
180,232,85374,1,2,2:2:0:0:
209,240,85463,2,0,P|262:231|300:229,1,90,2|2,1:2|2:2,0:0:0:0:
434,263,85816,2,0,P|393:232|390:187,1,90,10|0,2:2|0:0,0:0:0:0:
439,97,86168,5,2,1:2:0:0:
287,28,86345,2,0,P|250:76|253:125,1,90,2|8,2:2|2:2,0:0:0:0:
387,14,86698,1,2,2:2:0:0:
156,136,86874,2,0,P|192:184|240:193,1,90,2|0,1:2|0:0,0:0:0:0:
340,121,87227,1,10,2:2:0:0:
476,282,87404,6,0,P|387:286|288:305,1,180,2|2,2:2|2:2,0:0:0:0:
187,384,87933,1,10,2:2:0:0:
156,136,88110,1,2,2:2:0:0:
167,168,88198,1,2,2:2:0:0:
176,197,88286,1,6,1:2:0:0:
90,297,88463,1,10,2:2:0:0:
0,134,88639,2,0,P|43:137|74:169,1,90,10|0,2:2|1:1,0:0:0:0:
13,239,88904,1,0,1:1:0:0:
13,239,88992,5,6,1:2:0:0:
196,372,89168,2,0,P|154:375|99:385,1,90,2|8,2:2|2:2,0:0:0:0:
2,331,89521,1,2,2:2:0:0:
271,290,89698,2,0,P|229:287|174:277,1,90,2|0,1:2|0:0,0:0:0:0:
299,182,90051,1,10,2:2:0:0:
458,345,90227,6,0,B|433:349|419:376|419:376|392:336|392:288|428:248,1,180,2|2,2:2|2:2,0:0:0:0:
512,137,90757,1,14,2:2:0:0:
344,89,90933,1,2,1:2:0:0:
376,82,91021,1,2,1:2:0:0:
407,75,91110,6,0,P|401:112|399:152,2,60,10|8|8,2:2|2:2|2:2,0:0:0:0:
320,241,91463,5,10,2:2:0:0:
289,201,91580,5,8,2:2:0:0:
240,190,91698,5,8,2:2:0:0:
191,206,91816,5,10,2:2:0:0:
90,354,91992,2,0,P|207:339|246:269,1,180,6|2,1:2|1:2,0:0:0:0:
325,333,92433,1,0,1:1:0:0:
325,333,92521,2,0,P|369:337|413:347,1,90,10|6,2:2|1:2,0:0:0:0:
499,125,92874,1,10,2:2:0:0:
490,167,92963,1,8,2:2:0:0:
481,208,93051,6,0,B|386:168|406:263|296:211,1,180,6|0,1:2|1:1,0:0:0:0:
193,122,93580,1,8,2:2:0:0:
197,156,93668,1,8,2:2:0:0:
201,185,93757,1,8,2:2:0:0:
288,124,93933,1,0,1:1:0:0:
163,268,94110,1,10,2:2:0:0:
120,281,94198,1,8,2:2:0:0:
76,268,94286,1,10,2:2:0:0:
46,234,94374,1,8,2:2:0:0:
54,211,94463,1,2,1:2:0:0:
61,189,94551,1,0,1:1:0:0:
69,167,94639,6,0,P|68:127|60:84,1,76.5000000000003,6|2,1:2|1:2,0:0:0:0:
145,0,94992,1,10,2:2:0:0:
273,142,95168,2,0,B|247:123|217:127|217:127|194:171|212:217,1,153.000000000001,2|2,1:2|1:2,0:0:0:0:
289,287,95698,1,10,2:2:0:0:
289,287,95874,1,2,1:2:0:0:
118,383,96051,6,0,P|121:340|131:299,1,76.5000000000003,2|0,2:2|1:1,0:0:0:0:
217,357,96404,1,8,2:2:0:0:
39,254,96580,2,0,B|48:225|68:211|68:211|38:93,1,153.000000000001,2|2,1:2|1:2,0:0:0:0:
123,17,97110,1,10,2:2:0:0:
123,17,97286,1,2,1:2:0:0:
249,133,97463,6,0,P|211:123|159:144,1,76.5000000000003,2|2,1:2|1:2,0:0:0:0:
211,229,97816,1,10,2:2:0:0:
353,134,97992,2,0,P|351:92|342:41,1,76.5000000000003,2|0,1:2|0:0,0:0:0:0:
456,2,98345,2,0,P|450:39|448:78,1,76.5000000000003,2|8,1:2|2:2,0:0:0:0:
496,235,98698,6,0,P|452:216|416:222,1,76.5000000000003,2|0,1:2|0:0,0:0:0:0:
390,367,99051,2,0,P|428:338|441:304,1,76.5000000000003,2|8,1:2|2:2,0:0:0:0:
286,194,99404,2,0,P|299:278|303:353,1,153.000000000001,2|8,1:2|2:2,0:0:0:0:
387,246,99933,1,8,2:2:0:0:
387,246,100110,1,2,1:2:0:0:
164,225,100286,6,0,P|123:234|94:265,1,76.5000000000003,2|0,1:2|1:1,0:0:0:0:
174,319,100639,1,8,2:2:0:0:
174,319,100816,1,2,1:2:0:0:
243,183,100992,2,0,P|236:136|229:23,1,153.000000000001,2|8,2:2|2:2,0:0:0:0:
43,44,101521,6,0,P|111:69|132:162,1,153.000000000001,2|2,1:2|1:2,0:0:0:0:
35,146,102051,1,10,2:2:0:0:
35,146,102227,1,2,1:2:0:0:
215,48,102404,2,0,B|251:53|276:38|276:38|303:57|303:57|326:39|358:43,1,153.000000000001,2|10,2:2|2:2,0:0:0:0:
461,125,102933,1,2,1:2:0:0:
257,182,103110,6,0,L|262:137,1,38.2500000000001,6|0,1:2|0:0,0:0:0:0:
257,182,104345,6,0,L|262:137,1,38.2500000000001,10|0,2:2|0:0,0:0:0:0:
175,171,104698,6,0,L|180:126,1,38.2500000000001,10|0,2:2|0:0,0:0:0:0:
92,163,105051,1,2,1:2:0:0:
96,130,105139,1,0,1:1:0:0:
101,101,105227,2,0,P|48:96|18:129,1,76.5000000000003,14|0,2:2|1:1,0:0:0:0:
10,201,105492,1,0,1:1:0:0:
10,201,105580,2,0,L|2:248,3,38.2500000000001,2|0|0|0,1:2|1:1|1:1|1:1,0:0:0:0:
19,281,105933,6,0,B|47:266|75:275|75:275|89:307|128:310,1,126,4|0,1:2|1:1,0:0:0:0:
216,289,106463,2,0,P|252:304|270:333,1,62.9999980773926,2|0,2:2|1:1,0:0:0:0:
389,384,106816,1,10,2:2:0:0:
375,371,106904,1,8,2:2:0:0:
364,355,106992,1,10,2:2:0:0:
357,338,107080,1,8,2:2:0:0:
352,321,107168,1,10,2:2:0:0:
352,302,107257,1,8,2:2:0:0:
354,283,107345,6,0,P|371:219|378:148,1,126,2|0,1:2|1:1,0:0:0:0:
389,64,107874,2,0,P|360:80|330:80,1,62.9999999999999,14|0,2:2|1:1,0:0:0:0:
246,36,108227,1,2,1:2:0:0:
113,172,108580,1,2,1:2:0:0:
209,129,108757,6,0,P|216:199|189:245,1,126,2|2,1:2|1:2,0:0:0:0:
119,328,109286,1,2,2:2:0:0:
119,328,109463,2,0,P|173:331|252:349,1,126,2|2,1:2|1:2,0:0:0:0:
319,172,110168,5,2,1:2:0:0:
409,230,110345,2,0,B|430:188|430:188|410:158|409:112,1,126,10|10,2:2|2:2,0:0:0:0:
468,22,110874,1,10,2:2:0:0:
310,26,111051,1,10,2:2:0:0:
340,30,111139,1,8,2:2:0:0:
373,35,111227,1,2,1:2:0:0:
284,128,111404,1,10,2:2:0:0:
239,132,111492,1,8,2:2:0:0:
195,137,111580,6,0,B|165:145|150:174|150:174|147:227|178:258,1,153.000000000001,4|0,1:2|1:1,0:0:0:0:
381,214,112110,2,0,P|337:214|305:236,1,76.5000000000003,14|2,2:2|1:2,0:0:0:0:
371,306,112463,1,0,1:1:0:0:
503,153,112639,1,14,2:2:0:0:
509,115,112727,1,8,2:2:0:0:
500,78,112815,1,10,2:2:0:0:
477,48,112903,1,8,2:2:0:0:
443,31,112992,6,0,B|410:23|387:43|387:43|337:57|302:17,1,153.000000000001,4|0,1:2|1:1,0:0:0:0:
267,192,113521,2,0,P|275:153|278:110,1,76.5000000000003,14|0,2:2|1:1,0:0:0:0:
38,11,113874,1,2,1:2:0:0:
122,29,114051,1,4,1:2:0:0:
207,47,114227,1,2,1:2:0:0:
13,173,114404,6,0,P|28:127|70:101,1,90,14|0,2:2|1:1,0:0:0:0:
237,305,114757,1,8,2:2:0:0:
129,275,114933,1,0,1:1:0:0:
293,237,115110,5,10,2:2:0:0:
162,130,115286,1,0,1:1:0:0:
377,225,115463,5,10,2:2:0:0:
312,12,115639,1,2,1:2:0:0:
237,305,115816,5,8,2:2:0:0:
229,337,115904,1,0,1:1:0:0:
208,364,115992,1,0,1:1:0:0:
179,380,116080,1,0,1:1:0:0:
145,383,116168,2,0,P|144:358|136:326,1,45,12|0,2:2|1:1,0:0:0:0:
22,162,116345,5,0,1:1:0:0:
11,205,116433,1,0,1:1:0:0:
1,249,116521,1,8,2:2:0:0:
50,40,116698,1,0,1:1:0:0:
373,123,117227,6,0,B|317:121|291:168|291:168|261:126|197:135,1,195.75,6|0,1:2|0:0,0:0:0:0:
149,206,117580,2,0,P|114:165|116:114,1,103.5,10|8,2:2|2:2,0:0:0:0:
179,44,117845,1,8,2:2:0:0:
179,44,117933,1,2,1:2:0:0:
73,14,118110,1,0,1:1:0:0:
283,74,118286,1,10,2:2:0:0:
100,110,118463,1,0,0:0:0:0:
269,284,118639,6,0,P|267:229|251:181,1,103.5,2|0,1:2|1:1,0:0:0:0:
386,109,118992,1,10,2:2:0:0:
484,361,119168,1,8,2:2:0:0:
463,355,119257,1,8,2:2:0:0:
440,348,119345,2,0,P|442:293|457:245,1,103.5,0|0,1:1|1:1,0:0:0:0:
368,95,119698,2,0,P|382:144|384:196,1,103.5,10|0,2:2|0:0,0:0:0:0:
217,357,120051,6,0,B|175:344|140:366|140:366|105:336|105:336|73:355|33:345,1,195.75,2|0,1:2|0:0,0:0:0:0:
61,254,120404,2,0,P|101:238|155:263,1,103.5,10|8,2:2|2:2,0:0:0:0:
250,272,120668,1,8,2:2:0:0:
250,272,120757,1,2,1:2:0:0:
197,167,120933,1,0,1:1:0:0:
364,276,121110,1,10,2:2:0:0:
190,365,121286,1,2,2:2:0:0:
338,147,121463,6,0,P|390:134|450:166,1,103.5,2|0,1:2|1:1,0:0:0:0:
512,263,121816,1,8,2:2:0:0:
371,298,121992,1,8,2:2:0:0:
378,322,122080,2,0,P|369:356|370:375,1,51.75,8|2,2:2|2:2,0:0:0:0:
248,206,122257,1,8,2:2:0:0:
241,230,122345,2,0,P|178:237|136:248,1,103.5,0|10,1:1|2:2,0:0:0:0:
0,96,122698,1,10,2:2:0:0:
30,86,122786,1,8,2:2:0:0:
60,75,122874,6,0,B|97:62|129:89|129:89|200:108|250:48,1,195.75,6|0,1:2|0:0,0:0:0:0:
318,0,123227,2,0,P|338:56|325:103,1,103.5,10|8,2:2|2:2,0:0:0:0:
260,168,123492,1,8,2:2:0:0:
260,168,123580,1,2,1:2:0:0:
395,198,123757,1,0,1:1:0:0:
131,250,123933,1,10,2:2:0:0:
283,301,124110,1,0,0:0:0:0:
124,80,124286,6,0,P|72:86|4:102,1,103.5,2|0,1:2|1:1,0:0:0:0:
26,220,124639,1,10,2:2:0:0:
260,168,124816,1,8,2:2:0:0:
266,146,124904,1,8,2:2:0:0:
272,124,124992,2,0,P|267:64|254:5,1,103.5,0|0,1:1|1:1,0:0:0:0:
430,110,125345,2,0,P|377:122|354:176,1,103.5,10|0,2:2|0:0,0:0:0:0:
462,384,125698,6,0,B|478:361|510:354|510:354|363:335,1,195.75,2|0,1:2|0:0,0:0:0:0:
285,353,126051,2,0,P|282:303|334:252,1,103.5,10|8,2:2|2:2,0:0:0:0:
405,251,126316,1,8,2:2:0:0:
405,251,126404,1,2,1:2:0:0:
340,165,126580,1,0,1:1:0:0:
180,348,126757,6,0,P|131:353|61:367,1,103.5,14|2,2:2|1:2,0:0:0:0:
3,323,127021,1,0,1:1:0:0:
3,323,127110,2,0,P|4:293|11:267,1,51.75,6|0,1:2|1:1,0:0:0:0:
70,147,127286,5,8,2:2:0:0:
107,139,127374,1,8,2:2:0:0:
144,149,127463,1,8,2:2:0:0:
173,174,127551,1,8,2:2:0:0:
189,209,127639,2,0,P|216:216|241:216,1,51.75,0|0,1:1|1:1,0:0:0:0:
335,332,127816,5,10,2:2:0:0:
380,330,127904,1,8,2:2:0:0:
417,308,127992,1,8,2:2:0:0:
444,272,128080,1,8,2:2:0:0:
450,228,128168,2,0,P|448:199|440:169,1,51.75,0|0,1:1|1:1,0:0:0:0:
210,47,128345,5,8,2:2:0:0:
260,35,128433,1,8,2:2:0:0:
311,22,128521,2,0,B|354:4|388:27|388:27|395:92|355:145,1,195.75,6|0,1:2|0:0,0:0:0:0:
354,235,128874,2,0,P|306:224|265:179,1,103.5,10|8,2:2|2:2,0:0:0:0:
190,140,129139,1,8,2:2:0:0:
190,140,129227,1,2,1:2:0:0:
120,40,129404,1,0,1:1:0:0:
0,242,129580,1,10,2:2:0:0:
80,152,129757,1,0,0:0:0:0:
229,384,129933,6,0,P|175:381|121:369,1,103.5,2|0,1:2|1:1,0:0:0:0:
168,239,130286,1,10,2:2:0:0:
379,373,130463,1,8,2:2:0:0:
403,365,130551,1,8,2:2:0:0:
427,356,130639,2,0,P|446:301|430:252,1,103.5,2|0,1:2|1:1,0:0:0:0:
273,244,130992,2,0,P|309:288|359:300,1,103.5,8|0,2:2|0:0,0:0:0:0:
440,24,131345,6,0,B|458:47|490:52|490:52|442:80|403:78|360:50,1,195.75,2|0,1:2|0:0,0:0:0:0:
264,49,131698,2,0,P|278:102|319:134,1,103.5,10|8,2:2|2:2,0:0:0:0:
403,161,131963,1,8,2:2:0:0:
403,161,132051,1,2,1:2:0:0:
486,272,132227,1,0,1:1:0:0:
432,45,132404,1,10,2:2:0:0:
271,203,132580,1,0,0:0:0:0:
62,0,132757,6,0,P|74:50|77:101,1,103.5,2|0,1:2|1:1,0:0:0:0:
11,223,133110,1,10,2:2:0:0:
164,215,133286,1,8,2:2:0:0:
144,207,133374,2,0,P|145:176|154:147,1,51.75,8|2,2:2|2:2,0:0:0:0:
228,323,133551,1,8,2:2:0:0:
208,331,133639,2,0,P|149:340|92:335,1,103.5,0|10,1:1|2:2,0:0:0:0:
67,74,133992,1,10,2:2:0:0:
60,104,134080,1,8,2:2:0:0:
52,136,134168,5,6,1:2:0:0:
162,52,134345,1,0,1:1:0:0:
339,190,134521,2,0,B|221:143|258:258|122:198,1,207,8|2,2:2|1:2,0:0:0:0:
36,255,135051,1,0,1:1:0:0:
230,357,135227,2,0,B|271:352|271:352|291:364|291:364|330:360,1,103.5,8|0,2:2|0:0,0:0:0:0:
426,265,135580,5,2,1:2:0:0:
484,384,135757,1,0,1:1:0:0:
512,133,135933,2,0,B|480:151|440:142|440:142|416:106|370:92|322:106,1,207,8|2,2:2|1:2,0:0:0:0:
209,124,136463,1,0,1:1:0:0:
0,254,136639,2,0,P|51:249|101:236,1,103.5,8|0,2:2|0:0,0:0:0:0:
197,105,136992,5,6,1:2:0:0:
270,193,137168,1,0,1:1:0:0:
165,384,137345,2,0,P|277:366|370:361,1,207,12|0,2:2|1:1,0:0:0:0:
463,204,137874,1,0,1:1:0:0:
512,313,138051,1,10,2:2:0:0:
256,211,138227,6,0,B|283:234|285:268|285:268|324:239|332:189|315:139,1,207,6|8,1:2|2:2,0:0:0:0:
197,38,138757,1,8,2:2:0:0:
34,158,138933,1,0,1:1:0:0:
77,150,139021,1,0,1:1:0:0:
119,141,139110,1,12,2:2:0:0:
19,58,139286,1,0,1:1:0:0:
182,297,139463,1,2,1:2:0:0:
223,303,139551,1,0,1:1:0:0:
264,289,139639,1,0,1:1:0:0:
293,259,139727,1,0,1:1:0:0:
305,215,139816,6,0,B|317:164|285:109|285:109|329:71|372:93,1,207,14|2,2:2|1:2,0:0:0:0:
493,327,140345,2,0,P|451:341|392:325,1,103.5,8|2,2:2|1:2,0:0:0:0:
443,247,140698,1,0,1:1:0:0:
230,384,140874,2,0,P|225:329|216:272,1,103.5,10|0,2:2|1:1,0:0:0:0:
87,113,141227,5,14,2:2:0:0:
187,70,141404,1,0,1:1:0:0:
287,125,141580,1,2,1:2:0:0:
97,0,141757,5,8,2:2:0:0:
180,181,141933,1,0,1:1:0:0:
286,4,142110,1,0,1:1:0:0:
1,54,142286,5,10,2:2:0:0:
165,280,142463,1,0,1:1:0:0:
204,271,142551,1,0,1:1:0:0:
244,263,142639,6,0,P|310:269|357:283,1,103.5,14|0,2:2|1:1,0:0:0:0:
451,195,142992,1,0,1:1:0:0:
207,67,143168,2,0,P|220:117|223:168,1,103.5,8|0,2:2|1:1,0:0:0:0:
128,288,143521,1,0,1:1:0:0:
14,80,143698,2,0,P|64:75|108:101,1,103.5,10|2,2:2|1:2,0:0:0:0:
27,329,144051,5,14,2:2:0:0:
40,215,144227,1,0,1:1:0:0:
128,288,144404,1,0,1:1:0:0:
280,109,144580,6,0,P|220:113|181:152,1,103.5,12|2,2:2|1:2,0:0:0:0:
261,204,144933,1,0,1:1:0:0:
376,82,145110,5,10,2:2:0:0:
488,286,145286,1,2,1:2:0:0:
478,332,145374,1,0,1:1:0:0:
466,373,145463,6,0,B|423:371|394:334|394:334|263:353,1,207,14|2,2:2|1:2,0:0:0:0:
25,297,145992,2,0,P|78:297|130:287,1,103.5,8|2,2:2|1:2,0:0:0:0:
261,204,146345,1,0,1:1:0:0:
75,65,146521,2,0,P|32:108|29:159,1,103.5,10|0,2:2|1:1,0:0:0:0:
285,15,146874,5,14,2:2:0:0:
274,110,147051,1,0,1:1:0:0:
261,204,147227,1,2,1:2:0:0:
360,339,147404,5,8,2:2:0:0:
274,110,147580,1,0,1:1:0:0:
142,310,147757,1,0,1:1:0:0:
369,75,147933,5,10,2:2:0:0:
163,222,148110,1,0,1:1:0:0:
131,213,148198,1,0,1:1:0:0:
102,206,148286,6,0,P|49:209|-14:220,1,103.5,14|0,2:2|1:1,0:0:0:0:
28,337,148639,1,0,1:1:0:0:
162,119,148816,2,0,P|215:122|278:133,1,103.5,8|0,2:2|1:1,0:0:0:0:
324,244,149168,1,0,1:1:0:0:
463,5,149345,2,0,P|427:32|416:92,1,103.5,10|0,2:2|1:1,0:0:0:0:
512,239,149698,5,2,1:2:0:0:
481,263,149786,1,0,1:1:0:0:
445,273,149874,1,0,1:1:0:0:
406,264,149963,1,0,1:1:0:0:
376,241,150051,2,0,P|352:240|311:249,1,51.75,12|0,2:2|1:1,0:0:0:0:
171,130,150227,5,0,1:1:0:0:
194,89,150316,1,0,1:1:0:0:
232,63,150404,1,0,1:1:0:0:
277,56,150492,1,0,1:1:0:0:
321,69,150580,2,0,P|326:98|329:131,3,51.75,12|0|2|0,2:2|1:1|1:2|1:1,0:0:0:0:
305,323,150933,5,10,2:2:0:0:
254,314,151021,1,8,2:2:0:0:
201,304,151110,2,0,B|153:294|129:246|129:246|100:295|40:298,1,195.75,6|0,1:2|0:0,0:0:0:0:
41,197,151463,2,0,P|39:145|31:89,1,103.5,10|8,2:2|2:2,0:0:0:0:
112,44,151727,1,8,2:2:0:0:
112,44,151816,1,2,1:2:0:0:
201,179,151992,1,0,1:1:0:0:
58,181,152168,1,10,2:2:0:0:
267,42,152345,1,0,0:0:0:0:
307,323,152521,6,0,P|296:276|294:220,1,103.5,2|0,1:2|1:1,0:0:0:0:
426,119,152874,1,10,2:2:0:0:
186,117,153051,1,8,2:2:0:0:
193,146,153139,1,8,2:2:0:0:
201,179,153227,2,0,P|182:240|177:291,1,103.5,2|0,1:2|1:1,0:0:0:0:
19,219,153580,2,0,P|61:175|117:176,1,103.5,10|0,2:2|0:0,0:0:0:0:
347,333,153933,6,0,B|315:345|304:380|304:380|295:235,1,207,6|10,1:2|2:2,0:0:0:0:
423,46,154463,1,8,2:2:0:0:
391,53,154551,1,8,2:2:0:0:
358,60,154639,2,0,P|306:52|255:47,1,103.5,6|0,1:2|1:1,0:0:0:0:
139,65,154992,1,10,2:2:0:0:
358,231,155168,1,8,2:2:0:0:
352,199,155257,1,8,2:2:0:0:
344,168,155345,6,0,P|300:172|259:215,1,103.5,6|0,1:2|1:1,0:0:0:0:
226,357,155698,1,10,2:2:0:0:
96,266,155874,1,8,2:2:0:0:
88,293,155963,2,0,P|81:329|81:352,1,51.75,8|2,2:2|2:2,0:0:0:0:
159,170,156139,1,8,2:2:0:0:
167,197,156227,1,0,1:1:0:0:
0,87,156404,2,0,P|51:104|99:82,1,103.5,14|10,2:2|2:2,0:0:0:0:
160,30,156668,1,8,2:2:0:0:
160,30,156757,6,0,B|206:22|240:62|240:62|301:82|336:45,1,195.75,6|0,1:2|0:0,0:0:0:0:
425,11,157110,2,0,P|426:76|400:112,1,103.5,10|8,2:2|2:2,0:0:0:0:
329,159,157374,1,8,2:2:0:0:
329,159,157463,1,0,1:1:0:0:
431,226,157639,1,0,1:1:0:0:
337,44,157816,1,10,2:2:0:0:
222,216,157992,1,0,0:0:0:0:
25,28,158168,6,0,P|86:32|128:45,1,103.5,2|0,1:2|1:1,0:0:0:0:
234,112,158521,1,10,2:2:0:0:
54,215,158698,1,8,2:2:0:0:
47,184,158786,1,8,2:2:0:0:
41,152,158874,1,2,1:2:0:0:
151,355,159051,1,0,1:1:0:0:
151,355,159139,1,0,1:1:0:0:
151,355,159227,1,10,2:2:0:0:
184,374,159316,1,8,2:2:0:0:
222,380,159404,1,8,2:2:0:0:
260,372,159492,1,8,2:2:0:0:
292,350,159580,6,0,B|324:317|365:321|365:321|420:378|491:343,1,207,14|0,2:2|0:0,0:0:0:0:
433,103,160110,2,0,P|445:154|450:209,1,103.5,12|2,2:2|2:2,0:0:0:0:
138,206,160463,1,0,1:1:0:0:
222,217,160639,1,2,1:2:0:0:
357,235,160816,2,0,L|297:228,1,51.75,0|0,1:1|1:1,0:0:0:0:
114,202,160992,5,14,2:2:0:0:
216,41,161345,2,0,P|248:52|272:76,2,69,2|0|0,1:2|1:1|1:1,0:0:0:0:
6,22,161698,5,10,2:2:0:0:
15,62,161816,5,8,2:2:0:0:
27,101,161933,5,8,2:2:0:0:
52,142,162051,5,10,2:2:0:0:
38,192,162168,5,8,2:2:0:0:
23,243,162286,5,8,2:2:0:0:
39,293,162404,6,0,L|97:288,1,51.75,6|0,1:2|0:0,0:0:0:0:
184,192,162668,2,0,L|159:244,1,51.75,6|0,1:2|0:0,0:0:0:0:
199,373,162933,2,0,L|165:325,1,51.75,6|0,1:2|0:0,0:0:0:0:
245,277,163110,5,8,2:2:0:0:
282,270,163198,1,8,2:2:0:0:
314,248,163286,1,8,2:2:0:0:
334,215,163374,1,8,2:2:0:0:
338,177,163463,6,0,L|283:187,1,51.75,6|0,1:2|0:0,0:0:0:0:
479,124,163727,2,0,L|515:81,1,51.75,6|0,1:2|0:0,0:0:0:0:
460,275,163992,2,0,L|478:327,1,51.75,6|0,1:2|0:0,0:0:0:0:
402,384,164168,5,8,2:2:0:0:
365,371,164257,1,8,2:2:0:0:
327,362,164345,1,8,2:2:0:0:
289,356,164433,1,8,2:2:0:0:
250,355,164521,2,0,P|188:349|155:291,1,103.5,8|0,2:2|1:1,0:0:0:0:
224,157,164874,1,8,2:2:0:0:
218,189,164963,1,8,2:2:0:0:
212,220,165051,1,0,1:1:0:0:
404,48,165227,6,0,L|350:80,1,51.75,6|0,1:2|0:0,0:0:0:0:
225,48,165492,2,0,L|279:78,1,51.75,6|0,1:2|0:0,0:0:0:0:
315,207,165757,2,0,L|313:144,1,51.75,6|0,1:2|0:0,0:0:0:0:
315,0,165933,5,0,1:1:0:0:
139,165,166110,1,8,2:2:0:0:
107,158,166198,1,8,2:2:0:0:
77,153,166286,6,0,L|26:160,1,51.75,6|0,1:2|0:0,0:0:0:0:
185,241,166551,2,0,L|216:281,1,51.75,6|0,1:2|0:0,0:0:0:0:
205,95,166816,2,0,L|224:47,1,51.75,6|0,1:2|0:0,0:0:0:0:
224,47,167521,6,0,B|263:45|263:45|280:59|280:59|323:57,1,90,2|0,0:0|0:0,0:0:0:0:
392,50,168051,5,2,1:2:0:0:
424,325,168227,1,2,1:2:0:0:
395,73,168580,5,2,1:2:0:0:
421,305,168757,1,2,1:2:0:0:
187,109,169110,5,2,1:2:0:0:
344,193,169286,1,2,1:2:0:0:
210,121,169639,5,2,1:2:0:0:
325,182,169816,1,2,1:2:0:0:
146,294,170080,5,0,1:1:0:0:
157,307,170168,2,0,P|104:297|58:297,1,90,10|2,2:2|1:2,0:0:0:0:
0,203,170521,1,10,2:2:0:0:
164,26,170698,6,0,P|184:125|187:203,1,180,6|2,1:2|1:2,0:0:0:0:
304,384,171227,2,0,P|324:338|376:318,1,90,14|0,2:2|0:0,0:0:0:0:
301,219,171580,1,2,1:2:0:0:
412,211,171757,1,2,2:2:0:0:
475,307,171933,1,2,2:2:0:0:
359,111,172110,6,0,P|311:99|269:112,1,90,10|0,2:2|0:0,0:0:0:0:
137,265,172463,1,0,1:1:0:0:
131,234,172551,1,0,1:1:0:0:
124,203,172639,2,0,P|131:152|142:113,1,90,14|2,2:2|1:2,0:0:0:0:
203,46,172904,1,0,1:0:0:0:
203,46,172992,1,0,1:1:0:0:
229,151,173168,1,2,1:2:0:0:
103,9,173345,1,2,1:2:0:0:
311,78,173521,1,0,1:1:0:0:
29,75,173698,5,4,1:2:0:0:
72,254,174051,1,0,1:1:0:0:
72,254,174227,2,0,B|142:237|130:291|208:260,1,126,2|2,2:2|2:2,0:0:0:0:
233,248,174757,1,2,1:2:0:0:
361,384,175110,6,0,P|367:318|380:245,1,126,2|2,1:2|1:2,0:0:0:0:
404,226,175639,2,0,P|398:160|385:87,1,126,2|2,2:2|2:2,0:0:0:0:
365,66,176168,1,2,1:2:0:0:
189,123,176521,6,0,P|180:156|188:186,2,62.9999999999999,2|2|2,1:2|2:2|1:2,0:0:0:0:
159,85,177051,1,2,2:2:0:0:
159,85,177227,2,0,P|122:87|95:93,2,62.9999999999999,2|2|2,1:2|2:2|1:2,0:0:0:0:
321,3,177933,5,2,1:2:0:0:
321,3,178110,2,0,B|327:33|346:50|346:50|320:132,1,126,2|0,2:2|0:0,0:0:0:0:
309,162,178639,1,2,1:2:0:0:
309,162,178816,1,2,2:2:0:0:
512,203,179168,1,2,2:2:0:0:
476,276,179345,6,0,P|412:271|377:327,1,126,0|0,1:1|1:1,0:0:0:0:
349,353,179874,1,2,2:2:0:0:
349,353,180051,2,0,P|287:341|221:336,1,126,2|2,1:2|1:2,0:0:0:0:
146,384,180580,6,0,P|144:352|136:311,1,62.9999999999999,2|0,2:2|1:1,0:0:0:0:
126,281,180933,1,2,2:2:0:0:
154,86,181286,2,0,P|212:89|282:101,1,126,2|2,2:2|2:2,0:0:0:0:
321,113,181816,1,2,1:2:0:0:
435,311,182168,6,0,B|442:296|467:288|467:288|371:279,1,126,0|0,1:1|1:1,0:0:0:0:
341,276,182698,1,2,2:2:0:0:
182,360,183051,1,2,2:2:0:0:
183,143,183404,1,2,2:2:0:0:
271,124,183580,6,0,P|258:187|253:260,1,126,0|0,1:1|1:1,0:0:0:0:
219,271,184110,2,0,P|186:269|161:251,1,62.9999999999999,0|0,1:1|1:1,0:0:0:0:
143,212,184463,1,0,1:1:0:0:
102,129,184639,1,0,1:1:0:0:
53,212,184816,1,0,1:1:0:0:
53,212,184904,1,0,1:1:0:0:
53,212,184992,6,0,P|65:298|67:367,1,153.000000000001,4|0,1:2|1:1,0:0:0:0:
207,293,185521,2,0,P|270:253|346:276,1,153.000000000001,2|2,2:2|2:2,0:0:0:0:
285,346,186051,1,2,1:2:0:0:
376,370,186227,1,2,2:2:0:0:
353,178,186404,6,0,B|348:122|348:122|372:92|372:92|365:28,1,153.000000000001,2|2,1:2|1:2,0:0:0:0:
208,71,186933,2,0,P|261:62|319:64,1,76.5000000000003,2|0,2:2|1:1,0:0:0:0:
140,154,187286,2,0,P|178:156|215:162,1,76.5000000000003,2|2,2:2|1:2,0:0:0:0:
110,63,187639,1,2,2:2:0:0:
26,269,187816,6,0,P|22:226|-2:167,1,76.5000000000003,2|2,1:2|2:2,0:0:0:0:
112,362,188168,2,0,P|116:319|140:260,1,76.5000000000003,2|2,1:2|2:2,0:0:0:0:
346,309,188521,2,0,P|305:337|263:333,1,76.5000000000003,2|2,1:2|2:2,0:0:0:0:
219,199,188874,2,0,P|263:220|281:258,1,76.5000000000003,2|2,1:2|2:2,0:0:0:0:
443,323,189227,6,0,P|433:280|428:243,1,76.5000000000003,2|2,1:2|2:2,0:0:0:0:
336,129,189580,2,0,B|374:141|374:141|420:126,2,76.5000000000003,2|2|2,1:2|2:2|1:2,0:0:0:0:
245,100,190110,1,2,2:2:0:0:
309,28,190286,1,2,1:2:0:0:
399,57,190463,1,2,2:2:0:0:
122,40,190639,6,0,B|156:31|172:4|172:4|151:133,1,180,4|0,1:2|1:1,0:0:0:0:
135,213,191168,1,2,1:2:0:0:
34,143,191345,2,0,P|43:196|44:232,1,90,2|0,1:2|1:1,0:0:0:0:
98,384,191698,2,0,P|100:339|108:294,1,90,2|2,1:2|1:2,0:0:0:0:
223,207,192051,5,8,2:2:0:0:
230,295,192227,1,10,2:2:0:0:
303,178,192404,1,8,2:2:0:0:
314,311,192580,1,10,2:2:0:0:
385,152,192757,1,8,2:2:0:0:
401,328,192933,1,10,2:2:0:0:
146,258,193110,1,8,2:2:0:0:
429,239,193286,1,10,2:2:0:0:
471,232,193374,1,8,2:2:0:0:
512,224,193463,6,0,P|505:132|490:43,1,180,6|0,1:2|0:0,0:0:0:0:
312,0,193992,2,0,P|297:88|290:178,1,180,4|0,1:2|0:0,0:0:0:0:
164,309,194521,1,6,1:2:0:0:
197,217,194698,1,2,2:2:0:0:
435,296,194874,6,0,B|344:256|354:330|260:296,1,180,4|0,1:2|0:0,0:0:0:0:
148,135,195404,2,0,B|239:95|229:169|323:135,1,180,4|0,1:2|0:0,0:0:0:0:
442,4,195933,1,6,1:2:0:0:
431,209,196110,5,2,1:2:0:0:
426,180,196198,1,0,1:1:0:0:
421,148,196286,2,0,P|423:120|427:103,1,45,6|0,1:2|1:1,0:0:0:0:
510,272,196463,5,8,2:2:0:0:
484,294,196551,1,8,2:2:0:0:
453,306,196639,1,8,2:2:0:0:
419,306,196727,1,8,2:2:0:0:
387,295,196816,2,0,P|361:298|344:303,1,45,4|0,1:2|1:1,0:0:0:0:
146,171,196992,5,8,2:2:0:0:
181,143,197080,1,8,2:2:0:0:
225,141,197168,1,8,2:2:0:0:
262,165,197256,1,8,2:2:0:0:
278,207,197345,2,0,P|272:228|270:251,1,45,6|0,1:2|1:1,0:0:0:0:
54,359,197521,5,0,1:1:0:0:
48,329,197610,1,0,1:1:0:0:
41,298,197698,2,0,P|42:275|49:246,1,45,6|0,1:2|1:1,0:0:0:0:
20,82,197874,5,8,2:2:0:0:
20,82,197963,1,8,2:2:0:0:
20,82,198051,1,8,2:2:0:0:
57,67,198139,1,8,2:2:0:0:
99,62,198227,1,12,2:2:0:0:
140,67,198316,1,8,2:2:0:0:
176,88,198404,1,8,2:2:0:0:
212,108,198492,1,8,2:2:0:0:
254,115,198580,1,8,2:2:0:0:
294,110,198668,1,8,2:2:0:0:
334,96,198757,2,0,P|328:66|326:19,3,45,4|0|0|0,1:2|1:1|1:1|1:1,0:0:0:0:
357,295,199110,5,8,2:2:0:0:
324,332,199198,1,8,2:2:0:0:
280,352,199286,1,8,2:2:0:0:
231,351,199374,1,8,2:2:0:0:
186,330,199462,1,8,2:2:0:0:
155,292,199551,1,8,2:2:0:0:
142,244,199639,2,0,P|210:227|250:227,1,90,4|0,1:2|0:0,0:0:0:0:
477,331,199992,1,0,1:1:0:0:
76,76,203203,5,8,2:2:0:0:
76,76,203273,1,8,2:2:0:0:
76,76,203344,6,0,B|119:106|110:165|110:165|145:119|200:132,1,195.75,6|0,1:2|0:0,0:0:0:0:
231,46,203697,2,0,P|273:73|284:122,1,103.5,10|8,2:2|2:2,0:0:0:0:
250,214,203962,1,8,2:2:0:0:
250,214,204050,1,0,1:1:0:0:
371,146,204226,1,0,1:1:0:0:
272,345,204403,1,10,2:2:0:0:
130,155,204579,1,2,2:2:0:0:
386,285,204756,6,0,P|445:289|495:301,1,103.5,2|0,1:2|1:1,0:0:0:0:
358,378,205109,1,8,2:2:0:0:
276,221,205285,1,8,2:2:0:0:
286,247,205373,2,0,P|290:220|303:190,1,51.75,8|2,2:2|2:2,0:0:0:0:
183,329,205550,1,8,2:2:0:0:
190,305,205638,2,0,P|127:290|84:288,1,103.5,0|10,1:1|2:2,0:0:0:0:
0,75,205991,1,10,2:2:0:0:
30,65,206079,1,8,2:2:0:0:
60,54,206168,6,0,B|182:22|127:117|266:85,1,195.75,6|0,1:2|0:0,0:0:0:0:
319,30,206521,2,0,P|339:77|330:128,1,103.5,10|8,2:2|2:2,0:0:0:0:
255,187,206785,1,8,2:2:0:0:
255,187,206873,1,2,1:2:0:0:
133,161,207050,1,0,1:1:0:0:
313,305,207226,1,10,2:2:0:0:
435,281,207403,1,0,0:0:0:0:
213,383,207579,6,0,P|157:368|95:368,1,103.5,2|0,1:2|1:1,0:0:0:0:
9,278,207932,1,10,2:2:0:0:
159,100,208109,1,8,2:2:0:0:
153,122,208197,1,8,2:2:0:0:
147,144,208285,2,0,P|152:204|165:263,1,103.5,0|0,1:1|1:1,0:0:0:0:
354,250,208638,2,0,P|303:252|265:286,1,103.5,10|0,2:2|0:0,0:0:0:0:
512,110,208991,6,0,B|469:108|436:118|436:118|401:92|401:92|365:103|325:101,1,195.75,2|0,1:2|0:0,0:0:0:0:
292,20,209344,2,0,P|251:48|245:121,1,103.5,10|8,2:2|2:2,0:0:0:0:
282,186,209609,1,8,2:2:0:0:
282,186,209697,1,2,1:2:0:0:
151,128,209873,1,0,1:1:0:0:
266,384,210050,6,0,P|261:335|242:279,1,103.5,14|2,2:2|1:2,0:0:0:0:
160,232,210315,1,0,1:1:0:0:
160,232,210403,2,0,P|133:243|110:245,1,51.75,6|0,1:2|1:1,0:0:0:0:
82,61,210579,5,8,2:2:0:0:
112,38,210668,1,8,2:2:0:0:
150,32,210756,1,8,2:2:0:0:
187,41,210844,1,8,2:2:0:0:
217,67,210932,2,0,P|250:73|271:73,1,51.75,0|0,1:1|1:1,0:0:0:0:
464,0,211109,5,10,2:2:0:0:
447,40,211197,1,8,2:2:0:0:
435,83,211285,1,8,2:2:0:0:
429,127,211373,1,8,2:2:0:0:
427,171,211462,2,0,P|432:208|434:228,1,51.75,0|0,1:1|1:1,0:0:0:0:
307,363,211638,5,8,2:2:0:0:
256,354,211726,1,8,2:2:0:0:
206,342,211815,2,0,B|175:276|175:276|221:146,1,195.75,6|0,1:2|0:0,0:0:0:0:
297,112,212168,2,0,P|264:73|214:65,1,103.5,10|8,2:2|2:2,0:0:0:0:
132,119,212432,1,8,2:2:0:0:
132,119,212520,1,2,1:2:0:0:
70,25,212697,1,0,1:1:0:0:
0,282,212873,1,10,2:2:0:0:
62,188,213050,1,0,0:0:0:0:
267,294,213226,6,0,P|212:278|159:303,1,103.5,2|0,1:2|1:1,0:0:0:0:
218,384,213579,1,10,2:2:0:0:
339,227,213756,1,8,2:2:0:0:
363,218,213844,1,8,2:2:0:0:
387,210,213932,2,0,P|392:153|404:107,1,103.5,2|0,1:2|1:1,0:0:0:0:
265,0,214285,2,0,P|277:50|281:101,1,103.5,8|0,2:2|0:0,0:0:0:0:
50,238,214638,6,0,B|40:207|10:198|10:198|161:212,1,195.75,2|0,1:2|0:0,0:0:0:0:
195,292,214991,2,0,P|233:253|241:201,1,103.5,10|8,2:2|2:2,0:0:0:0:
188,124,215256,1,8,2:2:0:0:
188,124,215344,1,2,1:2:0:0:
134,232,215520,1,0,1:1:0:0:
307,89,215697,1,10,2:2:0:0:
101,21,215873,1,0,0:0:0:0:
297,256,216050,6,0,P|351:235|398:245,1,103.5,2|0,1:2|1:1,0:0:0:0:
359,345,216403,1,10,2:2:0:0:
485,266,216579,1,8,2:2:0:0:
477,286,216668,2,0,P|485:321|486:346,1,51.75,8|2,2:2|2:2,0:0:0:0:
381,123,216844,1,8,2:2:0:0:
389,146,216932,2,0,P|440:146|502:131,1,103.5,0|10,1:1|2:2,0:0:0:0:
258,49,217285,1,10,2:2:0:0:
228,56,217373,1,8,2:2:0:0:
196,64,217462,5,6,1:2:0:0:
189,160,217638,1,0,1:1:0:0:
80,0,217815,6,0,P|99:86|108:206,1,207,8|2,2:2|1:2,0:0:0:0:
48,317,218344,1,0,1:1:0:0:
261,214,218520,2,0,B|313:199|313:199|370:218,1,103.5,8|0,2:2|0:0,0:0:0:0:
479,257,218873,5,2,1:2:0:0:
390,332,219050,1,0,1:1:0:0:
361,97,219226,2,0,B|256:60|275:166|155:115,1,207,8|2,2:2|1:2,0:0:0:0:
210,35,219756,1,0,1:1:0:0:
109,196,219932,2,0,P|124:257|124:310,1,103.5,8|0,2:2|0:0,0:0:0:0:
321,381,220285,5,6,1:2:0:0:
292,284,220462,1,0,1:1:0:0:
512,146,220638,2,0,B|461:97|387:121|387:121|366:158|318:158,1,207.000003948212,12|0,2:2|1:1,0:0:0:0:
304,65,221168,1,0,1:1:0:0:
432,218,221344,1,10,2:2:0:0:
107,107,221520,6,0,B|131:85|138:49|138:49|170:96|166:145|132:176,1,207,6|8,1:2|2:2,0:0:0:0:
9,236,222050,1,8,2:2:0:0:
127,373,222226,1,0,1:1:0:0:
119,330,222315,1,0,1:1:0:0:
110,288,222403,1,12,2:2:0:0:
0,384,222579,1,0,1:1:0:0:
195,182,222756,1,2,1:2:0:0:
236,176,222844,1,0,1:1:0:0:
277,190,222932,1,2,1:2:0:0:
306,220,223020,1,0,1:1:0:0:
318,261,223109,6,0,P|372:294|495:212,1,207,14|2,2:2|1:2,0:0:0:0:
392,9,223638,2,0,P|376:50|369:118,1,103.5,8|2,2:2|1:2,0:0:0:0:
395,202,223991,1,0,1:1:0:0:
131,66,224168,2,0,P|183:42|245:64,1,103.5,10|0,2:2|1:1,0:0:0:0:
163,325,224520,5,14,2:2:0:0:
175,232,224697,1,0,1:1:0:0:
186,142,224873,1,2,1:2:0:0:
30,369,225050,5,8,2:2:0:0:
291,325,225226,1,0,1:1:0:0:
56,364,225403,1,0,1:1:0:0:
121,86,225579,5,10,2:2:0:0:
332,336,225756,1,0,1:1:0:0:
371,345,225844,1,0,1:1:0:0:
411,353,225932,6,0,P|477:347|524:333,1,103.5,14|0,2:2|1:1,0:0:0:0:
409,242,226285,1,0,1:1:0:0:
246,367,226462,2,0,P|196:380|145:383,1,103.5,8|0,2:2|1:1,0:0:0:0:
218,256,226815,1,0,1:1:0:0:
14,136,226991,2,0,P|49:179|51:226,1,103.5,10|2,2:2|1:2,0:0:0:0:
286,47,227344,5,14,2:2:0:0:
312,173,227520,1,0,1:1:0:0:
193,129,227697,1,0,1:1:0:0:
434,89,227873,6,0,P|421:151|417:206,1,103.5,12|2,2:2|1:2,0:0:0:0:
459,313,228226,1,0,1:1:0:0:
314,254,228403,5,10,2:2:0:0:
84,384,228579,1,2,1:2:0:0:
130,374,228668,1,0,1:1:0:0:
171,362,228756,6,0,B|173:323|142:289|142:289|178:168,1,207,14|2,2:2|1:2,0:0:0:0:
373,103,229285,2,0,P|321:124|266:109,1,103.5,8|2,2:2|1:2,0:0:0:0:
200,30,229638,1,0,1:1:0:0:
414,8,229815,2,0,P|458:42|472:97,1,103.5,10|0,2:2|1:1,0:0:0:0:
280,291,230168,5,14,2:2:0:0:
369,278,230344,1,0,1:1:0:0:
456,265,230520,1,2,1:2:0:0:
190,304,230697,5,8,2:2:0:0:
385,374,230873,1,0,1:1:0:0:
359,184,231050,1,0,1:1:0:0:
243,384,231226,5,10,2:2:0:0:
454,173,231403,1,0,1:1:0:0:
463,141,231491,1,0,1:1:0:0:
470,112,231579,6,0,P|467:59|438:18,1,103.5,14|0,2:2|1:1,0:0:0:0:
371,94,231932,1,0,1:1:0:0:
144,5,232109,2,0,P|203:10|254:25,1,103.5,8|0,2:2|1:1,0:0:0:0:
204,126,232462,1,0,1:1:0:0:
274,325,232638,2,0,P|277:272|288:209,1,103.5,10|0,2:2|1:1,0:0:0:0:
160,315,232991,5,2,1:2:0:0:
123,325,233079,1,0,1:1:0:0:
85,318,233168,1,0,1:1:0:0:
54,295,233256,1,0,1:1:0:0:
36,261,233344,2,0,P|43:230|46:204,1,51.75,12|0,2:2|1:1,0:0:0:0:
204,126,233520,5,0,1:1:0:0:
247,133,233609,1,0,1:1:0:0:
290,139,233697,1,0,1:1:0:0:
334,143,233785,1,0,1:1:0:0:
377,145,233873,2,0,P|375:120|369:89,3,51.75,12|0|2|0,2:2|1:1|1:2|1:1,0:0:0:0:
508,329,234226,5,10,2:2:0:0:
456,319,234315,1,8,2:2:0:0:
404,308,234403,2,0,B|301:280|324:367|205:335,1,195.75,6|0,1:2|0:0,0:0:0:0:
132,364,234756,2,0,P|127:310|163:264,1,103.5,10|8,2:2|2:2,0:0:0:0:
248,249,235020,1,8,2:2:0:0:
248,249,235109,1,2,1:2:0:0:
216,135,235285,1,0,1:1:0:0:
385,52,235462,1,10,2:2:0:0:
353,166,235638,1,0,0:0:0:0:
148,52,235815,6,0,P|94:35|44:56,1,103.5,2|0,1:2|1:1,0:0:0:0:
99,139,236168,1,10,2:2:0:0:
15,359,236344,1,8,2:2:0:0:
8,330,236432,1,8,2:2:0:0:
0,297,236520,2,0,P|4:241|24:186,1,103.5,2|0,1:2|1:1,0:0:0:0:
189,282,236873,2,0,P|134:308|82:288,1,103.5,10|2,2:2|2:2,0:0:0:0:
403,164,237226,6,0,B|369:153|349:113|349:113|368:261,1,207,6|10,1:2|2:2,0:0:0:0:
80,118,237756,1,8,2:2:0:0:
110,111,237844,1,8,2:2:0:0:
142,103,237932,2,0,P|132:157|129:208,1,103.5,6|0,1:2|1:1,0:0:0:0:
205,298,238285,1,10,2:2:0:0:
441,254,238462,1,8,2:2:0:0:
411,247,238550,1,8,2:2:0:0:
379,239,238638,6,0,P|389:293|392:344,1,103.5,6|0,1:2|1:1,0:0:0:0:
285,384,238991,1,10,2:2:0:0:
213,271,239168,1,8,2:2:0:0:
205,298,239256,2,0,P|176:293|148:291,1,51.75,8|2,2:2|2:2,0:0:0:0:
266,172,239432,1,8,2:2:0:0:
274,199,239520,1,0,1:1:0:0:
67,50,239697,2,0,P|118:67|171:72,1,103.5,14|10,2:2|2:2,0:0:0:0:
232,7,239962,1,8,2:2:0:0:
232,7,240050,6,0,B|341:-22|318:62|427:24,1,195.75,6|0,1:2|0:0,0:0:0:0:
512,64,240403,2,0,P|481:107|435:122,1,103.5,10|8,2:2|2:2,0:0:0:0:
345,125,240668,1,8,2:2:0:0:
345,125,240756,1,0,1:1:0:0:
419,26,240932,1,0,1:1:0:0:
406,241,241109,1,10,2:2:0:0:
220,127,241285,1,0,0:0:0:0:
333,384,241462,6,0,P|330:334|318:278,1,103.5,2|0,1:2|1:1,0:0:0:0:
105,218,241815,1,10,2:2:0:0:
216,237,241991,1,8,2:2:0:0:
59,107,242168,1,2,1:2:0:0:
2,359,242344,1,0,1:1:0:0:
2,359,242432,1,0,1:1:0:0:
2,359,242520,1,10,2:2:0:0:
35,378,242609,1,8,2:2:0:0:
73,384,242697,1,8,2:2:0:0:
111,376,242785,1,8,2:2:0:0:
143,355,242873,6,0,P|208:341|382:339,1,207,14|0,2:2|0:0,0:0:0:0:
486,200,243403,2,0,P|441:235|436:290,1,103.5,12|2,2:2|2:2,0:0:0:0:
241,83,243756,1,0,1:1:0:0:
326,96,243932,1,2,1:2:0:0:
459,115,244109,2,0,L|399:108,1,51.75,0|0,1:1|1:1,0:0:0:0:
218,80,244285,5,14,2:2:0:0:
18,21,244638,2,0,P|32:66|33:105,2,69,2|0|0,1:2|1:1|1:1,0:0:0:0:
164,196,244991,5,10,2:2:0:0:
204,189,245109,5,8,2:2:0:0:
244,183,245226,5,8,2:2:0:0:
286,218,245344,5,10,2:2:0:0:
340,229,245462,5,8,2:2:0:0:
394,237,245579,5,8,2:2:0:0:
440,203,245697,6,0,B|420:145|447:96|447:96|400:59|337:101,1,207,14|8,2:2|2:2,0:0:0:0:
169,114,246226,1,2,1:2:0:0:
74,80,246403,1,8,2:2:0:0:
0,255,246579,1,0,1:1:0:0:
31,249,246668,1,0,1:1:0:0:
62,242,246756,2,0,P|124:248|179:259,1,103.5,14|0,2:2|1:1,0:0:0:0:
321,384,247109,5,8,2:2:0:0:
259,178,247285,1,2,1:2:0:0:
413,376,247462,5,8,2:2:0:0:
334,123,247638,1,0,1:1:0:0:
345,154,247726,1,0,1:1:0:0:
355,184,247815,5,10,2:2:0:0:
126,111,247991,1,2,1:2:0:0:
241,300,248168,5,8,2:2:0:0:
315,25,248344,1,0,1:1:0:0:
465,0,248520,6,0,P|444:99|441:214,1,207,14|8,2:2|2:2,0:0:0:0:
257,317,249050,1,2,1:2:0:0:
146,288,249226,1,8,2:2:0:0:
0,150,249403,1,0,1:1:0:0:
31,156,249491,1,0,1:1:0:0:
62,163,249579,2,0,P|124:157|179:146,1,103.5,14|0,2:2|1:1,0:0:0:0:
337,8,249932,5,8,2:2:0:0:
244,223,250109,1,2,1:2:0:0:
410,70,250285,5,8,2:2:0:0:
440,300,250462,1,0,1:1:0:0:
408,294,250550,1,0,1:1:0:0:
377,289,250638,5,10,2:2:0:0:
496,119,250815,1,0,1:1:0:0:
284,315,250991,5,14,2:2:0:0:
247,36,251168,1,2,1:2:0:0:
156,55,251344,6,0,B|122:35|88:51|88:51|68:109|94:157,1,180,6|2,1:2|1:2,0:0:0:0:
155,233,251873,1,0,1:1:0:0:
191,149,252050,1,0,1:1:0:0:
244,253,252226,1,0,1:1:0:0:
279,123,252403,1,2,1:2:0:0:
334,274,252579,1,0,1:1:0:0:
54,254,252756,5,10,2:2:0:0:
85,142,252932,1,8,2:2:0:0:
37,271,253109,5,10,2:2:0:0:
191,149,253285,1,8,2:2:0:0:
18,290,253462,5,10,2:2:0:0:
244,253,253638,1,8,2:2:0:0:
0,308,253815,5,10,2:2:0:0:
276,384,253991,1,8,2:2:0:0:
318,252,254168,6,0,B|310:272|320:298|320:298|306:294|286:294|286:294|273:278|275:250|275:250|290:212|290:212|291:174|259:157|259:157|254:128|247:99|247:99|265:106|265:106|279:95|279:95|393:86|510:68|510:68|504:82|504:99|504:99|443:105|387:122|387:122|381:146|390:165|390:165|351:166|335:193,1,811.800000000001,6|0,1:2|0:0,0:0:0:0:
334,198,258403,5,6,1:2:0:0:
186,302,258579,2,0,P|142:289|97:286,1,90,2|8,2:2|2:2,0:0:0:0:
0,231,258932,1,2,2:2:0:0:
255,153,259108,2,0,P|210:156|166:168,1,90,2|0,1:2|0:0,0:0:0:0:
74,98,259461,1,10,2:2:0:0:
288,13,259638,6,0,P|350:31|398:149,1,180,2|2,2:2|2:2,0:0:0:0:
315,229,260167,1,10,2:2:0:0:
502,367,260344,1,2,2:2:0:0:
469,375,260432,1,2,2:2:0:0:
440,383,260520,2,0,P|387:375|349:373,1,90,2|2,1:2|2:2,0:0:0:0:
191,325,260873,2,0,P|235:317|280:315,1,90,10|0,2:2|0:0,0:0:0:0:
335,215,261226,5,2,1:2:0:0:
130,161,261403,2,0,P|145:212|174:236,1,90,2|8,2:2|2:2,0:0:0:0:
244,150,261755,1,2,2:2:0:0:
66,24,261932,2,0,P|20:52|4:86,1,90,2|0,1:2|0:0,0:0:0:0:
160,68,262285,1,10,2:2:0:0:
0,275,262461,6,0,P|89:279|188:298,1,180,2|2,2:2|2:2,0:0:0:0:
296,359,262991,1,10,2:2:0:0:
299,187,263167,1,2,2:2:0:0:
290,216,263255,1,2,2:2:0:0:
278,248,263344,1,6,1:2:0:0:
392,157,263520,1,10,2:2:0:0:
472,369,263697,2,0,P|415:357|393:320,1,90,10|0,2:2|1:1,0:0:0:0:
436,248,263961,1,0,1:1:0:0:
436,248,264050,5,6,1:2:0:0:
206,370,264226,2,0,P|248:367|303:357,1,90,2|8,2:2|2:2,0:0:0:0:
334,258,264579,1,2,2:2:0:0:
110,202,264755,2,0,P|102:246|98:291,1,90,2|0,1:2|0:0,0:0:0:0:
204,185,265108,1,10,2:2:0:0:
0,21,265285,6,0,B|102:9|66:84|176:61,1,180,2|2,2:2|2:2,0:0:0:0:
296,0,265814,1,10,2:2:0:0:
309,211,265991,1,2,2:2:0:0:
314,182,266079,1,2,2:2:0:0:
318,145,266167,2,0,P|359:131|408:145,1,90,2|2,1:2|2:2,0:0:0:0:
476,246,266520,1,10,2:2:0:0:
274,328,266697,1,0,1:1:0:0:
274,328,266785,1,0,1:1:0:0:
274,328,266873,5,10,2:2:0:0:
232,343,266961,1,8,2:2:0:0:
189,332,267049,1,2,1:2:0:0:
161,298,267137,1,0,1:1:0:0:
157,254,267226,1,0,1:1:0:0:
123,241,267314,1,0,1:1:0:0:
87,238,267403,1,2,1:2:0:0:
53,250,267491,1,0,1:1:0:0:
28,277,267579,2,0,P|24:225|14:180,1,90,10|6,2:2|1:2,0:0:0:0:
105,361,267932,1,10,2:2:0:0:
289,126,268108,6,0,B|256:87|243:44|243:44|233:72|233:72|214:88|182:92|182:92|182:121|174:146|174:146|150:163|150:163|199:162|238:184|238:184|233:257|271:295|333:304|374:289|374:289|403:322|419:372|419:372|429:343|429:343|451:329|480:323|480:323|475:293|487:268|487:268|511:253|511:253|464:243|422:229|422:229|427:151|357:126,1,1044.00003186035,6|0,1:2|0:0,0:0:0:0:
