osu file format v14

[General]
AudioFilename: audio.mp3
AudioLeadIn: 0
PreviewTime: 135149
Countdown: 0
SampleSet: None
StackLeniency: 0.7
Mode: 1
LetterboxInBreaks: 0
WidescreenStoryboard: 0

[Editor]
Bookmarks: 10149,30149,47649,67649,87649,97649,117649,135149,155149,175149,195149,205149,215149,235149
DistanceSpacing: 1.5
BeatDivisor: 1
GridSize: 32
TimelineZoom: 1

[Metadata]
Title:
TitleUnicode:Sore wa Chiisa na Hikari no Yō na
Artist:Sayuri
ArtistUnicode:Sayuri
Creator:ToshinoKyoko
Version:Kantan
Source:Boku Dake Ga Inai Machi
Tags:Ending theme full Erased anime
BeatmapID:1097457
BeatmapSetID:516446

[Difficulty]
HPDrainRate:3
CircleSize:5
OverallDifficulty:3
ApproachRate:5
SliderMultiplier:1.4
SliderTickRate:1

[Events]
//Background and Video events
0,0,"Boku Dake BG.jpg",0,0
//Break Periods
2,195348,203949
//Storyboard Layer 0 (Background)
//Storyboard Layer 1 (Fail)
//Storyboard Layer 2 (Pass)
//Storyboard Layer 3 (Foreground)
//Storyboard Sound Samples

[TimingPoints]
149,416.666666666667,3,1,0,100,1,0
47649,-100,3,1,0,100,0,1
87649,-100,3,1,0,100,0,0
135149,-100,3,1,0,100,0,1
175149,-100,3,1,0,100,0,0
215149,-100,3,1,0,100,0,1
265149,-100,3,1,0,100,0,0

[HitObjects]
192,256,149,5,0,0:0:0:0:
320,256,774,1,8,0:0:0:0:
192,256,1399,1,0,0:0:0:0:
192,256,2024,1,0,0:0:0:0:
192,256,2649,1,0,0:0:0:0:
320,256,3274,1,8,0:0:0:0:
192,256,3899,1,0,0:0:0:0:
192,256,4524,1,0,0:0:0:0:
320,256,5149,5,8,0:0:0:0:
192,256,5774,1,0,0:0:0:0:
192,256,6399,1,0,0:0:0:0:
320,256,7024,1,8,0:0:0:0:
320,256,7649,1,8,0:0:0:0:
192,256,8274,1,0,0:0:0:0:
192,256,8899,1,0,0:0:0:0:
320,256,9315,1,8,0:0:0:0:
192,256,9732,1,0,0:0:0:0:
192,256,10149,1,0,0:0:0:0:
320,256,10982,1,8,0:0:0:0:
192,256,11399,1,0,0:0:0:0:
320,256,11815,1,8,0:0:0:0:
192,256,12232,1,0,0:0:0:0:
320,256,12649,1,8,0:0:0:0:
192,256,13482,1,0,0:0:0:0:
320,256,13899,1,8,0:0:0:0:
192,256,14315,1,0,0:0:0:0:
320,256,14732,1,8,0:0:0:0:
192,256,15149,5,0,0:0:0:0:
192,256,15982,1,0,0:0:0:0:
320,256,16399,1,8,0:0:0:0:
320,256,17232,1,8,0:0:0:0:
192,256,17649,1,0,0:0:0:0:
320,256,18065,1,8,0:0:0:0:
192,256,18482,1,0,0:0:0:0:
192,256,18899,1,0,0:0:0:0:
192,256,19315,1,0,0:0:0:0:
320,256,19732,1,8,0:0:0:0:
192,256,20149,1,0,0:0:0:0:
192,256,20982,1,0,0:0:0:0:
320,256,21399,1,8,0:0:0:0:
192,256,21815,1,0,0:0:0:0:
320,256,22232,1,8,0:0:0:0:
192,256,22649,1,0,0:0:0:0:
320,256,23482,5,8,0:0:0:0:
192,256,23899,1,0,0:0:0:0:
320,256,24315,1,8,0:0:0:0:
192,256,24732,1,0,0:0:0:0:
320,256,25149,1,8,0:0:0:0:
192,256,25565,1,0,0:0:0:0:
320,256,25982,1,8,0:0:0:0:
320,256,26399,1,8,0:0:0:0:
320,256,26815,1,8,0:0:0:0:
320,256,27232,1,8,0:0:0:0:
192,256,27649,5,0,0:0:0:0:
320,256,28065,1,8,0:0:0:0:
320,256,28482,1,8,0:0:0:0:
320,256,28899,1,8,0:0:0:0:
192,256,30149,5,0,0:0:0:0:
320,256,30565,1,8,0:0:0:0:
320,256,30982,1,8,0:0:0:0:
192,256,31815,1,0,0:0:0:0:
320,256,32232,1,8,0:0:0:0:
192,256,32649,5,0,0:0:0:0:
320,256,33482,1,8,0:0:0:0:
192,256,33899,1,0,0:0:0:0:
192,256,34315,1,0,0:0:0:0:
320,256,34732,1,8,0:0:0:0:
192,256,35149,5,0,0:0:0:0:
320,256,35565,1,8,0:0:0:0:
320,256,35982,1,8,0:0:0:0:
192,256,36399,1,0,0:0:0:0:
320,256,37232,1,8,0:0:0:0:
320,256,38482,1,8,0:0:0:0:
192,256,38899,1,0,0:0:0:0:
320,256,39732,1,8,0:0:0:0:
192,256,40149,5,0,0:0:0:0:
320,256,40565,1,8,0:0:0:0:
320,256,40982,1,8,0:0:0:0:
192,256,41399,1,0,0:0:0:0:
320,256,42232,1,8,0:0:0:0:
192,256,42649,1,0,0:0:0:0:
320,256,43482,1,8,0:0:0:0:
192,256,43899,1,0,0:0:0:0:
320,256,44732,1,8,0:0:0:0:
320,256,45149,5,8,0:0:0:0:
192,256,45982,1,0,0:0:0:0:
192,256,46399,1,0,0:0:0:0:
192,128,47649,5,4,0:0:0:0:
320,256,48482,1,8,0:0:0:0:
192,256,48899,1,0,0:0:0:0:
192,256,49315,1,0,0:0:0:0:
320,256,49732,1,8,0:0:0:0:
192,256,50149,1,0,0:0:0:0:
320,256,50982,1,8,0:0:0:0:
192,256,51399,1,0,0:0:0:0:
320,256,52232,1,8,0:0:0:0:
192,256,52649,5,0,0:0:0:0:
320,256,53482,1,8,0:0:0:0:
192,256,53899,1,0,0:0:0:0:
192,256,54315,1,0,0:0:0:0:
320,256,54732,1,8,0:0:0:0:
192,256,55149,1,0,0:0:0:0:
320,256,55565,1,8,0:0:0:0:
320,256,55982,1,8,0:0:0:0:
192,256,56399,1,0,0:0:0:0:
320,256,56815,1,8,0:0:0:0:
320,256,57232,1,8,0:0:0:0:
192,128,57649,5,4,0:0:0:0:
320,256,58482,1,8,0:0:0:0:
192,256,58899,1,0,0:0:0:0:
192,256,59315,1,0,0:0:0:0:
320,256,59732,1,8,0:0:0:0:
192,256,60149,1,0,0:0:0:0:
320,256,60982,1,8,0:0:0:0:
192,256,61399,5,0,0:0:0:0:
192,256,61815,1,0,0:0:0:0:
320,256,62232,1,8,0:0:0:0:
192,256,62649,1,0,0:0:0:0:
192,256,63065,1,0,0:0:0:0:
320,256,63482,1,8,0:0:0:0:
192,256,63899,1,0,0:0:0:0:
192,256,64315,1,0,0:0:0:0:
320,256,64732,1,8,0:0:0:0:
192,256,65149,1,0,0:0:0:0:
320,256,65565,1,8,0:0:0:0:
320,256,65982,1,8,0:0:0:0:
192,256,66399,1,0,0:0:0:0:
320,256,66815,1,8,0:0:0:0:
320,256,67232,1,8,0:0:0:0:
192,128,67649,5,4,0:0:0:0:
320,256,68482,1,8,0:0:0:0:
192,256,68899,1,0,0:0:0:0:
192,256,69315,1,0,0:0:0:0:
320,256,69732,1,8,0:0:0:0:
192,256,70149,1,0,0:0:0:0:
192,256,70565,1,0,0:0:0:0:
320,256,70982,1,8,0:0:0:0:
192,256,71815,1,0,0:0:0:0:
320,256,72232,1,8,0:0:0:0:
192,256,72649,5,0,0:0:0:0:
320,256,73482,1,8,0:0:0:0:
192,256,73899,1,0,0:0:0:0:
192,256,74315,1,0,0:0:0:0:
320,256,74732,1,8,0:0:0:0:
192,256,75565,1,0,0:0:0:0:
320,256,75982,1,8,0:0:0:0:
192,256,76815,1,0,0:0:0:0:
320,256,77232,1,8,0:0:0:0:
192,128,77649,5,4,0:0:0:0:
192,256,78065,1,0,0:0:0:0:
320,256,78482,1,8,0:0:0:0:
192,256,79315,1,0,0:0:0:0:
320,256,79732,1,8,0:0:0:0:
192,128,80149,1,4,0:0:0:0:
192,256,80565,1,0,0:0:0:0:
320,256,80982,1,8,0:0:0:0:
192,256,81815,1,0,0:0:0:0:
320,256,82232,1,8,0:0:0:0:
192,256,82649,5,0,0:0:0:0:
320,256,83482,1,8,0:0:0:0:
192,256,83899,1,0,0:0:0:0:
320,256,84732,1,8,0:0:0:0:
192,256,85149,1,0,0:0:0:0:
320,256,85982,1,8,0:0:0:0:
192,256,86399,1,0,0:0:0:0:
320,256,87232,1,8,0:0:0:0:
192,256,87649,5,0,0:0:0:0:
320,256,88274,1,8,0:0:0:0:
192,256,88899,1,0,0:0:0:0:
320,256,89524,1,8,0:0:0:0:
192,256,90149,1,0,0:0:0:0:
320,256,90774,1,8,0:0:0:0:
32,224,91399,2,0,B|224:224|224:224|32:352|32:352,1,420
320,256,93274,5,8,0:0:0:0:
192,256,93899,1,0,0:0:0:0:
320,256,94524,1,8,0:0:0:0:
192,256,95149,1,0,0:0:0:0:
320,256,95774,1,8,0:0:0:0:
192,256,96399,1,0,0:0:0:0:
192,256,96815,1,0,0:0:0:0:
320,256,97232,1,8,0:0:0:0:
192,256,97649,5,0,0:0:0:0:
320,256,98065,1,8,0:0:0:0:
192,256,98899,5,0,0:0:0:0:
320,256,99315,1,8,0:0:0:0:
192,256,100149,5,0,0:0:0:0:
320,256,100565,1,8,0:0:0:0:
192,256,101399,5,0,0:0:0:0:
320,256,101815,1,8,0:0:0:0:
192,256,102649,5,0,0:0:0:0:
320,256,103065,1,8,0:0:0:0:
192,256,103899,5,0,0:0:0:0:
320,256,104315,1,8,0:0:0:0:
192,256,105149,5,0,0:0:0:0:
320,256,105565,1,8,0:0:0:0:
192,256,106399,1,0,0:0:0:0:
320,256,106815,1,8,0:0:0:0:
320,256,107232,1,8,0:0:0:0:
192,256,107649,5,0,0:0:0:0:
320,256,108482,1,8,0:0:0:0:
320,256,108899,1,8,0:0:0:0:
320,256,109732,1,8,0:0:0:0:
320,128,110149,1,12,0:0:0:0:
320,256,110982,1,8,0:0:0:0:
320,256,111399,1,8,0:0:0:0:
32,224,111815,2,0,B|224:224|224:224|160:288,1,280
320,256,113065,5,8,0:0:0:0:
320,256,114315,1,8,0:0:0:0:
320,256,115149,1,8,0:0:0:0:
320,256,115774,1,8,0:0:0:0:
320,256,116399,1,8,0:0:0:0:
192,256,117232,1,0,0:0:0:0:
192,128,117649,5,4,0:0:0:0:
320,256,118274,1,8,0:0:0:0:
192,256,118899,1,0,0:0:0:0:
320,256,119524,1,8,0:0:0:0:
192,256,120149,1,0,0:0:0:0:
320,256,120774,1,8,0:0:0:0:
192,256,121399,1,0,0:0:0:0:
320,256,121815,1,8,0:0:0:0:
320,256,122024,1,8,0:0:0:0:
320,256,122232,1,8,0:0:0:0:
192,256,122649,5,0,0:0:0:0:
320,256,123274,1,8,0:0:0:0:
192,256,123899,1,0,0:0:0:0:
320,256,124524,1,8,0:0:0:0:
192,256,125149,1,0,0:0:0:0:
320,256,125774,1,8,0:0:0:0:
192,256,126399,1,0,0:0:0:0:
320,256,127024,1,8,0:0:0:0:
320,256,127232,1,8,0:0:0:0:
192,256,127649,5,0,0:0:0:0:
320,256,128065,1,8,0:0:0:0:
192,256,128482,1,0,0:0:0:0:
192,256,128899,1,0,0:0:0:0:
320,256,129315,1,8,0:0:0:0:
192,256,129732,1,0,0:0:0:0:
192,256,130149,1,0,0:0:0:0:
320,256,130565,1,8,0:0:0:0:
320,256,130982,1,8,0:0:0:0:
320,256,131815,1,8,0:0:0:0:
320,256,132232,1,8,0:0:0:0:
320,256,133065,1,8,0:0:0:0:
320,256,133482,1,8,0:0:0:0:
192,128,133899,1,4,0:0:0:0:
192,128,134732,1,4,0:0:0:0:
192,256,135149,5,0,0:0:0:0:
320,256,135774,1,8,0:0:0:0:
192,256,136399,1,0,0:0:0:0:
320,256,137024,1,8,0:0:0:0:
192,256,137649,1,0,0:0:0:0:
320,256,138274,1,8,0:0:0:0:
192,256,138899,1,0,0:0:0:0:
320,256,139524,1,8,0:0:0:0:
192,256,140149,5,0,0:0:0:0:
320,256,140774,1,8,0:0:0:0:
320,256,141190,1,8,0:0:0:0:
192,256,141399,1,0,0:0:0:0:
320,256,142024,1,8,0:0:0:0:
320,256,142440,1,8,0:0:0:0:
192,256,142649,1,0,0:0:0:0:
320,256,143274,1,8,0:0:0:0:
320,256,143690,1,8,0:0:0:0:
192,256,143899,1,0,0:0:0:0:
192,256,144315,1,0,0:0:0:0:
320,256,144524,1,8,0:0:0:0:
320,256,144732,1,8,0:0:0:0:
320,256,145774,5,8,0:0:0:0:
320,256,146190,1,8,0:0:0:0:
320,256,147024,1,8,0:0:0:0:
320,256,147440,1,8,0:0:0:0:
320,256,148274,1,8,0:0:0:0:
320,256,148690,1,8,0:0:0:0:
320,256,149524,1,8,0:0:0:0:
320,256,149940,1,8,0:0:0:0:
320,256,150774,1,8,0:0:0:0:
320,256,151190,1,8,0:0:0:0:
320,256,152024,1,8,0:0:0:0:
320,256,152440,1,8,0:0:0:0:
320,256,153274,1,8,0:0:0:0:
32,224,153899,2,0,B|224:224|224:224|32:352,1,420
320,256,155565,5,8,0:0:0:0:
320,256,155982,1,8,0:0:0:0:
192,256,156399,1,0,0:0:0:0:
320,256,156815,1,8,0:0:0:0:
192,256,157649,1,0,0:0:0:0:
320,256,158065,1,8,0:0:0:0:
192,256,158899,1,0,0:0:0:0:
320,256,159315,1,8,0:0:0:0:
192,256,160149,1,0,0:0:0:0:
320,256,160565,1,8,0:0:0:0:
192,256,161399,1,0,0:0:0:0:
320,256,161815,1,8,0:0:0:0:
192,256,162649,1,0,0:0:0:0:
320,256,163065,1,8,0:0:0:0:
192,256,163899,1,0,0:0:0:0:
320,256,164524,1,8,0:0:0:0:
320,256,164732,1,8,0:0:0:0:
192,256,165149,5,0,0:0:0:0:
320,256,165565,1,8,0:0:0:0:
320,256,165982,1,8,0:0:0:0:
192,256,166399,1,0,0:0:0:0:
320,256,166815,1,8,0:0:0:0:
192,256,167232,1,0,0:0:0:0:
192,256,167649,1,0,0:0:0:0:
320,256,168065,1,8,0:0:0:0:
320,256,168482,1,8,0:0:0:0:
192,256,168899,1,0,0:0:0:0:
320,256,169315,1,8,0:0:0:0:
192,256,169732,1,0,0:0:0:0:
192,256,170149,5,0,0:0:0:0:
320,256,170565,1,8,0:0:0:0:
320,256,171190,1,8,0:0:0:0:
192,256,171399,1,0,0:0:0:0:
320,256,171815,1,8,0:0:0:0:
320,256,172440,1,8,0:0:0:0:
192,256,172649,1,0,0:0:0:0:
320,256,173065,1,8,0:0:0:0:
320,256,173482,1,8,0:0:0:0:
192,256,173899,1,0,0:0:0:0:
320,256,174524,1,8,0:0:0:0:
192,256,175149,5,0,0:0:0:0:
320,256,175982,1,8,0:0:0:0:
192,256,176399,1,0,0:0:0:0:
320,256,177232,1,8,0:0:0:0:
192,256,177649,1,0,0:0:0:0:
320,256,178482,1,8,0:0:0:0:
192,256,178899,1,0,0:0:0:0:
320,256,179732,1,8,0:0:0:0:
192,256,180149,5,0,0:0:0:0:
192,256,180565,1,0,0:0:0:0:
320,256,180982,1,8,0:0:0:0:
192,256,181399,1,0,0:0:0:0:
192,256,181815,1,0,0:0:0:0:
320,256,182232,1,8,0:0:0:0:
192,256,182649,1,0,0:0:0:0:
192,256,183065,1,0,0:0:0:0:
320,256,183482,1,8,0:0:0:0:
192,256,183899,1,0,0:0:0:0:
192,256,184315,1,0,0:0:0:0:
320,256,184732,1,8,0:0:0:0:
192,256,185149,5,0,0:0:0:0:
192,256,185565,1,0,0:0:0:0:
320,256,185982,1,8,0:0:0:0:
192,256,186399,1,0,0:0:0:0:
320,256,187232,1,8,0:0:0:0:
192,256,187649,1,0,0:0:0:0:
192,256,188065,1,0,0:0:0:0:
320,256,188482,1,8,0:0:0:0:
192,256,188899,1,0,0:0:0:0:
320,256,189732,1,8,0:0:0:0:
192,256,190149,5,0,0:0:0:0:
320,256,190982,1,8,0:0:0:0:
192,256,191399,1,0,0:0:0:0:
192,256,191815,1,0,0:0:0:0:
320,256,192232,1,8,0:0:0:0:
192,128,192649,1,4,0:0:0:0:
32,224,193065,2,0,B|224:224|224:224|32:352|32:352|224:288|224:288|224:384,1,700
320,256,205149,5,8,0:0:0:0:
192,256,205774,1,0,0:0:0:0:
192,256,206399,1,0,0:0:0:0:
320,256,207024,1,8,0:0:0:0:
320,256,207649,1,8,0:0:0:0:
192,256,208274,1,0,0:0:0:0:
192,256,208899,1,0,0:0:0:0:
320,256,209524,1,8,0:0:0:0:
320,256,210149,1,8,0:0:0:0:
192,256,210774,1,0,0:0:0:0:
320,256,211399,1,8,0:0:0:0:
192,256,212649,1,0,0:0:0:0:
320,256,213274,1,8,0:0:0:0:
320,256,213899,1,8,0:0:0:0:
32,224,214315,2,0,B|224:224|224:224|224:320,1,280
320,256,215565,5,8,0:0:0:0:
320,256,215982,1,8,0:0:0:0:
192,256,216399,1,0,0:0:0:0:
320,256,216815,1,8,0:0:0:0:
320,256,217232,1,8,0:0:0:0:
192,256,217649,1,0,0:0:0:0:
320,256,218065,1,8,0:0:0:0:
320,256,218482,1,8,0:0:0:0:
192,256,218899,1,0,0:0:0:0:
320,256,219315,1,8,0:0:0:0:
320,256,219732,1,8,0:0:0:0:
192,256,220149,5,0,0:0:0:0:
320,256,220565,1,8,0:0:0:0:
320,256,220982,1,8,0:0:0:0:
192,256,221399,1,0,0:0:0:0:
320,256,221815,1,8,0:0:0:0:
320,256,222232,1,8,0:0:0:0:
192,256,222649,1,0,0:0:0:0:
320,256,223065,1,8,0:0:0:0:
192,256,223482,1,0,0:0:0:0:
320,256,223899,1,8,0:0:0:0:
192,256,224315,1,0,0:0:0:0:
192,256,224732,1,0,0:0:0:0:
192,128,225149,5,4,0:0:0:0:
320,256,226399,1,8,0:0:0:0:
192,256,226815,1,0,0:0:0:0:
192,256,227232,1,0,0:0:0:0:
192,128,227649,1,4,0:0:0:0:
320,256,228899,1,8,0:0:0:0:
320,256,229315,1,8,0:0:0:0:
192,256,229732,1,0,0:0:0:0:
192,128,230149,5,4,0:0:0:0:
320,256,231399,1,8,0:0:0:0:
192,256,231815,1,0,0:0:0:0:
192,256,232232,1,0,0:0:0:0:
192,128,232649,1,4,0:0:0:0:
320,256,233899,1,8,0:0:0:0:
320,256,234315,1,8,0:0:0:0:
192,256,234732,1,0,0:0:0:0:
192,128,235149,5,4,0:0:0:0:
320,256,235565,1,8,0:0:0:0:
320,256,235982,1,8,0:0:0:0:
192,256,236399,1,0,0:0:0:0:
320,256,236815,1,8,0:0:0:0:
192,256,237232,1,0,0:0:0:0:
320,128,237649,1,12,0:0:0:0:
192,256,238065,1,0,0:0:0:0:
192,256,238482,1,0,0:0:0:0:
192,256,238899,1,0,0:0:0:0:
320,256,239315,1,8,0:0:0:0:
192,256,239732,1,0,0:0:0:0:
192,128,240149,5,4,0:0:0:0:
320,256,240565,1,8,0:0:0:0:
320,256,240982,1,8,0:0:0:0:
192,256,241399,1,0,0:0:0:0:
320,256,241815,1,8,0:0:0:0:
320,128,242232,1,12,0:0:0:0:
192,128,242649,1,4,0:0:0:0:
320,256,243065,1,8,0:0:0:0:
320,256,243482,1,8,0:0:0:0:
192,256,243899,1,0,0:0:0:0:
320,256,244315,1,8,0:0:0:0:
320,256,244732,1,8,0:0:0:0:
192,256,245149,5,0,0:0:0:0:
320,256,245774,1,8,0:0:0:0:
320,256,246399,1,8,0:0:0:0:
192,256,247024,1,0,0:0:0:0:
192,256,247649,1,0,0:0:0:0:
320,256,248274,1,8,0:0:0:0:
320,256,248899,1,8,0:0:0:0:
192,256,249524,1,0,0:0:0:0:
192,256,250149,5,0,0:0:0:0:
320,256,250565,1,8,0:0:0:0:
320,256,250982,1,8,0:0:0:0:
192,256,251399,1,0,0:0:0:0:
320,256,251815,1,8,0:0:0:0:
320,256,252232,1,8,0:0:0:0:
192,256,252649,1,0,0:0:0:0:
320,256,253065,1,8,0:0:0:0:
192,256,253482,1,0,0:0:0:0:
192,256,253899,1,0,0:0:0:0:
320,256,254315,1,8,0:0:0:0:
192,256,254732,1,0,0:0:0:0:
192,256,255149,5,0,0:0:0:0:
320,256,255774,1,8,0:0:0:0:
192,256,256399,1,0,0:0:0:0:
320,256,257024,1,8,0:0:0:0:
192,256,257649,1,0,0:0:0:0:
320,256,258274,1,8,0:0:0:0:
192,128,258899,1,4,0:0:0:0:
192,128,259315,1,4,0:0:0:0:
192,128,259732,1,4,0:0:0:0:
192,128,260149,5,4,0:0:0:0:
320,256,260565,1,8,0:0:0:0:
320,256,260982,1,8,0:0:0:0:
192,256,261399,1,0,0:0:0:0:
320,256,261815,1,8,0:0:0:0:
320,256,262232,1,8,0:0:0:0:
192,256,262649,1,0,0:0:0:0:
320,256,263065,1,8,0:0:0:0:
320,256,263482,1,8,0:0:0:0:
32,224,263899,2,0,B|224:224|224:224|192:256,1,210
192,256,264940,1,0,0:0:0:0:
256,192,265149,12,0,270982,0:0:0:0:
