osu file format v14

[General]
AudioFilename: audio.ogg
AudioLeadIn: 0
PreviewTime: 61774
Countdown: 0
SampleSet: Soft
StackLeniency: 0.7
Mode: 0
LetterboxInBreaks: 0
WidescreenStoryboard: 1

[Editor]
DistanceSpacing: 0.6
BeatDivisor: 16
GridSize: 4
TimelineZoom: 1.4

[Metadata]
Title:Blue Star (TV Size)
TitleUnicode:ブルースター (TV Size)
Artist:Sayaka Yamamoto
ArtistUnicode:山本彩
Creator:Lafayla
Version:Kanui's Insane
Source:魔王の俺が奴隷エルフを嫁にしたんだが、どう愛でればいい?
Tags:Kanui terakomari japanese ed ending pop jpop j-pop anime An Archdemon's Dilemma: How to Love Your Elf Bride Maou no Ore ga Dorei Elf wo Yome ni Shitanda ga, Dou Medereba Ii?
BeatmapID:4566461
BeatmapSetID:2163049

[Difficulty]
HPDrainRate:6
CircleSize:4
OverallDifficulty:8.2
ApproachRate:9
SliderMultiplier:3.59999990463257
SliderTickRate:2

[Events]
//Background and Video events
0,0,"2022-10-22-1086789-scaled.jpg",0,0
Video,90,"BlueStar.mp4"
//Break Periods
//Storyboard Layer 0 (Background)
//Storyboard Layer 1 (Fail)
//Storyboard Layer 2 (Pass)
//Storyboard Layer 3 (Foreground)
//Storyboard Layer 4 (Overlay)
//Storyboard Sound Samples

[TimingPoints]
672,740.740740740741,4,2,1,65,1,0
672,-166.666666666666,4,2,1,65,0,0
11783,-133.333333333333,4,2,1,65,0,0
12523,-133.333333333333,4,2,1,50,0,0
24375,-125,4,2,1,55,0,0
36227,-111.111111111111,4,2,1,70,0,0
56968,-200,4,2,1,70,0,0
57709,-166.666666666667,4,2,1,70,0,0
58449,-142.857142857143,4,2,1,70,0,0
59190,-125,4,2,1,70,0,0
59931,-500.000000000003,4,2,1,70,0,0
61412,-166.666666666667,4,2,1,70,0,0
62894,-83.3333333333333,4,2,1,80,0,1
63634,-100,4,2,1,80,0,1
74746,-83.3333333333333,4,2,1,80,0,1
75486,-100,4,2,1,80,0,1
77709,-133.333333333333,4,2,1,80,0,1
80672,-100,4,2,1,80,0,1
88820,-263.157894736842,4,2,1,80,0,0
88866,-263.157894736842,4,2,1,10,0,0

[Colours]
Combo1 : 228,226,229
Combo2 : 57,21,181
Combo3 : 109,242,232
Combo4 : 183,49,217

[HitObjects]
256,192,672,5,2,3:2:0:0:
256,192,1042,1,2,0:0:0:0:
493,264,1412,2,0,P|439:255|385:252,1,107.999993843079,0|0,1:0|0:0,0:0:0:0:
385,252,1968,1,0,0:0:0:0:
297,154,2153,2,0,L|350:146,1,53.9999969215394,2|0,0:0|0:0,0:0:0:0:
215,230,2523,2,0,L|161:237,1,53.9999969215394,0|0,3:0|0:0,0:0:0:0:
19,119,2894,2,0,P|72:128|126:131,1,107.999993843079,0|2,1:0|0:0,0:0:0:0:
493,119,3634,6,0,P|439:128|385:131,1,107.999993843079,2|0,3:2|3:0,0:0:0:0:
19,264,4375,2,0,P|72:255|126:252,1,107.999993843079,0|2,1:0|0:0,0:0:0:0:
212,268,4931,1,0,0:0:0:0:
212,268,5116,2,0,L|216:215,1,53.9999969215394,2|0,0:0|0:0,0:0:0:0:
299,115,5486,2,0,L|296:169,1,53.9999969215394,0|0,3:0|0:0,0:0:0:0:
493,119,5857,2,0,P|439:128|385:131,1,107.999993843079,0|0,1:0|0:0,0:0:0:0:
19,119,6597,6,0,P|73:128|127:131,1,107.999993843079,4|0,3:2|0:0,0:0:0:0:
493,265,7338,2,0,P|439:256|385:253,1,107.999993843079,0|2,1:0|0:0,0:0:0:0:
314,292,7894,1,0,0:0:0:0:
314,292,8079,1,2,0:0:0:0:
198,92,8449,1,0,3:0:0:0:
198,92,8634,1,0,0:0:0:0:
252,217,8820,2,0,L|259:164,2,53.9999969215394,0|0|0,1:0|0:0|0:0,0:0:0:0:
19,265,9560,6,0,P|73:256|127:253,1,107.999993843079,2|0,3:2|3:0,0:0:0:0:
493,119,10301,2,0,P|439:128|385:131,1,107.999993843079,0|2,1:0|0:0,0:0:0:0:
128,175,11042,6,0,P|153:183|180:189,1,53.9999969215394,2|0,0:0|1:0,0:0:0:0:
384,209,11412,2,0,P|358:200|331:194,1,53.9999969215394,0|0,3:0|0:0,0:0:0:0:
275,49,11783,6,0,P|263:80|256:113,1,67.5000007867814,2|0,0:0|0:0,0:0:0:0:
236,334,12153,2,0,P|245:302|253:269,1,67.5000007867814,0|0,1:0|0:0,0:0:0:0:
260,196,12523,5,4,3:2:0:0:
260,196,12894,2,0,P|258:159|253:128,1,67.5000007867814,0|2,0:0|0:0,0:0:0:0:
88,206,13264,2,0,P|64:268|84:335,1,135.000001573563,8|0,0:0|0:0,0:0:0:0:
157,273,13820,1,0,0:0:0:0:
264,330,14005,6,0,L|331:321,1,67.5000007867814,2|0,0:0|0:0,0:0:0:0:
210,201,14375,1,0,3:0:0:0:
210,201,14560,2,0,L|201:134,1,67.5000007867814,0|8,0:0|0:0,0:0:0:0:
384,257,14931,2,0,L|451:248,1,67.5000007867814,2|0,0:0|0:0,0:0:0:0:
291,155,15301,1,0,0:0:0:0:
387,33,15486,6,0,L|372:176,1,135.000001573563,2|0,3:2|3:0,0:0:0:0:
460,130,16042,1,0,0:0:0:0:
236,100,16227,1,8,0:0:0:0:
236,100,16597,6,0,P|202:106|169:111,1,67.5000007867814
85,78,16968,1,2,0:0:0:0:
28,148,17153,1,0,0:0:0:0:
77,225,17338,1,0,3:0:0:0:
163,199,17523,2,0,P|171:251|171:280,1,67.5000007867814,2|8,0:0|0:0,0:0:0:0:
272,345,17894,2,0,P|274:311|280:278,1,67.5000007867814,2|0,0:0|0:0,0:0:0:0:
335,216,18264,1,0,0:0:0:0:
485,309,18449,6,0,P|434:337|346:304,1,135.000001573563,2|0,3:2|0:0,0:0:0:0:
280,278,19005,1,0,0:0:0:0:
409,121,19190,2,0,P|419:189|420:257,1,135.000001573563,8|0,0:0|0:0,0:0:0:0:
409,121,19746,1,0,0:0:0:0:
269,165,19931,6,0,P|236:163|198:156,1,67.5000007867814,2|0,0:0|0:0,0:0:0:0:
36,118,20301,1,0,3:0:0:0:
87,257,20486,2,0,P|105:229|130:200,1,67.5000007867814,2|8,0:0|0:0,0:0:0:0:
127,202,20857,1,0,0:0:0:0:
96,52,21042,2,0,P|112:82|124:114,1,67.5000007867814,2|0,0:0|0:0,0:0:0:0:
237,1,21412,6,0,P|234:68|219:136,1,135.000001573563,2|0,3:2|3:0,0:0:0:0:
258,215,21968,1,0,0:0:0:0:
465,133,22153,2,0,P|398:128|342:163,1,135.000001573563,8|0,0:0|0:0,0:0:0:0:
223,378,22709,5,0,0:0:0:0:
270,304,22894,1,2,0:0:0:0:
258,215,23079,1,0,0:0:0:0:
187,162,23264,2,0,L|110:154,1,67.5000007867814,0|0,3:0|0:0,0:0:0:0:
28,284,23634,2,0,L|171:266,1,135.000001573563,8|2,0:0|0:0,0:0:0:0:
161,267,24190,1,0,0:0:0:0:
132,42,24375,5,4,3:2:0:0:
132,42,24746,2,0,P|128:77|125:113,1,71.9999980926514,0|2,0:0|0:0,0:0:0:0:
242,208,25116,2,0,P|310:226|376:201,1,143.999996185303,8|0,0:0|0:0,0:0:0:0:
436,148,25672,1,0,0:0:0:0:
510,285,25857,6,0,P|476:283|429:274,1,71.9999980926514,2|0,0:0|0:0,0:0:0:0:
375,203,26227,1,0,3:0:0:0:
291,323,26412,2,0,P|325:325|372:334,1,71.9999980926514,2|8,0:0|0:0,0:0:0:0:
175,160,26783,2,0,P|210:166|246:168,1,71.9999980926514,2|0,0:0|0:0,0:0:0:0:
93,224,27153,5,0,0:0:0:0:
93,224,27246,1,0,0:0:0:0:
93,224,27338,2,0,P|75:176|118:70,1,143.999996185303,2|0,3:2|3:0,0:0:0:0:
175,160,27894,1,0,0:0:0:0:
326,37,28079,1,8,0:0:0:0:
326,37,28449,6,0,P|332:73|332:108,1,71.9999980926514
418,148,28820,2,0,P|416:185|408:219,1,71.9999980926514
441,306,29190,1,0,3:0:0:0:
204,285,29375,2,0,P|238:281|274:273,1,71.9999980926514,2|8,0:0|0:0,0:0:0:0:
326,214,29746,1,0,0:0:0:0:
381,369,29931,2,0,P|346:359|308:354,1,71.9999980926514,2|0,0:0|0:0,0:0:0:0:
139,358,30301,6,0,P|112:293|133:226,1,143.999996185303,2|0,3:2|0:0,0:0:0:0:
218,108,30857,1,2,0:0:0:0:
103,60,31042,1,8,0:0:0:0:
103,60,31227,2,0,L|28:52,1,71.9999980926514,0|2,0:0|0:0,0:0:0:0:
138,227,31597,1,0,0:0:0:0:
294,122,31783,6,0,L|150:135,1,143.999996185303,2|0,0:0|3:0,0:0:0:0:
356,256,32338,2,0,P|423:279|493:267,1,143.999996185303,2|0,0:0|0:0,0:0:0:0:
467,193,32894,1,2,0:0:0:0:
406,318,33079,1,0,0:0:0:0:
295,152,33264,6,0,P|298:111|306:80,1,71.9999980926514,2|0,3:2|0:0,0:0:0:0:
217,232,33634,2,0,P|213:272|205:303,1,71.9999980926514,0|0,3:0|0:0,0:0:0:0:
23,196,34005,1,8,0:0:0:0:
23,196,34375,6,0,L|120:182,1,71.9999980926514,0|2,0:0|0:0,0:0:0:0:
162,146,34746,1,10,0:0:0:0:
162,146,34931,1,0,0:0:0:0:
350,238,35116,1,0,3:0:0:0:
350,238,35302,1,0,1:0:0:0:
238,129,35486,5,8,0:0:0:0:
274,255,35672,1,0,3:0:0:0:
288,67,35857,5,4,3:0:0:0:
228,321,36043,1,0,3:0:0:0:
288,67,36227,6,0,B|333:48|333:48|366:109|321:153,1,161.999990764618,4|2,3:2|0:0,0:0:0:0:
482,176,36783,1,0,0:0:0:0:
322,151,36968,2,0,L|403:163,1,80.9999953823091,8|0,0:1|0:0,0:0:0:0:
301,303,37338,2,0,L|220:315,1,80.9999953823091
95,268,37709,2,0,P|83:327|103:384,1,121.499993073464,2|0,0:0|0:0,0:0:0:0:
102,383,38079,1,0,3:0:0:0:
153,61,38449,5,8,0:1:0:0:
70,187,38634,1,0,0:0:0:0:
210,133,38820,1,2,0:0:0:0:
65,93,39005,1,0,0:0:0:0:
160,211,39190,6,0,P|200:224|239:222,1,80.9999953823091,2|0,3:2|0:0,0:0:0:0:
396,107,39560,2,0,L|311:115,1,80.9999953823091,0|0,3:0|0:0,0:0:0:0:
457,277,39931,1,8,0:1:0:0:
457,276,40301,6,0,P|471:237|472:197,1,80.9999953823091
297,369,40672,1,2,0:0:0:0:
386,345,40857,1,0,0:0:0:0:
206,347,41042,2,0,P|165:338|132:317,1,80.9999953823091,0|0,3:0|0:0,0:0:0:0:
19,221,41412,5,8,0:1:0:0:
44,300,41597,1,0,0:0:0:0:
130,110,41783,1,2,0:0:0:0:
105,236,41968,1,0,0:0:0:0:
245,141,42153,6,0,P|249:100|236:62,1,80.9999953823091,2|0,3:2|0:0,0:0:0:0:
26,31,42523,2,0,P|7:108|30:185,1,161.999990764618,0|8,0:0|0:1,0:0:0:0:
30,185,43264,1,0,0:0:0:0:
139,163,43449,1,0,0:0:0:0:
245,141,43634,6,0,P|286:148|336:151,1,80.9999953823091,2|0,0:0|0:0,0:0:0:0:
126,58,44005,2,0,P|85:51|35:48,1,80.9999953823091,0|0,3:0|0:0,0:0:0:0:
206,220,44375,1,8,0:1:0:0:
206,220,44560,2,0,L|218:320,1,80.9999953823091,0|2,0:0|0:0,0:0:0:0:
340,132,44931,1,0,0:0:0:0:
476,246,45116,6,0,B|410:227|386:272|315:250,2,161.999990764618,2|0|8,3:2|3:0|0:1,0:0:0:0:
476,246,46227,2,0,L|488:165,1,80.9999953823091
398,51,46597,1,2,0:0:0:0:
398,51,46783,1,0,0:0:0:0:
309,106,46968,2,0,P|268:100|229:90,1,80.9999953823091,0|0,3:0|0:0,0:0:0:0:
97,257,47338,5,8,0:1:0:0:
237,199,47523,1,0,0:0:0:0:
114,98,47709,1,2,0:0:0:0:
148,181,47894,1,0,0:0:0:0:
15,125,48079,6,0,P|24:85|29:45,1,80.9999953823091,2|0,3:2|0:0,0:0:0:0:
165,205,48449,2,0,P|155:244|150:284,1,80.9999953823091,2|0,0:0|0:0,0:0:0:0:
374,163,48820,1,8,0:1:0:0:
374,163,49190,6,0,L|475:150,1,80.9999953823091,2|0,0:0|0:0,0:0:0:0:
337,268,49560,2,0,L|236:255,1,80.9999953823091,2|0,0:0|0:0,0:0:0:0:
159,115,49931,2,0,L|300:101,1,121.499993073464,0|0,3:0|0:0,0:0:0:0:
302,101,50301,5,8,0:1:0:0:
210,21,50486,1,0,0:0:0:0:
100,59,50672,1,2,0:0:0:0:
74,172,50857,1,0,0:0:0:0:
156,253,51042,6,0,P|165:292|163:333,1,80.9999953823091,2|0,3:2|0:0,0:0:0:0:
269,179,51412,2,0,P|269:223|254:261,1,80.9999953823091,0|0,3:0|0:0,0:0:0:0:
80,303,51783,1,8,0:1:0:0:
171,238,51968,1,0,0:0:0:0:
291,352,52153,2,0,L|374:343,1,80.9999953823091,2|0,0:0|0:0,0:0:0:0:
493,228,52523,5,2,0:0:0:0:
493,228,52709,1,0,0:0:0:0:
395,135,52894,2,0,P|395:177|400:215,1,80.9999953823091,0|0,3:0|0:0,0:0:0:0:
320,36,53264,2,0,P|301:114|293:195,1,161.999990764618,8|2,0:1|0:0,0:0:0:0:
292,195,53820,1,0,0:0:0:0:
167,174,54005,5,2,3:2:0:0:
167,174,54375,1,0,0:0:0:0:
345,210,54746,5,0,3:0:0:0:
345,210,55116,1,0,0:0:0:0:
207,56,55486,5,0,3:0:0:0:
207,56,55857,1,0,0:0:0:0:
305,328,56227,5,0,3:0:0:0:
305,328,56597,1,0,0:0:0:0:
255,192,56968,6,0,P|235:200|213:204,1,44.9999988079071,2|0,3:2|0:0,0:0:0:0:
168,226,57338,2,0,P|146:225|125:217,1,44.9999988079071,0|0,3:0|0:0,0:0:0:0:
255,192,57709,6,0,P|246:219|242:245,1,53.9999969215394,0|0,3:2|0:0,0:0:0:0:
195,300,58079,2,0,P|199:328|207:352,1,53.9999969215394,2|0,3:2|0:0,0:0:0:0:
255,192,58449,6,0,P|286:205|316:207,1,62.9999964084627,0|0,3:0|0:0,0:0:0:0:
385,253,58820,2,0,P|417:248|446:237,1,62.9999964084627,2|0,3:2|0:0,0:0:0:0:
255,192,59190,6,0,P|268:159|274:124,1,71.9999980926514,2|0,3:2|0:0,0:0:0:0:
360,68,59561,2,0,P|357:31|343:-1,1,71.9999980926514,2|0,3:2|0:0,0:0:0:0:
81,84,59931,6,0,L|40:78,3,35.9999990463257,2|0|2|0,3:2|0:0|0:0|0:0,0:0:0:0:
44,303,61227,5,0,1:0:0:0:
44,307,61320,1,0,1:0:0:0:
44,311,61412,1,8,0:1:0:0:
256,192,61505,12,0,62523,0:0:0:0:
468,81,62709,5,0,1:0:0:0:
468,77,62802,1,0,1:0:0:0:
468,73,62894,2,0,B|357:130|185:111|187:0|354:35|368:126,1,377.999978450776,4|0,3:1|0:0,0:0:0:0:
372,138,63634,2,0,P|363:189|344:236,1,89.9999976158143,8|0,1:0|0:0,0:0:0:0:
170,280,64005,1,0,0:0:0:0:
170,280,64190,1,2,0:0:0:0:
140,155,64375,5,0,3:0:0:0:
295,318,64560,1,0,1:0:0:0:
76,370,64746,2,0,P|54:331|52:280,1,89.9999976158143,0|0,3:0|0:0,0:0:0:0:
354,253,65116,2,0,P|331:292|294:317,1,89.9999976158143,8|0,1:0|0:0,0:0:0:0:
114,72,65486,2,0,P|159:72|199:91,1,89.9999976158143,2|0,0:0|3:0,0:0:0:0:
185,235,65857,6,0,L|5:219,1,179.999995231629,2|0,3:2|3:0,0:0:0:0:
5,219,66412,1,0,0:0:0:0:
165,48,66597,2,0,L|345:32,1,179.999995231629,8|2,1:0|0:0,0:0:0:0:
435,224,67153,1,2,0:0:0:0:
512,130,67338,2,0,L|422:121,1,89.9999976158143,0|0,3:0|1:0,0:0:0:0:
280,266,67709,1,0,3:0:0:0:
280,266,68079,5,8,1:0:0:0:
399,148,68264,1,0,0:0:0:0:
211,318,68449,5,2,0:0:0:0:
449,279,68634,1,0,0:0:0:0:
211,318,68820,6,0,B|168:349|112:339|112:339|87:305|33:298,1,179.999995231629,4|0,1:0|3:0,0:0:0:0:
48,300,69375,1,2,0:0:0:0:
285,379,69560,2,0,P|305:293|246:229,1,179.999995231629,8|0,1:0|0:0,0:0:0:0:
211,318,70116,1,2,0:0:0:0:
193,163,70301,6,0,P|166:199|160:242,1,89.9999976158143,0|0,3:0|1:0,0:0:0:0:
383,355,70672,2,0,P|409:318|415:275,1,89.9999976158143,0|0,3:0|0:0,0:0:0:0:
512,96,71042,2,0,L|333:115,1,179.999995231629,8|0,1:0|0:0,0:0:0:0:
428,189,71597,1,2,0:0:0:0:
245,46,71783,6,0,P|200:44|155:36,1,89.9999976158143,4|0,3:2|0:0,0:0:0:0:
47,280,72153,2,0,P|88:272|136:270,1,89.9999976158143,0|0,3:0|0:0,0:0:0:0:
2,143,72523,2,0,B|100:127|86:181|181:162,1,179.999995231629,8|2,1:0|0:0,0:0:0:0:
223,257,73079,5,0,3:0:0:0:
268,110,73264,1,8,1:0:0:0:
463,327,73449,1,0,3:0:0:0:
510,194,73634,1,2,0:0:0:0:
321,366,73820,1,0,3:0:0:0:
417,74,74005,6,0,P|410:123|421:172,1,89.9999976158143,4|8,3:2|1:0,0:0:0:0:
348,15,74283,2,0,P|329:55|321:99,1,89.9999976158143,8|0,1:0|0:0,0:0:0:0:
497,120,74560,5,0,1:0:0:0:
497,116,74653,1,0,1:0:0:0:
497,112,74746,2,0,B|500:95|534:99|543:136|501:197|415:174|408:140|412:136|336:91|271:116|267:227|351:244|403:184,1,377.999978450776,4|0,3:1|0:0,0:0:0:0:
398,188,75486,2,0,P|396:144|385:98,1,89.9999976158143,8|0,1:0|0:0,0:0:0:0:
277,272,75857,1,0,0:0:0:0:
112,193,76042,1,2,0:0:0:0:
277,272,76227,6,0,P|273:319|263:360,1,89.9999976158143,2|0,3:2|1:0,0:0:0:0:
31,248,76597,2,0,P|21:207|17:159,1,89.9999976158143,0|0,3:0|0:0,0:0:0:0:
220,94,76968,5,8,1:0:0:0:
292,290,77153,1,0,0:0:0:0:
290,52,77338,5,0,3:0:0:0:
222,332,77523,1,2,0:0:0:0:
290,52,77709,6,0,B|331:44|331:44|360:89|331:133,1,135.000001573563,4|0,3:2|0:0,0:0:0:0:
222,332,78449,2,0,B|181:340|181:340|152:295|180:250,1,135.000001573563,4|0,3:2|0:0,0:0:0:0:
355,218,79005,5,0,1:0:0:0:
355,218,79097,1,0,1:0:0:0:
355,218,79190,2,0,L|418:205,2,45.0000005245209,0|4|4,1:3|0:3|0:3,0:0:0:0:
271,87,79560,5,0,1:0:0:0:
256,139,79684,1,4,0:3:0:0:
204,152,79807,1,4,0:3:0:0:
164,116,79931,2,0,L|97:103,1,67.5000007867814,0|0,1:0|0:0,0:0:0:0:
0,273,80301,1,0,3:0:0:0:
123,224,80486,1,0,3:0:0:0:
37,28,80672,6,0,P|6:89|20:167,1,134.999996423721,4|0,3:1|0:0,0:0:0:0:
26,173,81042,2,0,P|23:215|11:271,1,89.9999976158143,0|0,3:0|0:0,0:0:0:0:
211,352,81412,2,0,P|202:308|200:264,1,89.9999976158143,8|0,1:0|0:0,0:0:0:0:
106,297,81783,1,0,0:0:0:0:
307,230,81968,5,0,1:0:0:0:
307,230,82060,1,0,1:0:0:0:
307,230,82153,1,0,3:0:0:0:
361,320,82338,1,0,1:0:0:0:
489,200,82523,2,0,L|395:185,1,89.9999976158143,0|0,3:0|0:0,0:0:0:0:
176,67,82894,1,8,1:0:0:0:
256,154,83079,1,0,0:0:0:0:
336,67,83264,1,0,0:0:0:0:
111,185,83449,5,0,1:0:0:0:
111,185,83542,1,0,1:0:0:0:
111,185,83634,2,0,L|23:200,2,89.9999976158143,0|2|0,3:2|0:0|3:0,0:0:0:0:
256,154,84190,1,2,0:0:0:0:
200,72,84375,5,8,1:0:0:0:
339,111,84560,1,0,0:0:0:0:
164,248,84746,5,2,3:2:0:0:
407,169,84931,1,0,1:0:0:0:
302,359,85116,6,0,P|292:315|286:270,1,89.9999976158143,4|0,3:2|0:0,0:0:0:0:
470,280,85486,2,0,P|425:286|382:296,1,89.9999976158143,0|0,1:0|0:0,0:0:0:0:
204,337,85764,1,0,1:0:0:0:
204,337,85857,2,0,P|160:347|115:353,1,89.9999976158143,8|0,1:0|0:0,0:0:0:0:
319,199,86227,1,2,1:2:0:0:
88,156,86412,1,0,1:0:0:0:
259,27,86597,5,4,3:2:0:0:
205,301,86783,1,0,1:0:0:0:
271,0,86968,2,0,L|288:98,1,89.9999976158143,0|0,3:0|0:0,0:0:0:0:
441,223,87338,2,0,L|426:135,1,89.9999976158143,8|0,1:0|0:0,0:0:0:0:
354,316,87709,1,0,3:0:0:0:
511,282,87894,1,2,3:2:0:0:
254,183,88079,6,0,P|185:184|133:224,1,134.999996423721,0|0,1:0|0:0,0:0:0:0:
18,322,88449,2,0,P|50:262|42:196,1,134.999996423721,0|0,1:0|0:0,0:0:0:0:
19,48,88820,6,0,P|53:105|115:131,1,136.799994706116,0|0,1:0|0:0,0:0:0:0:
