osu file format v14

[General]
AudioFilename: audio.mp3
AudioLeadIn: 0
PreviewTime: 58303
Countdown: 0
SampleSet: Soft
StackLeniency: 0.7
Mode: 0
LetterboxInBreaks: 0
WidescreenStoryboard: 1

[Editor]
Bookmarks: 97974
DistanceSpacing: 1.3
BeatDivisor: 4
GridSize: 8
TimelineZoom: 1.4

[Metadata]
Title:True Memories Symphony
TitleUnicode:True Memories Symphony
Artist:Sayaka Sasaki
ArtistUnicode:佐咲紗花
Creator:DakiniBrave
Version:Hard: Autumn
Source:
Tags:
BeatmapID:1479755
BeatmapSetID:697530

[Difficulty]
HPDrainRate:4.7
CircleSize:4
OverallDifficulty:7.5
ApproachRate:8
SliderMultiplier:1.5
SliderTickRate:1

[Events]
//Background and Video events
0,0,"Autumn.jpg",0,0
//Break Periods
//Storyboard Layer 0 (Background)
//Storyboard Layer 1 (Fail)
//Storyboard Layer 2 (Pass)
//Storyboard Layer 3 (Foreground)
//Storyboard Sound Samples

[TimingPoints]
1659,394.736842105263,4,2,0,80,1,0
1659,-111.111111111111,4,2,0,80,0,0
17448,-125,4,2,0,60,0,0
30080,-111.111111111111,4,2,0,60,0,0
58501,-90.9090909090909,4,2,0,80,0,1
88501,-100,4,2,0,80,0,0
105869,-100,4,2,0,5,0,0

[Colours]
Combo1 : 221,171,104
Combo2 : 232,125,30

[HitObjects]
224,58,1659,6,0,B|211:101|211:101|227:197,1,134.999995880127
354,186,2251,2,0,P|300:170|221:193,1,134.999995880127
168,265,2843,1,0,0:0:0:0:
115,186,3040,1,0,0:0:0:0:
115,186,3139,1,0,0:0:0:0:
115,186,3237,6,0,L|120:129,3,33.7499989700318
86,116,3632,2,0,L|81:59,3,33.7499989700318
107,41,4027,1,0,0:0:0:0:
186,91,4224,2,0,B|241:86|241:86|263:94|263:94|336:88,1,134.999995880127
392,29,4816,6,0,P|413:92|383:165,1,134.999995880127
316,212,5408,1,0,0:0:0:0:
374,286,5606,1,0,0:0:0:0:
374,286,5705,1,0,0:0:0:0:
374,286,5803,1,0,0:0:0:0:
281,306,6001,2,0,P|251:309|222:301,1,60
140,236,6395,6,0,L|148:371,1,134.999995880127
58,339,6987,1,0,0:0:0:0:
58,339,7086,1,0,0:0:0:0:
58,339,7185,2,0,P|63:302|55:259,1,67.4999979400635
0,197,7580,2,0,P|-5:160|3:117,1,67.4999979400635
57,56,7974,6,0,B|100:41|100:41|200:63,1,134.999995880127
279,83,8566,1,0,0:0:0:0:
366,45,8764,2,0,L|368:12,2,33.7499989700318
444,97,9158,2,0,L|437:190,1,67.4999979400635
493,241,9553,6,0,P|432:213|366:225,1,134.999995880127
289,278,10145,1,0,0:0:0:0:
289,278,10244,1,0,0:0:0:0:
289,278,10343,1,0,0:0:0:0:
216,218,10540,1,0,0:0:0:0:
147,282,10737,2,0,P|142:315|150:348,1,67.4999979400635
244,339,11132,6,0,B|276:326|309:338|309:338|341:349|376:338,1,134.999995880127
442,271,11724,1,0,0:0:0:0:
373,205,11922,2,0,L|336:209,2,33.7499989700318
456,160,12316,2,0,P|461:122|441:71,1,67.4999979400635
396,18,12711,6,0,P|435:24|479:16,2,67.4999979400635
302,1,13303,1,0,0:0:0:0:
338,88,13501,2,0,L|329:174,1,67.4999979400635
236,156,13895,2,0,L|245:242,1,67.4999979400635
290,305,14290,6,0,B|340:297|340:297|405:310,2,101.249996910095
210,356,15080,2,0,B|160:364|160:364|95:351,2,101.249996910095
163,273,15869,2,0,B|155:223|155:223|168:158,1,101.249996910095
200,36,16461,1,0,0:0:0:0:
256,192,16560,12,0,17349,0:0:0:0:
425,313,17448,6,0,P|365:298|286:319,1,120
231,341,18040,1,0,0:0:0:0:
231,341,18237,2,0,L|226:263,1,60
290,225,18632,2,0,L|295:147,1,60
338,93,19027,6,0,B|289:88|289:88|262:93|262:93|208:87,1,120
157,29,19619,2,0,P|133:82|148:138,1,120
195,208,20211,2,0,P|200:235|191:273,1,60
130,321,20606,6,0,B|158:310|188:321|188:321|219:329|248:322,1,120
323,283,21198,1,0,0:0:0:0:
323,283,21395,2,0,P|358:279|391:290,1,60
441,345,21790,2,0,P|476:349|509:338,1,60
505,258,22185,6,0,B|496:232|496:232|506:123,1,120
511,55,22777,2,0,P|453:69|378:40,1,120
322,11,23369,1,0,0:0:0:0:
253,59,23566,1,0,0:0:0:0:
186,7,23764,6,0,B|208:63|208:63|193:138,1,120
164,199,24356,1,0,0:0:0:0:
200,274,24553,2,0,L|269:280,1,60
304,207,24948,2,0,L|363:201,1,60
426,146,25343,6,0,P|450:208|416:270,1,120
375,318,25935,1,0,0:0:0:0:
375,318,26132,2,0,P|318:300|261:317,1,120
104,378,26922,6,0,B|108:330|108:330|122:308|122:308|126:257,1,120
85,188,27514,2,0,P|115:191|165:173,1,60
220,149,27908,1,0,0:0:0:0:
219,148,28106,2,0,P|226:178|225:207,1,60
273,276,28501,6,0,P|306:278|345:264,1,60
412,293,28895,2,0,P|414:260|400:221,1,60
429,154,29290,2,0,P|396:152|357:166,1,60
290,137,29685,2,0,P|288:170|302:209,1,60
377,78,30080,6,0,B|295:88|295:88|245:70,1,134.999995880127
155,41,30672,1,0,0:0:0:0:
155,41,30770,1,0,0:0:0:0:
155,41,30869,2,0,L|149:133,1,67.4999979400635
60,137,31264,2,0,L|66:229,1,67.4999979400635
11,282,31658,6,0,B|40:271|71:283|71:283|104:296|143:283,1,134.999995880127
212,218,32251,1,0,0:0:0:0:
275,287,32448,2,0,L|271:342,2,33.7499989700318
341,219,32843,2,0,L|333:136,1,67.4999979400635
418,108,33237,6,0,L|432:254,1,134.999995880127
467,330,33830,1,0,0:0:0:0:
467,330,33928,1,0,0:0:0:0:
467,330,34027,2,0,P|434:338|395:328,1,67.4999979400635
315,292,34422,2,0,P|282:284|243:294,1,67.4999979400635
180,355,34816,6,0,B|200:292|200:292|177:213,1,134.999995880127
150,135,35408,1,0,0:0:0:0:
60,164,35606,2,0,L|55:208,2,33.7499989700318
15,80,36001,2,0,P|54:69|96:80,1,67.4999979400635
150,135,36395,6,0,B|181:126|215:135|215:135|249:146|284:136,1,134.999995880127
362,83,36987,1,0,0:0:0:0:
438,138,37185,2,0,L|434:179,2,33.7499989700318
503,69,37580,2,0,P|475:51|419:50,1,67.4999979400635
362,83,37974,6,0,L|356:168,1,67.4999979400635
307,231,38369,2,0,P|337:226|397:252,1,67.4999979400635
442,298,38764,2,0,L|439:343,2,33.7499989700318
364,351,39158,2,0,P|331:359|298:354,1,67.4999979400635
207,325,39553,6,0,P|212:291|205:259,1,67.4999979400635
143,187,39948,1,0,0:0:0:0:
202,113,40145,2,0,L|289:121,1,67.4999979400635
311,34,40540,2,0,L|243:27,1,67.4999979400635
269,119,40935,6,0,B|320:114|320:114|348:127|348:127|413:120,1,134.999995880127
484,77,41527,2,0,P|495:110|484:157,1,67.4999979400635
461,231,41922,2,0,L|465:273,2,33.7499989700318
367,219,42316,2,0,L|374:293,1,67.4999979400635
385,380,42711,5,0,0:0:0:0:
255,343,42908,1,0,0:0:0:0:
395,112,43303,5,0,0:0:0:0:
358,242,43500,1,0,0:0:0:0:
125,104,43895,5,0,0:0:0:0:
255,141,44092,1,0,0:0:0:0:
117,373,44487,5,0,0:0:0:0:
154,244,44685,2,0,P|164:275|151:331,1,67.4999979400635
29,274,45080,2,0,L|26:223,3,33.7499989700318
23,193,45474,2,0,P|58:201|106:191,1,67.4999979400635
177,162,45869,5,0,0:0:0:0:
59,95,46066,1,0,0:0:0:0:
303,210,46461,5,0,0:0:0:0:
185,277,46658,1,0,0:0:0:0:
409,126,47053,5,0,0:0:0:0:
291,60,47250,1,0,0:0:0:0:
499,231,47645,5,0,0:0:0:0:
475,364,47843,2,0,P|435:368|391:354,1,67.4999979400635
304,276,48237,2,0,L|261:283,3,33.7499989700318
224,290,48632,2,0,L|225:207,1,67.4999979400635
229,127,49027,5,0,0:0:0:0:
229,127,49224,1,0,0:0:0:0:
318,158,49422,2,0,P|327:127|321:94,1,67.4999979400635
247,34,49816,2,0,B|181:44|181:44|127:30,2,101.249996910095
335,0,50606,5,0,0:0:0:0:
335,0,50803,1,0,0:0:0:0:
404,64,51001,2,0,L|398:136,1,67.4999979400635
389,225,51395,2,0,B|455:215|455:215|509:229,1,101.249996910095
417,346,51987,6,0,L|332:340,1,67.4999979400635
258,367,52382,1,0,0:0:0:0:
258,367,52580,2,0,B|245:333|257:302|257:302|272:270|258:234,1,134.999995880127
194,165,53172,1,0,0:0:0:0:
272,113,53369,1,0,0:0:0:0:
188,72,53566,1,0,0:0:0:0:
101,111,53764,6,0,P|48:118|-1:103,2,101.249996910095
188,72,54553,2,0,P|198:107|181:164,1,67.4999979400635
139,214,54948,2,0,P|129:249|146:306,1,67.4999979400635
169,366,55343,5,0,0:0:0:0:
230,294,55540,1,0,0:0:0:0:
294,362,55737,2,0,L|371:358,1,67.4999979400635
449,324,56132,5,0,0:0:0:0:
377,263,56329,1,0,0:0:0:0:
444,199,56526,2,0,P|452:166|446:133,1,67.4999979400635
420,41,56922,5,0,0:0:0:0:
349,103,57119,1,0,0:0:0:0:
278,40,57316,1,0,0:0:0:0:
213,108,57513,1,0,0:0:0:0:
213,108,57612,1,0,0:0:0:0:
213,108,57711,1,0,0:0:0:0:
144,43,57908,2,0,L|149:2,2,33.7499989700318
77,110,58303,1,0,0:0:0:0:
77,110,58402,1,0,0:0:0:0:
77,110,58501,6,0,B|62:143|64:177|64:177|85:210|76:276,1,165.000005035401
59,376,59093,1,0,0:0:0:0:
162,349,59290,2,0,L|155:285,2,41.2500012588501
268,365,59685,2,0,L|277:279,1,82.5000025177003
219,191,60080,6,0,B|272:210|272:210|396:186,1,165.000005035401
482,162,60672,1,0,0:0:0:0:
482,162,60770,1,0,0:0:0:0:
482,162,60869,2,0,L|477:251,2,82.5000025177003
493,55,61461,1,0,0:0:0:0:
392,95,61658,6,0,B|353:81|315:96|315:96|274:119|233:100,1,165.000005035401
140,44,62251,1,0,0:0:0:0:
52,106,62448,2,0,L|57:158,2,41.2500012588501
144,161,62843,1,0,0:0:0:0:
78,245,63040,6,0,B|140:239|140:239|175:253|175:253|239:247,1,165.000005035401
302,160,63632,1,0,0:0:0:0:
353,254,63830,1,0,0:0:0:0:
353,254,63928,1,0,0:0:0:0:
353,254,64027,2,0,L|349:306,2,41.2500012588501
405,160,64422,2,0,L|400:63,1,82.5000025177003
495,127,64816,6,0,B|513:176|513:176|497:300,1,165.000005035401
432,372,65408,1,0,0:0:0:0:
364,288,65606,1,0,0:0:0:0:
364,288,65705,1,0,0:0:0:0:
364,288,65803,1,0,0:0:0:0:
263,326,66001,2,0,P|254:287|268:232,1,82.5000025177003
352,189,66395,6,0,B|304:203|304:203|176:185,1,165.000005035401
83,173,66987,1,0,0:0:0:0:
83,173,67086,1,0,0:0:0:0:
83,173,67185,2,0,L|78:227,2,41.2500012588501
32,77,67580,2,0,P|74:68|130:79,1,82.5000025177003
219,85,67974,6,0,P|275:101|347:78,2,123.75000377655
145,164,68764,2,0,P|161:220|138:292,2,123.75000377655
250,180,69553,6,0,L|247:229,3,41.2500012588501
284,260,69948,2,0,L|287:309,3,41.2500012588501
264,350,70343,2,0,L|215:347,3,41.2500012588501
185,309,70738,2,0,L|136:312,3,41.2500012588501
112,354,71132,6,0,B|126:296|126:296|108:183,1,165.000005035401
32,116,71724,1,0,0:0:0:0:
122,57,71922,2,0,L|120:109,2,41.2500012588501
210,116,72316,2,0,L|309:107,1,82.5000025177003
377,42,72711,6,0,B|360:85|377:124|377:124|394:162|381:203,1,165.000005035401
301,274,73303,1,0,0:0:0:0:
301,274,73402,1,0,0:0:0:0:
301,274,73501,2,0,B|307:324|307:323,2,41.2500012588501
388,336,73895,2,0,P|433:345|476:329,1,82.5000025177003
511,236,74290,6,0,P|471:227|418:240,1,82.5000025177003
343,171,74685,2,0,P|303:180|250:167,1,82.5000025177003
196,88,75080,1,0,0:0:0:0:
195,87,75178,1,0,0:0:0:0:
195,87,75277,1,0,0:0:0:0:
118,162,75474,2,0,L|125:248,1,82.5000025177003
225,282,75869,6,0,L|218:364,2,82.5000025177003
287,194,76461,1,0,0:0:0:0:
287,194,76560,1,0,0:0:0:0:
287,194,76658,2,0,L|281:142,2,41.2500012588501
381,246,77053,2,0,L|367:129,1,82.5000025177003
409,63,77448,6,0,B|373:47|328:63|328:63|292:75|247:60,1,165.000005035401
148,16,78040,1,0,0:0:0:0:
49,58,78237,2,0,P|41:100|62:163,1,82.5000025177003
139,196,78632,2,0,P|147:238|126:301,1,82.5000025177003
66,355,79027,6,0,P|106:345|160:359,1,82.5000025177003
216,271,79422,2,0,P|256:281|310:267,1,82.5000025177003
391,226,79816,1,0,0:0:0:0:
391,226,79915,1,0,0:0:0:0:
391,226,80014,1,0,0:0:0:0:
334,134,80211,2,0,P|370:120|416:126,1,82.5000025177003
391,226,80606,6,0,B|349:208|307:224|307:224|271:239|230:226,1,165.000005035401
159,144,81198,1,0,0:0:0:0:
108,238,81395,2,0,L|113:287,2,41.2500012588501
35,158,81790,2,0,P|25:113|36:72,1,82.5000025177003
127,26,82185,6,0,B|188:20|188:20|219:37|219:37|315:29,1,165.000005035401
394,22,82777,1,0,0:0:0:0:
394,22,82876,1,0,0:0:0:0:
394,22,82974,2,0,L|391:75,3,41.2500012588501
364,109,83369,2,0,L|367:162,3,41.2500012588501
372,203,83764,6,0,B|450:188|450:188|501:206,2,123.75000377655
314,293,84553,2,0,B|236:308|236:308|185:290,2,123.75000377655
417,262,85343,5,0,0:0:0:0:
338,189,85540,1,0,0:0:0:0:
417,117,85737,1,0,0:0:0:0:
334,47,85935,2,0,L|233:60,1,82.5000025177003
155,10,86330,1,0,0:0:0:0:
155,10,86428,1,0,0:0:0:0:
155,10,86527,2,0,L|152:58,3,41.2500012588501
107,80,86922,6,0,L|110:128,1,41.2500012588501
113,174,87119,1,0,0:0:0:0:
209,128,87316,1,0,0:0:0:0:
201,234,87514,1,0,0:0:0:0:
310,192,87711,2,0,L|355:184,3,41.2500012588501
389,147,88106,2,0,L|434:155,3,41.2500012588501
466,121,88501,6,0,B|486:166|486:166|477:271,1,150
466,363,89093,1,0,0:0:0:0:
390,301,89290,2,0,L|352:306,2,37.5
278,347,89685,2,0,P|268:305|289:248,1,75
323,189,90080,6,0,B|291:191|263:183|263:183|247:189|231:197|231:197|201:185|151:193,1,150
80,204,90672,1,0,0:0:0:0:
80,204,90770,1,0,0:0:0:0:
80,204,90869,2,0,L|85:267,2,37.5
36,116,91264,2,0,P|73:105|132:124,1,75
200,142,91658,6,0,L|194:49,1,75
280,19,92053,2,0,L|275:93,1,75
330,174,92448,2,0,L|332:218,2,37.5
373,86,92843,1,0,0:0:0:0:
437,158,93040,1,0,0:0:0:0:
504,87,93237,6,0,B|477:133|477:133|501:256,1,150
425,297,93830,1,0,0:0:0:0:
425,297,93928,1,0,0:0:0:0:
425,297,94027,2,0,L|429:335,2,37.5
351,232,94422,1,0,0:0:0:0:
274,292,94619,6,0,B|237:279|199:293|199:293|161:309|127:292,1,150
37,256,95211,2,0,P|28:296|47:344,1,75
127,292,95606,1,0,0:0:0:0:
127,292,95705,1,0,0:0:0:0:
127,292,95803,1,0,0:0:0:0:
166,202,96001,2,0,P|175:165|166:129,1,75
110,50,96395,5,0,0:0:0:0:
129,49,96493,1,0,0:0:0:0:
147,48,96592,1,0,0:0:0:0:
166,46,96691,1,0,0:0:0:0:
185,45,96790,2,0,L|241:40,3,37.5
262,69,97185,2,0,L|318:74,3,37.5
332,36,97580,2,0,L|388:31,3,37.5
409,60,97974,6,0,P|427:112|415:166,2,112.5
332,121,98764,2,0,B|258:129|258:129|199:109,2,112.5
415,166,99553,5,0,0:0:0:0:
308,265,99849,1,0,0:0:0:0:
332,121,100145,1,0,0:0:0:0:
256,192,100244,12,0,105869,0:0:0:0:
