osu file format v14

[General]
AudioFilename: audio.mp3
AudioLeadIn: 0
PreviewTime: 51972
Countdown: 0
SampleSet: Soft
StackLeniency: 0.4
Mode: 0
LetterboxInBreaks: 0
WidescreenStoryboard: 0

[Editor]
DistanceSpacing: 1.1
BeatDivisor: 4
GridSize: 32
TimelineZoom: 1

[Metadata]
Title:Snow halation
TitleUnicode:Snow halation
Artist:Sayaka Sasaki
ArtistUnicode:佐咲紗花
Creator:ktgster
Version:Easy
Source:ラブライブ! School idol project
Tags:SAYAKAVER love live! 2期 2nd season
BeatmapID:1454964
BeatmapSetID:685864

[Difficulty]
HPDrainRate:3
CircleSize:2.5
OverallDifficulty:3
ApproachRate:3
SliderMultiplier:0.8
SliderTickRate:1

[Events]
//Background and Video events
0,0,"bg.png",0,0
//Break Periods
2,96364,106022
2,171477,178161
2,188124,189259
//Storyboard Layer 0 (Background)
//Storyboard Layer 1 (Fail)
//Storyboard Layer 2 (Pass)
//Storyboard Layer 3 (Foreground)
//Storyboard Sound Samples

[TimingPoints]
642,346.820809248555,4,2,1,40,1,0
22665,-100,4,2,1,70,0,0
24225,-100,4,2,1,60,0,0
35324,-100,4,2,1,50,0,0
40179,-100,4,2,1,60,0,0
49196,-100,4,2,1,70,0,0
51277,-100,4,2,1,60,0,0
51971,-100,4,2,2,70,0,1
56133,-100,4,2,1,70,0,1
57520,-100,4,2,2,70,0,1
60121,-100,4,2,1,70,0,1
61682,-100,4,2,1,80,0,1
62896,-100,4,2,1,40,0,0
63069,-100,4,2,1,70,0,1
72780,-100,4,2,1,80,0,1
74168,-100,4,2,1,50,0,0
85266,-100,4,2,1,60,0,0
94977,-100,4,2,1,70,0,0
96364,-100,4,3,1,30,0,0
106075,-100,4,2,1,40,0,0
107462,-100,4,2,1,60,0,0
118561,-100,4,2,1,50,0,0
123416,-100,4,2,1,60,0,0
132433,-100,4,2,1,70,0,0
134514,-100,4,2,1,60,0,0
135208,-100,4,2,2,70,0,1
143358,-100,4,2,1,70,0,1
144919,-100,4,2,1,80,0,1
146133,-100,4,2,1,40,0,0
146306,-100,4,2,1,70,0,1
156017,-100,4,2,1,80,0,1
157405,-100,4,2,1,50,0,0
190699,-100,4,2,1,70,0,0
194861,-100,4,2,1,60,0,0
196248,-100,4,2,1,70,0,0
201624,-100,4,2,1,40,0,0
201798,-100,4,2,1,70,0,1
211509,-100,4,2,1,80,0,1
212896,-100,4,2,1,50,0,0
219832,-100,4,2,1,60,0,0
232318,-100,4,2,2,70,0,1
242029,-100,4,2,1,80,0,1
243416,-100,4,2,1,40,0,0
246754,-100,4,2,1,5,0,0

[Colours]
Combo1 : 170,170,213
Combo2 : 0,124,185
Combo3 : 89,164,255
Combo4 : 192,130,255

[HitObjects]
55,312,642,6,0,P|159:351|292:306,1,240,0|0,0:2|0:2,0:0:0:0:
358,278,2029,2,0,P|410:256|485:264,2,120,0|0|0,0:2|0:2|0:2,0:0:0:0:
285,228,3416,2,0,P|225:231|170:209,1,120,0|0,0:2|0:2,0:0:0:0:
41,31,4803,5,0,0:2:0:0:
216,18,5497,1,0,0:2:0:0:
376,90,6191,6,0,P|428:112|503:104,2,120,0|0|0,0:2|0:2|0:2,0:0:0:0:
297,130,7578,2,0,P|245:108|170:116,1,120,0|0,0:2|0:2,0:0:0:0:
42,281,8965,5,0,0:2:0:0:
200,358,9659,2,0,L|290:355,2,80,0|0|0,0:2|0:2|0:2,0:0:0:0:
200,358,11740,1,0,0:0:0:0:
456,341,13127,6,0,P|472:296|325:246,1,240,0|0,0:2|0:0,0:0:0:0:
282,303,14514,1,0,0:2:0:0:
116,362,15208,1,0,0:0:0:0:
31,233,15902,2,0,P|17:169|34:100,1,120,0|0,0:2|0:2,0:0:0:0:
26,116,17983,1,0,0:0:0:0:
174,21,18676,6,0,P|301:82|253:198,1,280,0|0,0:2|0:2,0:0:0:0:
98,250,20584,2,0,L|19:250,1,80,0|0,0:2|0:2,0:0:0:0:
12,117,21451,2,0,P|146:83|261:109,1,240,0|0,0:2|0:0,0:0:0:0:
319,146,22838,5,8,1:2:0:0:
338,321,23532,1,0,1:2:0:0:
162,309,24225,6,0,L|72:303,2,80,4|0|0,1:0|1:2|1:2,0:0:0:0:
240,267,25266,1,0,1:2:0:0:
301,329,25613,2,0,P|317:346|372:360,1,80,0|0,1:0|1:2,0:0:0:0:
458,360,26306,2,0,L|472:271,1,80,0|0,1:2|1:2,0:0:0:0:
486,194,27000,5,0,1:0:0:0:
461,109,27347,1,0,1:2:0:0:
395,50,27694,2,0,P|356:36|304:37,1,80,0|8,1:2|1:2,0:0:0:0:
231,53,28387,2,0,P|184:64|111:52,2,120,0|0|0,1:2|1:2|1:2,0:0:0:0:
290,114,29774,6,0,P|300:155|293:204,1,80,0|0,1:0|1:2,0:0:0:0:
263,275,30468,1,0,1:2:0:0:
210,205,30815,1,0,1:2:0:0:
130,242,31162,2,0,P|120:283|127:332,1,80,0|0,1:0|1:2,0:0:0:0:
186,382,31855,1,0,1:2:0:0:
268,350,32202,1,0,1:2:0:0:
354,364,32549,6,0,L|359:283,1,80,8|8,1:2|1:2,0:0:0:0:
297,222,33243,2,0,L|292:141,1,80,8|8,1:2|1:2,0:0:0:0:
355,80,33936,2,0,P|261:59|208:172,1,240,8|8,1:2|1:2,0:0:0:0:
213,260,35324,6,0,P|139:275|45:253,2,160,4|8|0,1:0|1:2|0:0,0:0:0:0:
383,215,37405,1,8,1:2:0:0:
311,54,38098,2,0,P|385:39|479:61,2,160,0|8|0,1:2|1:2|0:0,0:0:0:0:
186,178,40179,2,0,L|179:264,1,80,8|8,1:2|1:2,0:0:0:0:
218,336,40873,6,0,P|269:346|378:328,1,160,4|0,1:0|0:2,0:0:0:0:
449,282,41913,1,8,1:2:0:0:
481,200,42260,2,0,L|485:120,1,80,0|8,1:0|1:2,0:0:0:0:
397,121,42954,2,0,L|401:41,1,80,0|8,0:2|1:2,0:0:0:0:
313,28,43647,6,0,P|262:18|153:36,1,160,0|0,1:0|0:2,0:0:0:0:
82,82,44688,1,8,1:2:0:0:
36,157,45035,2,0,P|27:211|43:277,2,120,0|8|8,1:2|1:2|1:2,0:0:0:0:
124,160,46422,5,0,1:0:0:0:
194,213,46769,1,8,1:2:0:0:
227,293,47115,2,0,P|250:345|277:368,1,80,0|8,0:2|1:2,0:0:0:0:
354,365,47809,2,0,L|448:359,1,80,0|8,1:0|1:2,0:0:0:0:
496,297,48503,1,0,0:0:0:0:
433,234,48850,1,8,1:2:0:0:
495,171,49196,6,0,L|485:88,1,80,8|8,1:2|1:2,0:0:0:0:
403,124,49890,2,0,L|393:41,1,80,8|8,1:2|1:2,0:0:0:0:
305,45,50584,2,0,P|289:90|298:161,2,120,8|8|8,1:2|1:2|1:2,0:0:0:0:
219,25,51971,6,0,P|175:26|134:44,1,80,4|2,1:0|1:2,0:0:0:0:
71,91,52665,1,2,1:2:0:0:
56,177,53011,1,2,1:2:0:0:
75,262,53358,2,0,L|101:339,1,80,2|2,1:2|1:2,0:0:0:0:
188,337,54052,2,0,L|214:260,1,80,2|2,1:2|1:2,0:0:0:0:
301,261,54746,6,0,P|308:304|296:346,2,80,2|2|2,1:2|1:2|1:2,0:0:0:0:
257,185,55786,1,2,1:2:0:0:
216,106,56133,2,0,P|252:96|305:110,1,80,0|0,1:2|1:2,0:0:0:0:
375,134,56826,2,0,P|413:144|452:137,1,80,0|2,1:2|1:2,0:0:0:0:
512,72,57520,5,2,1:2:0:0:
448,11,57867,2,0,P|409:0|370:7,1,80,2|2,1:2|1:2,0:0:0:0:
300,61,58561,1,2,1:2:0:0:
262,140,58907,2,0,L|261:219,1,80,2|2,1:2|1:2,0:0:0:0:
181,258,59601,2,0,L|180:337,1,80,2|2,1:2|1:2,0:0:0:0:
95,362,60295,6,0,P|61:337|50:256,2,120,8|8|8,1:2|1:2|1:2,0:0:0:0:
181,376,61682,2,0,L|233:369,1,40,8|8,1:2|1:2,0:0:0:0:
282,308,62202,1,8,1:2:0:0:
219,245,62549,1,8,1:2:0:0:
327,170,63069,6,0,P|366:164|410:168,1,80,4|8,1:0|1:2,0:0:0:0:
476,220,63763,1,0,0:2:0:0:
498,305,64110,1,8,1:2:0:0:
435,367,64457,2,0,P|396:373|352:369,1,80,0|8,1:0|1:2,0:0:0:0:
269,349,65150,1,0,0:2:0:0:
206,287,65497,1,8,1:2:0:0:
176,204,65844,6,0,L|165:107,1,80,0|8,1:0|1:2,0:0:0:0:
229,62,66537,1,0,0:2:0:0:
291,124,66884,1,8,1:2:0:0:
370,86,67231,2,0,P|407:77|452:79,2,80,0|8|0,1:2|1:2|0:2,0:0:0:0:
291,124,68272,1,8,1:2:0:0:
250,201,68618,6,0,L|248:282,1,80,0|8,1:0|1:2,0:0:0:0:
159,280,69312,2,0,L|157:200,1,80,0|8,0:2|1:2,0:0:0:0:
149,112,70006,2,0,P|112:99|64:105,2,80,0|8|0,1:0|1:2|0:0,0:0:0:0:
230,145,71046,1,8,1:2:0:0:
299,199,71393,2,0,L|309:280,1,80,8|8,1:2|1:2,0:0:0:0:
397,278,72087,2,0,L|407:197,1,80,8|8,1:2|1:2,0:0:0:0:
415,111,72780,6,0,P|385:66|323:46,1,120,0|0,1:2|1:2,0:0:0:0:
237,58,73647,2,0,P|180:62|113:49,1,120,0|4,1:2|1:0,0:0:0:0:
43,97,74514,6,0,L|36:181,2,80,0|8|0,0:2|1:2|0:2,0:0:0:0:
118,50,75555,2,0,P|159:46|201:57,1,80,0|0,0:2|1:2,0:0:0:0:
265,109,76248,1,8,1:2:0:0:
313,278,76942,6,0,L|320:362,2,80,0|0|8,1:2|0:2|1:2,0:0:0:0:
435,152,78329,1,0,0:2:0:0:
311,26,79023,2,0,P|277:15|226:25,1,80,8|8,1:2|1:2,0:0:0:0:
153,58,79717,5,0,1:2:0:0:
102,129,80063,2,0,L|94:209,2,80,0|8|0,0:2|1:2|0:0,0:0:0:0:
263,199,81451,1,0,1:2:0:0:
286,284,81798,2,0,P|306:326|344:357,1,80,8|0,1:2|0:2,0:0:0:0:
415,369,82491,6,0,P|477:333|459:257,1,160,0|8,1:2|1:2,0:0:0:0:
390,202,83532,1,0,1:2:0:0:
302,209,83878,1,0,1:2:0:0:
140,279,84572,2,0,P|111:286|52:274,1,80,0|0,1:2|0:2,0:0:0:0:
25,198,85266,6,0,L|18:73,2,120,4|0|8,1:0|0:2|1:2,0:0:0:0:
61,278,86653,1,0,1:2:0:0:
144,309,87000,1,8,1:2:0:0:
232,309,87347,2,0,P|276:304|316:286,1,80,0|8,0:2|1:2,0:0:0:0:
375,232,88040,6,0,P|419:204|502:208,2,120,0|0|8,1:2|0:2|1:2,0:0:0:0:
290,205,89428,1,0,1:2:0:0:
313,120,89774,1,8,1:2:0:0:
250,58,90121,2,0,P|206:44|162:47,1,80,8|8,1:2|1:2,0:0:0:0:
86,65,90815,6,0,P|58:118|80:186,2,120,0|0|8,1:2|0:2|1:2,0:0:0:0:
146,129,92202,1,0,1:2:0:0:
205,193,92549,2,0,L|211:278,2,80,8|0|8,1:2|0:2|1:2,0:0:0:0:
267,130,93589,2,0,P|320:102|388:124,2,120,0|0|8,1:2|0:2|1:2,0:0:0:0:
205,193,94977,5,8,1:2:0:0:
168,365,95670,1,8,1:2:0:0:
66,50,107462,5,4,1:0:0:0:
25,127,107809,2,0,P|17:208|43:297,1,160,8|8,1:2|1:2,0:0:0:0:
109,332,108850,1,0,1:0:0:0:
194,349,109196,2,0,L|288:350,2,80,8|0|8,1:2|0:2|1:2,0:0:0:0:
167,266,110237,5,0,1:0:0:0:
233,208,110584,1,8,1:2:0:0:
316,181,110931,2,0,P|355:179|401:190,1,80,0|8,0:2|1:2,0:0:0:0:
466,238,111624,2,0,P|480:280|466:360,2,120,0|8|8,1:2|1:2|1:2,0:0:0:0:
386,275,113011,5,0,1:0:0:0:
310,320,113358,2,0,P|243:334|147:308,1,160,8|8,1:2|1:2,0:0:0:0:
101,243,114399,1,0,1:0:0:0:
113,155,114746,2,0,P|126:131|175:91,1,80,8|0,1:2|0:2,0:0:0:0:
252,84,115439,1,8,1:2:0:0:
336,110,115786,5,0,1:0:0:0:
401,168,116133,2,0,P|415:235|389:331,1,160,8|8,1:2|1:2,0:0:0:0:
309,348,117173,1,0,1:2:0:0:
221,356,117520,1,0,1:2:0:0:
143,313,117867,2,0,L|139:226,1,80,0|8,1:2|1:2,0:0:0:0:
169,150,118561,6,0,P|95:135|1:157,2,160,4|8|0,1:0|1:2|0:0,0:0:0:0:
342,181,120642,1,8,1:2:0:0:
262,338,121335,2,0,P|336:353|430:331,2,160,0|8|0,1:2|1:2|0:0,0:0:0:0:
89,307,123416,2,0,L|79:222,1,80,8|8,1:2|1:2,0:0:0:0:
68,139,124110,6,0,P|145:121|224:132,1,160,4|0,1:0|0:2,0:0:0:0:
306,164,125150,1,8,1:2:0:0:
385,202,125497,2,0,P|419:209|477:203,1,80,0|8,1:0|1:2,0:0:0:0:
504,127,126191,2,0,P|507:87|499:48,1,80,0|8,0:2|1:2,0:0:0:0:
414,25,126884,6,0,P|336:7|257:18,1,160,0|0,1:0|0:2,0:0:0:0:
181,62,127925,1,8,1:2:0:0:
124,129,128272,2,0,P|68:141|8:124,2,120,0|8|8,1:2|1:2|1:2,0:0:0:0:
181,62,129659,6,0,P|206:97|211:146,1,80,0|8,1:0|1:2,0:0:0:0:
192,218,130352,1,0,0:2:0:0:
130,280,130699,1,8,1:2:0:0:
192,342,131046,2,0,L|277:338,1,80,0|8,1:0|1:2,0:0:0:0:
334,275,131740,2,0,L|419:279,1,80,0|8,0:0|1:2,0:0:0:0:
476,216,132433,6,0,L|466:133,1,80,8|8,1:2|1:2,0:0:0:0:
384,169,133127,2,0,L|374:86,1,80,8|8,1:2|1:2,0:0:0:0:
311,27,133821,2,0,P|266:11|195:20,2,120,8|8|8,1:2|1:2|1:2,0:0:0:0:
289,112,135208,6,0,P|273:151|270:197,1,80,4|2,1:0|1:2,0:0:0:0:
275,276,135902,1,2,1:2:0:0:
333,341,136248,1,2,1:2:0:0:
417,366,136595,2,0,P|456:365|496:348,1,80,2|2,1:2|1:2,0:0:0:0:
493,261,137289,2,0,P|456:245|416:244,1,80,2|2,1:2|1:2,0:0:0:0:
328,239,137983,6,0,P|288:237|251:222,2,80,2|2|2,1:2|1:2|1:2,0:0:0:0:
375,165,139023,1,2,1:2:0:0:
462,176,139370,2,0,L|467:90,1,80,2|2,1:2|1:2,0:0:0:0:
402,36,140063,2,0,P|365:21|325:19,1,80,2|2,1:2|1:2,0:0:0:0:
265,84,140757,5,2,1:2:0:0:
209,152,141104,2,0,P|169:156|131:146,1,80,2|2,1:2|1:2,0:0:0:0:
71,82,141798,1,2,1:2:0:0:
8,144,142144,2,0,L|18:223,1,80,2|2,1:2|1:2,0:0:0:0:
104,241,142838,2,0,L|94:320,1,80,2|2,1:2|1:2,0:0:0:0:
166,370,143532,6,0,P|224:365|264:322,2,120,8|8|8,1:2|1:2|1:2,0:0:0:0:
93,320,144919,2,0,L|101:268,1,40,8|8,1:2|1:2,0:0:0:0:
36,218,145439,1,8,1:2:0:0:
98,155,145786,1,8,1:2:0:0:
256,192,146306,6,0,P|291:218|329:224,1,80,4|8,1:0|1:2,0:0:0:0:
414,221,147000,1,0,0:2:0:0:
484,167,147347,1,8,1:2:0:0:
466,80,147694,2,0,P|431:54|393:48,1,80,0|8,1:0|1:2,0:0:0:0:
308,51,148387,1,0,0:2:0:0:
238,105,148734,1,8,1:2:0:0:
155,135,149081,6,0,P|118:141|68:135,1,80,0|8,1:0|1:2,0:0:0:0:
13,199,149774,1,0,0:2:0:0:
66,268,150121,1,8,1:2:0:0:
150,243,150468,2,0,P|187:234|232:236,1,80,0|8,1:2|1:2,0:0:0:0:
301,285,151162,2,0,P|340:286|379:277,1,80,0|8,0:0|1:2,0:0:0:0:
441,215,151855,6,0,L|439:134,1,80,0|8,1:0|1:2,0:0:0:0:
354,109,152549,2,0,L|352:189,1,80,0|8,0:2|1:2,0:0:0:0:
289,251,153243,2,0,P|252:264|204:258,2,80,0|8|0,1:0|1:2|0:0,0:0:0:0:
240,176,154283,1,8,1:2:0:0:
152,166,154630,2,0,L|71:156,1,80,8|8,1:2|1:2,0:0:0:0:
72,67,155324,2,0,L|153:57,1,80,8|8,1:2|1:2,0:0:0:0:
239,52,156017,6,0,P|274:108|264:176,1,120,8|8,1:2|1:2,0:0:0:0:
242,243,156884,2,0,P|240:302|274:350,1,120,0|4,1:2|1:0,0:0:0:0:
360,364,157751,6,0,L|444:371,2,80,0|8|0,0:2|1:2|0:2,0:0:0:0:
369,276,158792,2,0,P|382:239|418:210,1,80,0|0,0:2|1:2,0:0:0:0:
495,185,159485,1,8,1:2:0:0:
355,77,160179,6,0,L|271:84,2,80,0|0|8,1:2|0:2|1:2,0:0:0:0:
479,201,161566,1,0,0:2:0:0:
353,325,162260,2,0,P|312:340|267:337,1,80,8|8,1:2|1:2,0:0:0:0:
190,319,162954,5,0,1:2:0:0:
123,261,163300,2,0,L|115:181,2,80,0|8|0,0:2|1:2|0:0,0:0:0:0:
273,169,164688,1,0,1:2:0:0:
359,151,165035,2,0,P|338:109|303:87,1,80,8|0,1:2|0:0,0:0:0:0:
224,96,165728,6,0,L|56:111,1,160,0|8,1:2|1:2,0:0:0:0:
14,183,166769,1,0,1:2:0:0:
62,256,167115,1,0,1:2:0:0:
235,227,167809,2,0,P|268:226|313:238,1,80,8|0,1:2|0:2,0:0:0:0:
380,295,168503,1,4,1:0:0:0:
256,192,168676,12,0,171277,1:2:0:0:
66,148,179601,6,0,P|117:136|216:185,1,160,0|8,1:2|1:2,0:0:0:0:
262,251,180642,1,0,0:2:0:0:
301,329,180988,2,0,P|332:354|387:352,1,80,0|0,0:2|1:0,0:0:0:0:
458,349,181682,2,0,L|477:268,1,80,8|0,1:2|0:2,0:0:0:0:
495,184,182376,6,0,P|452:152|335:154,1,160,0|8,1:2|1:2,0:0:0:0:
265,175,183416,1,0,0:0:0:0:
182,204,183763,2,0,P|143:204|98:179,1,80,0|8,0:2|1:2,0:0:0:0:
106,98,184457,2,0,P|141:80|181:80,1,80,8|8,1:2|1:2,0:0:0:0:
269,76,185150,6,0,L|428:70,1,160,0|8,1:2|1:2,0:0:0:0:
461,151,186191,2,0,P|460:198|364:241,1,160,0|0,0:2|1:2,0:0:0:0:
288,205,187231,2,0,P|248:195|199:202,2,80,8|0|0,1:2|0:2|0:2,0:0:0:0:
136,332,190699,5,4,1:0:0:0:
376,332,191740,1,8,1:2:0:0:
256,124,192780,2,0,L|256:221,1,80,0|0,3:0|3:0,0:0:0:0:
200,272,193474,2,0,P|256:293|322:262,1,120,4|4,1:0|1:0,0:0:0:0:
376,41,196248,5,4,1:0:0:0:
136,41,197289,1,4,1:0:0:0:
256,373,198676,1,8,1:2:0:0:
256,284,199023,6,0,P|242:234|206:160,2,120,8|8|8,1:2|1:2|1:2,0:0:0:0:
332,328,200410,1,0,1:2:0:0:
417,350,200757,1,0,1:2:0:0:
492,304,201104,1,0,1:2:0:0:
498,128,201798,6,0,P|481:86|451:60,1,80,4|8,1:0|1:2,0:0:0:0:
370,41,202491,1,0,0:2:0:0:
284,63,202838,1,8,1:2:0:0:
207,107,203185,2,0,P|165:114|115:95,1,80,0|8,1:0|1:2,0:0:0:0:
42,91,203878,1,0,0:2:0:0:
19,176,204225,1,8,1:2:0:0:
47,259,204572,5,0,1:0:0:0:
116,312,204919,2,0,P|168:324|204:321,1,80,8|0,1:2|0:2,0:0:0:0:
277,293,205613,1,8,1:2:0:0:
357,257,205959,2,0,P|395:246|435:246,2,80,0|8|0,1:2|1:2|0:2,0:0:0:0:
286,205,207000,1,8,1:2:0:0:
203,174,207347,6,0,P|185:138|181:91,1,80,0|8,1:0|1:2,0:0:0:0:
171,11,208040,1,0,0:2:0:0:
82,11,208387,1,8,1:2:0:0:
72,98,208734,2,0,P|67:137|49:173,1,80,0|8,1:0|1:2,0:0:0:0:
13,253,209428,1,0,0:0:0:0:
47,333,209774,1,8,1:2:0:0:
131,357,210121,6,0,L|262:343,2,120,8|8|0,1:2|1:2|1:0,0:0:0:0:
47,333,211509,2,0,P|34:289|81:232,1,120,0|0,1:2|1:2,0:0:0:0:
161,214,212376,2,0,L|166:90,1,120,0|4,1:2|1:0,0:0:0:0:
253,94,213243,6,0,L|255:184,2,80,0|8|0,0:2|1:2|0:2,0:0:0:0:
315,31,214283,2,0,P|356:27|398:38,1,80,0|0,0:2|1:2,0:0:0:0:
451,102,214977,1,8,1:2:0:0:
450,277,215670,6,0,L|448:367,2,80,0|0|8,1:2|0:2|1:2,0:0:0:0:
299,368,217058,1,0,0:2:0:0:
174,244,217751,2,0,P|163:210|173:159,1,80,8|8,1:2|1:2,0:0:0:0:
216,92,218445,5,0,1:2:0:0:
298,62,218792,2,0,L|378:54,2,80,0|8|0,0:2|1:2|0:0,0:0:0:0:
283,149,219832,1,8,1:2:0:0:
27,81,220873,1,8,1:2:0:0:
86,146,221220,6,0,P|99:198|94:231,1,80,4|8,1:0|1:2,0:0:0:0:
72,308,221913,1,0,0:2:0:0:
142,361,222260,1,8,1:2:0:0:
218,317,222607,2,0,P|270:304|303:309,1,80,0|8,1:0|1:2,0:0:0:0:
380,331,223300,1,0,0:0:0:0:
459,293,223647,1,8,1:2:0:0:
488,210,223994,6,0,P|490:170|477:132,1,80,0|8,1:0|1:2,0:0:0:0:
397,95,224688,1,0,0:2:0:0:
321,139,225035,1,8,1:2:0:0:
258,76,225381,2,0,P|213:60|142:69,2,120,0|8|8,1:2|1:2|1:2,0:0:0:0:
321,139,226769,5,0,1:0:0:0:
258,201,227115,2,0,L|99:218,1,160,8|8,1:2|1:2,0:0:0:0:
36,280,228156,1,0,1:0:0:0:
99,342,228503,2,0,L|258:359,1,160,8|8,1:2|1:2,0:0:0:0:
344,376,229543,6,0,P|425:357|452:280,1,160,0|0,1:2|1:2,0:0:0:0:
469,204,230584,1,8,1:2:0:0:
462,116,230931,2,0,L|452:73,1,40,8|8,1:2|1:2,0:0:0:0:
375,34,231451,1,8,1:2:0:0:
213,183,232318,6,0,P|171:199|124:200,1,80,6|2,1:2|1:2,0:0:0:0:
49,184,233011,1,2,1:2:0:0:
10,105,233358,1,10,1:2:0:0:
52,27,233705,2,0,P|94:13|145:22,1,80,10|2,1:2|1:2,0:0:0:0:
200,68,234399,2,0,P|239:70|277:57,1,80,2|2,1:2|1:2,0:0:0:0:
363,39,235092,6,0,P|379:81|380:128,1,80,2|2,1:2|1:2,0:0:0:0:
364,203,235786,1,2,1:2:0:0:
285,242,236133,1,10,1:2:0:0:
215,187,236480,2,0,P|196:230|203:278,1,80,2|2,1:2|1:2,0:0:0:0:
109,262,237173,2,0,P|102:222|78:190,1,80,2|2,1:2|1:2,0:0:0:0:
36,113,237867,6,0,P|73:96|127:90,1,80,2|2,1:2|1:2,0:0:0:0:
199,81,238561,1,2,1:2:0:0:
271,130,238907,1,2,1:2:0:0:
351,93,239254,1,10,1:2:0:0:
423,142,239601,2,0,L|428:223,2,80,2|2|2,1:2|1:2|1:2,0:0:0:0:
351,93,240642,5,0,0:2:0:0:
271,130,240988,1,0,1:2:0:0:
230,208,241335,1,0,0:2:0:0:
254,292,241682,1,0,1:2:0:0:
322,346,242029,1,8,1:2:0:0:
496,323,242722,1,8,1:2:0:0:
256,192,243416,12,0,246754,0:2:0:0:
