osu file format v14

[General]
AudioFilename: audio.mp3
AudioLeadIn: 0
PreviewTime: 51972
Countdown: 0
SampleSet: Soft
StackLeniency: 0.4
Mode: 0
LetterboxInBreaks: 0
WidescreenStoryboard: 0

[Editor]
DistanceSpacing: 1.5
BeatDivisor: 4
GridSize: 32
TimelineZoom: 1

[Metadata]
Title:Snow halation
TitleUnicode:Snow halation
Artist:Sayaka Sasaki
ArtistUnicode:佐咲紗花
Creator:ktgster
Version:Special
Source:ラブライブ! School idol project
Tags:SAYAKAVER love live! 2期 2nd season
BeatmapID:1451782
BeatmapSetID:685864

[Difficulty]
HPDrainRate:6.5
CircleSize:5
OverallDifficulty:9
ApproachRate:9.2
SliderMultiplier:2
SliderTickRate:1

[Events]
//Background and Video events
0,0,"bg.png",0,0
//Break Periods
//Storyboard Layer 0 (Background)
//Storyboard Layer 1 (Fail)
//Storyboard Layer 2 (Pass)
//Storyboard Layer 3 (Foreground)
//Storyboard Sound Samples

[TimingPoints]
642,346.820809248555,4,2,1,40,1,0
642,-125,4,2,1,40,0,0
12954,-125,4,2,1,5,0,0
13127,-125,4,2,1,40,0,0
17289,-200,4,2,1,40,0,0
22665,-50,4,2,1,70,0,0
24225,-100,4,2,1,60,0,0
28040,-66.6666666666667,4,2,1,60,0,0
28387,-100,4,2,1,60,0,0
30295,-66.6666666666667,4,2,1,60,0,0
30642,-100,4,2,1,60,0,0
30815,-66.6666666666667,4,2,1,60,0,0
31162,-100,4,2,1,60,0,0
31682,-66.6666666666667,4,2,1,60,0,0
35324,-142.857142857143,4,2,1,50,0,0
40179,-66.6666666666667,4,2,1,60,0,0
40873,-100,4,2,1,60,0,0
45208,-66.6666666666667,4,2,1,60,0,0
46422,-100,4,2,1,60,0,0
49196,-66.6666666666667,4,2,1,70,0,0
50757,-133.333333333333,4,2,1,70,0,0
51277,-100,4,2,1,60,0,0
51971,-76.9230769230769,4,2,2,70,0,1
56133,-76.9230769230769,4,2,1,70,0,1
57520,-76.9230769230769,4,2,2,70,0,1
60121,-76.9230769230769,4,2,1,70,0,1
61682,-50,4,2,1,80,0,1
62896,-200,4,2,1,40,0,0
63069,-90.9090909090909,4,2,1,70,0,1
67231,-76.9230769230769,4,2,1,70,0,1
68618,-90.9090909090909,4,2,1,70,0,1
71393,-66.6666666666667,4,2,1,70,0,1
72780,-66.6666666666667,4,2,1,80,0,1
73821,-200,4,2,1,80,0,1
74168,-200,4,2,1,50,0,0
85266,-100,4,2,1,60,0,0
94977,-50,4,2,1,70,0,0
96364,-200,4,3,1,30,0,0
106075,-200,4,2,1,40,0,0
107462,-100,4,2,1,60,0,0
117173,-200,4,2,1,60,0,0
118214,-66.6666666666667,4,2,1,60,0,0
118561,-142.857142857143,4,2,1,50,0,0
123416,-66.6666666666667,4,2,1,60,0,0
124110,-100,4,2,1,60,0,0
128445,-66.6666666666667,4,2,1,60,0,0
129659,-100,4,2,1,60,0,0
132433,-66.6666666666667,4,2,1,70,0,0
133994,-133.333333333333,4,2,1,70,0,0
134514,-100,4,2,1,60,0,0
135208,-76.9230769230769,4,2,2,70,0,1
143358,-76.9230769230769,4,2,1,70,0,1
144919,-50,4,2,1,80,0,1
146133,-200,4,2,1,40,0,0
146306,-90.9090909090909,4,2,1,70,0,1
154630,-66.6666666666667,4,2,1,70,0,1
156017,-50,4,2,1,80,0,1
156537,-66.6666666666667,4,2,1,80,0,1
157405,-200,4,2,1,50,0,0
190526,-200,4,2,1,5,0,0
190699,-66.6666666666667,4,2,1,70,0,0
194861,-200,4,2,1,60,0,0
196248,-66.6666666666667,4,2,1,70,0,0
201277,-200,4,2,1,70,0,0
201624,-200,4,2,1,40,0,0
201798,-90.9090909090909,4,2,1,70,0,1
205959,-76.9230769230769,4,2,1,70,0,1
207347,-90.9090909090909,4,2,1,70,0,1
210121,-66.6666666666667,4,2,1,70,0,1
211509,-50,4,2,1,80,0,1
212896,-200,4,2,1,50,0,0
219832,-66.6666666666667,4,2,1,60,0,0
220699,-100,4,2,1,60,0,0
230931,-66.6666666666667,4,2,1,60,0,0
232318,-100,4,2,2,70,0,1
242029,-50,4,2,1,80,0,1
243416,-50,4,2,1,40,0,0
246754,-50,4,2,1,5,0,0

[Colours]
Combo1 : 170,170,213
Combo2 : 0,124,185
Combo3 : 89,164,255
Combo4 : 192,130,255

[HitObjects]
50,310,642,5,0,0:2:0:0:
125,283,815,1,0,0:2:0:0:
196,318,988,1,0,0:2:0:0:
271,291,1162,1,0,0:2:0:0:
211,240,1335,1,0,0:2:0:0:
211,240,1682,1,0,0:2:0:0:
196,318,1855,1,0,0:2:0:0:
286,213,2029,5,0,0:2:0:0:
196,318,2202,1,0,0:2:0:0:
271,291,2376,1,0,0:2:0:0:
211,240,2549,1,0,0:2:0:0:
211,240,2896,1,0,0:2:0:0:
331,342,3069,1,0,0:2:0:0:
346,265,3243,1,0,0:2:0:0:
256,369,3416,5,0,0:2:0:0:
256,369,3763,1,0,0:2:0:0:
286,213,3936,1,0,0:2:0:0:
286,213,4803,5,0,0:2:0:0:
271,291,4977,1,0,0:2:0:0:
331,342,5150,1,0,0:2:0:0:
271,291,5324,1,0,0:2:0:0:
196,318,5497,1,0,0:2:0:0:
196,318,6104,6,0,L|190:349,2,20,0|0|0,0:2|0:2|0:2,0:0:0:0:
346,265,6537,1,0,0:2:0:0:
346,265,6711,1,0,0:2:0:0:
471,364,7058,1,0,0:2:0:0:
441,289,7231,1,0,0:2:0:0:
479,218,7405,1,0,0:2:0:0:
479,218,7491,6,0,L|510:212,2,20,0|0|0,0:2|0:2|0:2,0:0:0:0:
398,221,7751,1,0,0:2:0:0:
327,182,7925,1,0,0:2:0:0:
294,109,8098,1,0,0:2:0:0:
294,109,8445,1,0,0:2:0:0:
294,109,8878,6,0,L|288:78,2,20,0|0|0,0:2|0:2|0:2,0:0:0:0:
294,109,9659,1,0,0:2:0:0:
261,182,9832,1,0,0:2:0:0:
289,257,10006,1,0,0:2:0:0:
256,330,10179,1,0,0:2:0:0:
177,342,10352,5,0,0:2:0:0:
177,342,11653,2,0,L|146:345,2,20,0|0|0,0:2|0:2|0:2,0:0:0:0:
256,192,11826,12,0,12954,0:2:0:0:
75,276,13127,5,0,0:2:0:0:
106,202,13300,1,0,0:2:0:0:
63,134,13474,1,0,0:2:0:0:
94,60,13647,1,0,0:2:0:0:
192,369,14514,5,0,0:2:0:0:
223,295,14688,1,0,0:2:0:0:
180,227,14861,1,0,0:2:0:0:
211,153,15035,1,0,0:2:0:0:
295,26,15902,5,0,0:2:0:0:
295,26,16422,1,0,0:2:0:0:
318,330,17289,6,0,L|324:381,3,50,0|0|0|0,0:2|0:2|0:2|0:2,0:0:0:0:
437,276,18676,5,0,0:2:0:0:
406,202,18850,1,0,0:2:0:0:
449,134,19023,1,0,0:2:0:0:
418,60,19196,1,0,0:2:0:0:
320,369,19890,5,0,0:2:0:0:
289,295,20410,1,0,0:2:0:0:
332,227,20584,1,0,0:2:0:0:
301,153,20931,1,0,0:2:0:0:
217,26,21451,5,0,0:2:0:0:
217,26,21971,1,0,0:2:0:0:
194,330,22665,5,0,1:2:0:0:
194,330,22751,1,0,1:2:0:0:
194,330,22838,2,0,L|312:313,1,100,8|0,1:2|0:2,0:0:0:0:
507,292,23011,1,0,1:2:0:0:
194,330,23532,6,0,L|312:313,1,100,0|0,1:2|0:2,0:0:0:0:
507,292,23705,1,8,1:2:0:0:
65,206,24225,6,0,B|89:154|89:154|64:28,1,150,4|0,1:0|0:2,0:0:0:0:
147,218,24572,2,0,B|171:166|171:166|146:40,1,150,0|0,1:2|0:2,0:0:0:0:
229,230,24919,2,0,B|253:178|253:178|228:52,1,150,0|0,1:2|0:2,0:0:0:0:
311,242,25266,2,0,B|335:190|335:190|310:64,1,150,0|0,1:2|0:2,0:0:0:0:
499,215,25613,6,0,B|475:267|475:267|500:393,1,150,0|0,1:0|0:2,0:0:0:0:
417,203,25959,2,0,B|393:255|393:255|418:381,1,150,0|0,1:2|0:2,0:0:0:0:
335,191,26306,2,0,B|311:243|311:243|336:369,1,150,0|0,1:2|0:2,0:0:0:0:
253,179,26653,2,0,B|229:231|229:231|254:357,1,150,0|0,1:2|0:2,0:0:0:0:
0,284,27000,6,0,B|52:308|52:308|178:283,1,150,0|0,1:0|0:2,0:0:0:0:
12,202,27347,2,0,B|64:226|64:226|190:201,1,150,0|0,1:2|0:2,0:0:0:0:
24,120,27694,2,0,B|76:144|76:144|202:119,1,150,0|0,1:2|0:2,0:0:0:0:
36,38,28040,6,0,B|88:62|88:62|214:37,1,150,8|0,1:2|0:2,0:0:0:0:
363,15,28387,5,0,1:2:0:0:
166,125,28561,2,0,B|218:101|218:101|344:126,1,150,8|0,1:2|0:2,0:0:0:0:
512,207,28907,2,0,B|460:183|460:183|334:208,1,150,0|0,1:2|0:2,0:0:0:0:
234,270,29254,2,0,P|227:242|238:198,1,50,8|0,1:2|0:2,0:0:0:0:
339,373,29428,1,0,1:2:0:0:
447,206,29774,6,0,B|423:154|423:154|448:28,1,150,0|0,1:0|0:2,0:0:0:0:
365,218,30121,2,0,B|328:139,1,50,0|0,1:2|0:0,0:0:0:0:
470,309,30295,6,0,B|418:285|418:285|292:310,1,150,0|0,1:0|1:2,0:0:0:0:
413,377,30642,1,0,0:2:0:0:
365,218,30815,2,0,B|274:236|274:236|222:212,1,150,0|0,1:2|0:2,0:0:0:0:
376,135,31162,6,0,B|286:154|286:154|234:130,1,150,0|0,1:0|0:2,0:0:0:0:
387,52,31509,2,0,L|320:66,1,50,0|0,1:2|0:0,0:0:0:0:
483,54,31682,6,0,B|459:106|459:106|477:197,1,150,8|0,1:2|1:2,0:0:0:0:
376,135,32029,1,0,0:2:0:0:
390,373,32202,2,0,B|414:321|414:321|396:230,1,150,0|0,1:2|0:2,0:0:0:0:
163,313,32549,6,0,L|319:304,1,150.000005722046,8|0,1:2|1:2,0:0:0:0:
138,297,32896,2,0,L|294:288,1,150.000005722046,8|0,1:2|1:2,0:0:0:0:
113,281,33243,2,0,L|269:272,1,150.000005722046,8|0,1:2|1:2,0:0:0:0:
88,265,33589,2,0,L|244:256,1,150.000005722046,8|0,1:2|1:2,0:0:0:0:
63,249,33936,6,0,L|190:241,1,75.0000028610231,8|0,1:2|0:2,0:0:0:0:
244,184,34110,2,0,L|371:176,1,75.0000028610231,8|0,1:2|0:2,0:0:0:0:
38,233,34283,6,0,L|165:225,1,75.0000028610231,8|0,1:2|0:2,0:0:0:0:
219,168,34457,2,0,L|346:160,1,75.0000028610231,8|0,1:2|0:2,0:0:0:0:
13,217,34630,6,0,L|140:209,1,75.0000028610231,8|0,1:2|0:2,0:0:0:0:
200,158,34803,1,0,1:2:0:0:
200,158,34890,1,0,1:2:0:0:
200,158,34977,6,0,P|303:174|232:292,1,225.000008583069,8|0,1:2|0:2,0:0:0:0:
206,335,35324,6,0,L|26:323,1,174.999994659424,4|0,1:0|0:2,0:0:0:0:
13,323,35844,1,0,1:2:0:0:
115,84,36017,2,0,B|91:164|91:164|119:268,1,174.999994659424,8|0,1:2|0:2,0:0:0:0:
19,112,36537,6,0,P|7:161|28:228,1,104.999996795654,0|0,1:2|0:2,0:0:0:0:
24,230,36884,1,0,1:2:0:0:
234,284,37058,2,0,P|239:249|215:174,1,104.999996795654,0|0,1:2|0:2,0:0:0:0:
342,343,37405,2,0,B|233:310|233:310|91:348,1,244.999992523194,8|0,1:2|0:2,0:0:0:0:
36,259,38098,6,0,L|24:79,1,174.999994659424,0|0,1:2|0:2,0:0:0:0:
24,66,38618,1,0,1:2:0:0:
252,0,38792,2,0,B|276:80|276:80|248:184,1,174.999994659424,8|0,1:2|0:2,0:0:0:0:
349,21,39312,6,0,P|361:70|340:137,1,104.999996795654,0|0,1:2|0:2,0:0:0:0:
344,139,39659,1,0,1:2:0:0:
226,255,39832,2,0,B|282:238|282:238|354:257,1,104.999996795654,0|0,1:2|0:2,0:0:0:0:
340,256,40179,6,0,L|467:248,1,75.0000028610231,8|0,1:2|0:2,0:0:0:0:
284,339,40352,1,0,1:2:0:0:
353,261,40526,6,0,L|480:253,1,75.0000028610231,8|0,1:2|0:2,0:0:0:0:
22,313,40873,6,0,B|74:289|74:289|200:314,1,150,4|0,1:0|0:2,0:0:0:0:
189,312,41220,1,8,1:2:0:0:
259,165,41393,1,0,0:2:0:0:
236,176,41480,1,0,0:2:0:0:
211,179,41566,1,0,0:2:0:0:
185,177,41653,1,0,0:2:0:0:
160,170,41740,1,0,1:2:0:0:
44,122,41913,2,0,B|3:100|3:100|150:75,1,150,8|0,1:2|0:2,0:0:0:0:
290,231,42260,6,0,B|238:255|238:255|112:230,1,150,0|0,1:0|0:2,0:0:0:0:
123,232,42607,1,8,1:2:0:0:
206,80,42780,1,0,0:2:0:0:
217,103,42867,1,0,0:2:0:0:
220,128,42954,1,0,0:2:0:0:
218,154,43040,1,0,0:2:0:0:
211,179,43127,1,0,1:2:0:0:
58,230,43300,2,0,P|118:228|189:292,1,150,8|0,1:2|0:2,0:0:0:0:
378,180,43647,6,0,B|326:156|326:156|200:181,1,150,0|0,1:0|0:2,0:0:0:0:
211,179,43994,1,8,1:2:0:0:
308,365,44168,1,0,0:2:0:0:
319,342,44254,1,0,0:2:0:0:
322,317,44341,1,0,0:2:0:0:
320,291,44428,1,0,0:2:0:0:
313,266,44514,1,0,1:2:0:0:
195,113,44688,2,0,B|217:72|217:72|242:219,1,150,8|0,1:2|0:2,0:0:0:0:
240,198,45035,6,0,L|186:189,1,50,0|0,1:2|0:2,0:0:0:0:
321,237,45208,6,0,L|81:197,1,225.000008583069,8|0,1:2|0:2,0:0:0:0:
359,275,45555,2,0,L|119:235,1,225.000008583069,8|0,1:2|0:2,0:0:0:0:
397,313,45902,6,0,L|277:293,1,75.0000028610231,0|0,1:2|0:2,0:0:0:0:
248,288,46075,2,0,L|175:276,1,75.0000028610231,8|0,1:2|0:2,0:0:0:0:
99,263,46248,2,0,L|25:250,1,75.0000028610231,8|0,1:2|0:2,0:0:0:0:
74,15,46422,6,0,B|50:67|50:67|75:193,1,150,0|0,1:0|0:2,0:0:0:0:
73,182,46769,1,8,1:2:0:0:
280,86,46942,1,0,0:2:0:0:
257,75,47029,1,0,0:2:0:0:
232,72,47115,1,0,0:2:0:0:
206,74,47202,1,0,0:2:0:0:
181,81,47289,1,0,1:2:0:0:
227,219,47462,1,8,1:2:0:0:
227,219,47636,1,0,0:0:0:0:
118,313,47809,6,0,B|170:337|170:337|296:312,1,150,0|0,1:0|0:2,0:0:0:0:
285,314,48156,1,8,1:2:0:0:
512,379,48329,2,0,B|460:355|460:355|334:380,1,150,0|0,0:2|0:2,0:0:0:0:
345,378,48676,1,0,1:2:0:0:
426,245,48850,1,8,1:2:0:0:
217,230,49023,1,0,0:0:0:0:
217,230,49110,1,0,0:2:0:0:
217,230,49196,6,0,L|177:-10,1,225.000008583069,8|0,1:2|0:2,0:0:0:0:
284,263,49543,6,0,L|307:20,1,225.000008583069,8|0,1:2|0:2,0:0:0:0:
340,312,49890,6,0,L|425:84,1,225.000008583069,8|0,1:2|0:2,0:0:0:0:
381,373,50237,6,0,L|522:175,1,225.000008583069,8|0,1:2|0:2,0:0:0:0:
183,356,50584,6,0,P|252:351|290:372,1,75.0000028610231,8|0,1:2|0:2,0:0:0:0:
0,303,50757,6,0,P|47:314|124:294,1,112.500004291535,8|0,1:2|0:2,0:0:0:0:
193,185,51104,2,0,L|203:146,1,37.5000014305115,8|0,1:2|0:2,0:0:0:0:
112,213,51277,5,0,0:2:0:0:
136,207,51364,1,0,0:2:0:0:
161,207,51451,1,0,1:2:0:0:
184,213,51537,1,0,1:2:0:0:
202,230,51624,1,8,1:2:0:0:
220,247,51711,1,0,0:2:0:0:
243,253,51798,1,8,1:2:0:0:
268,253,51884,1,0,0:2:0:0:
292,247,51971,6,0,P|368:241|506:300,1,194.999991073609,4|0,1:0|0:2,0:0:0:0:
274,209,52318,2,0,P|345:183|494:204,1,194.999991073609,2|0,1:2|0:2,0:0:0:0:
246,176,52665,2,0,P|308:132|457:114,1,194.999991073609,2|0,1:2|0:2,0:0:0:0:
210,151,53011,2,0,P|251:100|342:49,1,129.999994049073,2|0,1:2|0:2,0:0:0:0:
218,270,53272,1,0,0:2:0:0:
218,270,53358,6,0,P|142:264|4:323,1,194.999991073609,2|0,1:2|0:2,0:0:0:0:
236,232,53705,2,0,P|164:206|15:227,1,194.999991073609,2|0,1:2|0:2,0:0:0:0:
264,199,54052,2,0,P|201:155|52:137,1,194.999991073609,2|0,1:2|0:2,0:0:0:0:
300,174,54399,2,0,P|259:123|168:72,1,129.999994049073,2|0,1:2|0:2,0:0:0:0:
11,42,54659,1,0,0:2:0:0:
11,42,54746,6,0,P|87:48|225:-11,1,194.999991073609,2|0,1:2|0:2,0:0:0:0:
353,154,55092,2,0,P|262:118|166:121,1,194.999991073609,2|0,1:2|0:2,0:0:0:0:
2,246,55439,2,0,P|78:252|216:193,1,194.999991073609,2|0,1:2|0:2,0:0:0:0:
344,358,55786,2,0,P|253:322|157:325,1,194.999991073609,2|0,1:2|0:2,0:0:0:0:
3,347,56133,5,0,1:2:0:0:
93,184,56306,2,0,L|101:265,1,64.9999970245363,10|0,1:2|0:2,0:0:0:0:
3,347,56480,1,0,1:2:0:0:
206,384,56653,1,2,0:2:0:0:
206,384,56740,1,0,0:2:0:0:
206,384,56826,5,0,1:2:0:0:
93,184,57000,2,0,L|101:265,1,64.9999970245363,8|0,1:2|0:2,0:0:0:0:
206,384,57173,1,2,1:2:0:0:
7,152,57347,2,0,L|15:233,1,64.9999970245363,8|0,1:2|0:2,0:0:0:0:
189,280,57520,6,0,P|195:204|136:66,1,194.999991073609,2|0,1:2|0:2,0:0:0:0:
227,298,57867,2,0,P|253:226|232:77,1,194.999991073609,2|0,1:2|0:2,0:0:0:0:
260,326,58214,2,0,P|304:263|322:114,1,194.999991073609,2|0,1:2|0:2,0:0:0:0:
285,362,58561,2,0,P|336:321|387:230,1,129.999994049073,2|0,1:2|0:2,0:0:0:0:
480,170,58821,1,0,0:2:0:0:
480,170,58907,6,0,P|474:246|533:384,1,194.999991073609,2|0,1:2|0:2,0:0:0:0:
442,152,59254,2,0,P|416:224|437:373,1,194.999991073609,2|0,1:2|0:2,0:0:0:0:
409,124,59601,2,0,P|365:187|347:336,1,194.999991073609,2|0,1:2|0:2,0:0:0:0:
384,88,59948,2,0,P|358:110|287:143,1,64.9999970245363,2|0,1:2|0:2,0:0:0:0:
207,9,60121,2,0,P|238:18|267:32,1,64.9999970245363,8|0,1:2|0:2,0:0:0:0:
237,277,60295,6,0,L|226:175,1,64.9999970245363,8|0,1:2|0:2,0:0:0:0:
217,87,60468,1,0,1:2:0:0:
217,87,60642,1,0,1:2:0:0:
216,306,60815,6,0,L|205:204,1,64.9999970245363,8|0,1:2|0:2,0:0:0:0:
196,116,60988,1,0,0:2:0:0:
196,116,61162,1,0,1:2:0:0:
195,335,61335,6,0,L|184:233,1,64.9999970245363,8|0,1:2|0:2,0:0:0:0:
175,145,61509,1,0,1:2:0:0:
175,145,61595,1,0,1:2:0:0:
175,145,61682,6,0,L|186:247,1,100,8|0,1:2|0:2,0:0:0:0:
244,32,61855,6,0,L|280:366,1,300,8|0,1:2|0:2,0:0:0:0:
325,29,62202,6,0,L|361:363,1,300,8|0,1:2|0:2,0:0:0:0:
406,26,62549,6,0,L|442:360,1,300,8|0,1:2|0:2,0:0:0:0:
461,333,62896,6,0,L|456:291,1,25,0|0,0:2|0:2,0:0:0:0:
371,144,63069,6,0,B|342:193|342:193|356:321,1,165.000005035401,4|0,1:0|0:0,0:0:0:0:
357,327,63416,1,8,1:2:0:0:
141,244,63589,1,0,0:2:0:0:
166,231,63676,1,0,0:2:0:0:
193,228,63763,1,0,0:2:0:0:
222,230,63850,1,0,0:2:0:0:
249,238,63936,1,0,1:2:0:0:
51,374,64110,2,0,B|10:352|10:352|157:327,1,165.000005035401,8|0,1:2|0:0,0:0:0:0:
330,377,64457,6,0,B|358:327|358:327|344:199,1,165.000005035401,0|0,1:0|0:0,0:0:0:0:
344,194,64803,1,8,1:2:0:0:
172,123,64977,1,0,0:2:0:0:
159,148,65063,1,0,0:2:0:0:
156,175,65150,1,0,0:2:0:0:
158,204,65237,1,0,0:2:0:0:
166,231,65324,1,0,1:2:0:0:
2,88,65497,2,0,P|55:119|45:228,1,165.000005035401,8|0,1:2|0:0,0:0:0:0:
342,134,65844,6,0,B|292:162|292:162|164:148,1,165.000005035401,0|0,1:0|0:0,0:0:0:0:
159,148,66191,1,8,1:2:0:0:
274,368,66364,1,0,0:2:0:0:
261,343,66451,1,0,0:2:0:0:
258,316,66537,1,0,0:2:0:0:
260,287,66624,1,0,0:2:0:0:
274,266,66711,1,0,1:2:0:0:
274,266,66798,1,0,1:0:0:0:
274,266,66884,2,0,B|401:275|401:275|370:232,1,165.000005035401,8|0,1:2|0:0,0:0:0:0:
317,164,67231,5,0,1:2:0:0:
356,369,67405,1,2,0:2:0:0:
464,200,67578,2,0,L|472:119,1,64.9999970245363,8|0,1:2|0:2,0:0:0:0:
356,369,67751,1,2,1:2:0:0:
378,244,67925,5,0,0:2:0:0:
432,339,68098,1,2,1:2:0:0:
464,200,68272,2,0,L|472:119,1,64.9999970245363,8|0,1:2|0:2,0:0:0:0:
356,369,68445,1,2,1:2:0:0:
195,258,68618,6,0,B|245:230|245:230|373:244,1,165.000005035401,0|0,1:0|0:0,0:0:0:0:
378,244,68965,1,8,1:2:0:0:
297,42,69139,1,0,0:2:0:0:
310,67,69225,1,0,0:2:0:0:
313,94,69312,1,0,0:2:0:0:
311,123,69399,1,0,0:2:0:0:
309,156,69485,1,0,1:2:0:0:
309,156,69572,1,0,1:0:0:0:
309,156,69659,2,0,B|182:147|182:147|213:190,1,165.000005035401,8|0,1:2|0:0,0:0:0:0:
84,15,70006,6,0,B|112:65|112:65|98:193,1,165.000005035401,0|0,1:0|0:0,0:0:0:0:
98,198,70352,1,8,1:2:0:0:
34,368,70526,2,0,B|6:318|6:318|20:190,1,165.000005035401,0|0,0:2|0:2,0:0:0:0:
20,185,70873,1,0,1:2:0:0:
203,296,71046,2,0,P|155:309|75:263,1,110.000003356934,8|0,1:2|0:0,0:0:0:0:
289,364,71393,6,0,L|532:341,1,225.000008583069,8|0,1:2|0:2,0:0:0:0:
203,296,71740,2,0,L|446:273,1,225.000008583069,8|0,1:2|0:2,0:0:0:0:
117,228,72087,2,0,L|360:205,1,225.000008583069,8|0,1:2|0:2,0:0:0:0:
31,160,72433,2,0,L|159:147,1,75.0000028610231,8|0,1:2|0:2,0:0:0:0:
179,145,72607,2,0,L|254:138,1,75.0000028610231,0|0,1:2|0:2,0:0:0:0:
477,116,72780,6,0,P|428:41|261:50,1,225.000008583069,0|0,1:2|0:2,0:0:0:0:
179,145,73127,2,0,L|171:219,1,75.0000028610231,8|0,1:2|0:2,0:0:0:0:
8,327,73300,6,0,B|81:299|81:299|296:331,1,225.000008583069,0|0,1:2|0:2,0:0:0:0:
486,357,73647,1,0,1:2:0:0:
486,357,73734,1,0,1:2:0:0:
486,357,73821,6,0,L|475:280,1,75,8|0,1:2|0:2,0:0:0:0:
450,27,74168,5,4,1:0:0:0:
450,27,74514,1,0,0:2:0:0:
427,104,74688,1,0,1:2:0:0:
466,34,74861,2,0,L|481:149,1,100,8|0,1:2|0:2,0:0:0:0:
360,79,75381,1,0,1:2:0:0:
408,225,75555,5,0,0:2:0:0:
388,152,75728,1,0,1:2:0:0:
317,279,75902,1,0,1:2:0:0:
337,206,76075,1,0,0:2:0:0:
449,350,76248,2,0,B|414:336|414:336|340:349,1,100,8|0,1:2|0:2,0:0:0:0:
62,27,76942,5,0,1:2:0:0:
62,27,77289,1,0,0:2:0:0:
85,104,77462,1,0,1:2:0:0:
46,34,77636,2,0,L|31:149,1,100,8|0,1:2|0:2,0:0:0:0:
152,79,78156,1,0,1:2:0:0:
104,225,78329,5,0,0:2:0:0:
124,152,78503,1,0,1:2:0:0:
195,279,78676,1,0,1:2:0:0:
175,206,78850,1,0,0:2:0:0:
63,350,79023,2,0,L|115:343,1,50,8|0,1:2|1:2,0:0:0:0:
0,267,79370,2,0,L|52:274,1,50,8|0,1:2|0:2,0:0:0:0:
217,357,79717,5,0,1:2:0:0:
217,357,80063,1,0,0:2:0:0:
237,284,80237,1,0,1:2:0:0:
283,382,80410,1,8,1:2:0:0:
327,213,80584,2,0,B|313:248|313:248|326:322,1,100,0|0,0:2|1:2,0:0:0:0:
323,309,81277,5,0,1:2:0:0:
393,265,81451,1,0,1:2:0:0:
393,265,81624,1,0,0:2:0:0:
456,384,81798,2,0,L|449:332,1,50,8|0,1:2|1:2,0:0:0:0:
377,371,82144,1,0,0:2:0:0:
470,249,82318,1,0,1:2:0:0:
315,232,82491,5,0,1:2:0:0:
315,232,82665,1,0,0:2:0:0:
315,232,82838,1,0,0:2:0:0:
386,210,83011,1,0,1:2:0:0:
377,371,83185,2,0,L|384:319,1,50,8|0,1:2|0:2,0:0:0:0:
470,249,83532,1,0,1:2:0:0:
470,249,83705,1,0,0:2:0:0:
489,359,83878,5,0,1:2:0:0:
495,365,84399,1,0,1:2:0:0:
495,365,84485,1,0,1:2:0:0:
495,365,84572,1,0,1:2:0:0:
468,337,84659,1,0,0:2:0:0:
455,301,84746,1,0,1:2:0:0:
455,263,84832,1,0,0:2:0:0:
470,228,84919,1,0,0:2:0:0:
485,193,85006,1,0,0:2:0:0:
485,155,85092,1,0,0:2:0:0:
472,119,85179,1,0,0:2:0:0:
445,91,85266,6,0,B|393:67|393:67|267:92,1,150,4|0,1:0|0:2,0:0:0:0:
278,94,85613,1,0,1:2:0:0:
57,32,85786,2,0,B|109:56|109:56|235:31,1,150,0|0,0:2|0:2,0:0:0:0:
224,29,86133,1,0,1:2:0:0:
159,223,86306,2,0,P|148:177|170:122,1,100,8|0,1:2|0:2,0:0:0:0:
332,216,86653,6,0,B|356:268|356:268|331:394,1,150,0|0,1:2|0:2,0:0:0:0:
421,211,87000,2,0,B|397:159|397:159|422:33,1,150,8|0,1:2|0:2,0:0:0:0:
434,295,87347,1,0,0:2:0:0:
254,240,87520,1,0,1:2:0:0:
512,169,87694,2,0,P|523:215|507:273,1,100,8|0,1:2|0:2,0:0:0:0:
254,240,88040,6,0,L|317:240,1,50,0|0,1:2|0:2,0:0:0:0:
375,285,88214,1,0,0:0:0:0:
183,195,88387,1,8,1:2:0:0:
274,4,88561,2,0,B|250:56|250:56|275:182,1,150,0|0,0:2|0:2,0:0:0:0:
273,171,88907,1,0,1:2:0:0:
0,234,89081,2,0,L|102:236,1,100,8|0,1:2|0:2,0:0:0:0:
412,241,89428,5,0,1:2:0:0:
412,241,89514,1,0,1:2:0:0:
412,241,89601,2,0,L|403:171,1,50,0|0,1:2|1:2,0:0:0:0:
149,151,89774,5,8,1:2:0:0:
149,151,89861,1,0,1:2:0:0:
149,151,89948,2,0,L|140:81,1,50,0|0,1:2|1:2,0:0:0:0:
412,241,90121,5,8,1:2:0:0:
412,241,90208,1,0,1:2:0:0:
412,241,90295,1,0,1:2:0:0:
149,151,90468,5,8,1:2:0:0:
149,151,90555,1,0,1:2:0:0:
149,151,90642,1,0,1:2:0:0:
336,102,90815,6,0,L|336:165,1,50,0|0,1:2|0:2,0:0:0:0:
381,223,90989,1,0,0:0:0:0:
291,31,91162,1,8,1:2:0:0:
504,102,91335,2,0,B|452:78|452:78|326:103,1,150,0|0,0:2|0:2,0:0:0:0:
336,102,91682,1,0,1:2:0:0:
178,269,91855,2,0,L|180:167,1,100,8|0,1:2|0:2,0:0:0:0:
474,216,92202,6,0,B|422:192|422:192|296:217,1,150,0|0,1:2|0:2,0:0:0:0:
474,216,92549,2,0,B|498:164|498:164|473:38,1,150,8|0,1:2|0:2,0:0:0:0:
392,198,92896,2,0,B|416:146|416:146|404:82,1,100,0|0,0:2|1:2,0:0:0:0:
472,307,93243,2,0,B|420:283|420:283|294:308,1,150,8|0,1:2|0:2,0:0:0:0:
186,215,93589,6,0,L|248:220,1,50,0|0,1:2|0:2,0:0:0:0:
310,180,93763,1,0,0:0:0:0:
238,332,93936,1,8,1:2:0:0:
418,372,94110,2,0,B|394:320|394:320|419:194,1,150,0|0,0:2|0:2,0:0:0:0:
419,206,94457,1,0,1:2:0:0:
130,106,94630,2,0,L|232:108,1,100,8|0,1:2|0:2,0:0:0:0:
152,364,94977,6,0,L|169:246,1,100,8|0,1:2|0:2,0:0:0:0:
198,31,95150,1,8,1:2:0:0:
152,364,95497,5,0,1:2:0:0:
152,364,95584,1,0,1:2:0:0:
152,364,95670,2,0,L|169:246,1,100,8|0,1:2|0:2,0:0:0:0:
198,31,95844,1,8,1:2:0:0:
321,306,96364,5,0,0:2:0:0:
311,155,96711,1,0,0:2:0:0:
316,231,96884,1,0,0:2:0:0:
316,231,97231,5,0,0:2:0:0:
311,155,97405,1,0,0:2:0:0:
311,155,97751,5,0,0:2:0:0:
311,155,98098,1,0,0:2:0:0:
311,155,98445,1,0,0:2:0:0:
316,231,98618,1,0,0:2:0:0:
321,306,98792,1,0,0:2:0:0:
437,186,99139,5,0,0:2:0:0:
437,186,99485,1,0,0:2:0:0:
432,261,99659,1,0,0:2:0:0:
432,261,100006,5,0,0:2:0:0:
437,186,100179,1,0,0:2:0:0:
437,186,100526,5,0,0:2:0:0:
432,261,100699,1,0,0:2:0:0:
432,261,101046,1,0,0:2:0:0:
432,261,101393,5,0,0:2:0:0:
437,186,101566,1,0,0:2:0:0:
442,111,101740,1,0,0:2:0:0:
316,231,101913,5,0,0:2:0:0:
316,231,102260,1,0,0:2:0:0:
321,306,102433,1,0,0:2:0:0:
321,306,102780,5,0,0:2:0:0:
316,231,102954,1,0,0:2:0:0:
321,306,103127,1,0,0:2:0:0:
316,231,103300,5,0,0:2:0:0:
316,231,103647,1,0,0:2:0:0:
311,156,103821,1,0,0:2:0:0:
311,156,104168,5,0,0:2:0:0:
306,81,104341,1,0,0:2:0:0:
311,156,104514,1,0,0:2:0:0:
198,174,104688,5,0,0:2:0:0:
198,174,105035,1,0,0:2:0:0:
198,174,105555,1,0,0:2:0:0:
193,249,105728,1,0,0:2:0:0:
32,348,106075,6,0,L|87:344,2,50,0|0|0,0:2|0:2|0:2,0:0:0:0:
154,309,106595,1,0,0:2:0:0:
55,216,106769,2,0,L|59:271,3,50,0|0|0|0,0:2|0:2|0:2|0:2,0:0:0:0:
251,384,107462,6,0,B|227:332|227:332|252:206,1,150,4|0,1:0|0:2,0:0:0:0:
250,217,107809,1,8,1:2:0:0:
472,332,107983,2,0,P|412:345|329:265,1,150,0|0,0:2|0:0,0:0:0:0:
331,276,108329,1,0,1:2:0:0:
432,186,108503,1,8,1:2:0:0:
432,186,108676,1,0,0:0:0:0:
321,3,108850,6,0,B|297:55|297:55|322:181,1,150,0|0,1:0|0:2,0:0:0:0:
320,170,109196,1,8,1:2:0:0:
109,102,109370,1,0,0:2:0:0:
132,91,109457,1,0,0:2:0:0:
157,88,109543,1,0,0:2:0:0:
183,90,109630,1,0,0:2:0:0:
208,97,109717,1,0,1:2:0:0:
133,215,109890,2,0,B|158:168|158:168|175:215|135:279,1,150,8|0,1:2|0:2,0:0:0:0:
61,340,110237,6,0,P|126:330|239:364,1,150,0|0,1:0|0:2,0:0:0:0:
396,264,110584,2,0,B|344:240|344:240|218:265,1,150,8|0,1:2|0:2,0:0:0:0:
229,263,110931,1,0,0:2:0:0:
321,357,111104,1,0,1:2:0:0:
368,124,111277,2,0,B|343:171|343:171|326:124|366:60,1,150,8|0,1:2|0:2,0:0:0:0:
431,190,111624,5,0,1:2:0:0:
292,37,111798,2,0,P|263:102|265:180,1,150,8|0,1:2|0:2,0:0:0:0:
370,313,112144,2,0,P|372:238|342:170,1,150,8|0,1:2|0:2,0:0:0:0:
241,291,112491,2,0,L|323:286,1,50,0|0,1:2|0:2,0:0:0:0:
128,269,112665,2,0,L|210:264,1,50,8|0,1:2|0:0,0:0:0:0:
15,247,112838,2,0,L|97:242,1,50,8|0,1:2|0:0,0:0:0:0:
103,7,113011,6,0,B|79:59|79:59|104:185,1,150,0|0,1:0|0:2,0:0:0:0:
102,174,113358,1,8,1:2:0:0:
7,341,113532,2,0,P|29:274|6:163,1,150,0|0,0:2|0:0,0:0:0:0:
8,174,113878,1,0,1:2:0:0:
251,284,114052,2,0,B|185:298|185:298|94:280,1,150,8|0,1:2|0:2,0:0:0:0:
353,215,114399,6,0,B|301:191|301:191|175:216,1,150,0|0,1:0|0:2,0:0:0:0:
186,214,114746,1,8,1:2:0:0:
329,384,114919,1,0,0:2:0:0:
318,361,115006,1,0,0:2:0:0:
315,336,115092,1,0,0:2:0:0:
317,310,115179,1,0,0:2:0:0:
324,285,115266,1,0,1:2:0:0:
464,324,115439,2,0,B|511:349|511:349|464:366|400:326,1,150,8|0,1:2|0:2,0:0:0:0:
151,362,115786,6,0,B|203:338|203:338|329:363,1,150,0|0,1:0|0:2,0:0:0:0:
318,361,116133,1,8,1:2:0:0:
167,256,116306,2,0,B|115:280|115:280|-11:255,1,150,0|0,0:2|0:2,0:0:0:0:
0,257,116653,1,0,1:2:0:0:
239,182,116826,2,0,B|253:248|253:248|235:339,1,150,8|0,1:2|0:2,0:0:0:0:
405,361,117173,6,0,L|448:357,1,25,0|0,1:2|0:2,0:0:0:0:
438,264,117347,2,0,L|481:260,1,25,0|0,1:2|0:2,0:0:0:0:
411,345,117520,6,0,L|454:341,1,25,0|0,1:2|0:2,0:0:0:0:
444,248,117694,2,0,L|487:244,1,25,0|0,1:2|0:2,0:0:0:0:
417,329,117867,6,0,L|460:325,1,25,0|0,1:2|0:2,0:0:0:0:
456,238,118040,1,0,1:2:0:0:
456,238,118127,1,0,1:2:0:0:
456,238,118214,2,0,P|477:166|344:172,1,225.000008583069,8|0,1:2|0:2,0:0:0:0:
334,216,118561,6,0,L|322:36,1,174.999994659424,4|0,1:0|0:2,0:0:0:0:
322,23,119081,1,0,1:2:0:0:
412,262,119254,2,0,B|332:238|332:238|228:266,1,174.999994659424,8|0,1:2|0:2,0:0:0:0:
125,123,119774,6,0,P|175:119|237:152,1,104.999996795654,0|0,1:2|0:2,0:0:0:0:
240,148,120121,1,0,1:2:0:0:
450,64,120295,2,0,P|421:85|385:155,1,104.999996795654,0|0,1:2|0:2,0:0:0:0:
511,221,120642,2,0,P|410:224|421:363,1,244.999992523194,8|0,1:2|0:2,0:0:0:0:
286,384,121335,6,0,L|106:372,1,174.999994659424,0|0,1:2|0:2,0:0:0:0:
93,372,121855,1,0,1:2:0:0:
280,262,122029,2,0,B|200:286|200:286|96:258,1,174.999994659424,8|0,1:2|0:2,0:0:0:0:
210,68,122549,6,0,P|222:117|201:184,1,104.999996795654,0|0,1:2|0:2,0:0:0:0:
205,186,122896,1,0,1:2:0:0:
9,119,123069,2,0,B|65:102|65:102|137:121,1,104.999996795654,0|0,1:2|0:2,0:0:0:0:
124,118,123416,6,0,L|116:245,1,75.0000028610231,8|0,1:2|0:2,0:0:0:0:
205,55,123589,1,0,1:2:0:0:
129,131,123763,6,0,L|121:258,1,75.0000028610231,8|0,1:2|0:2,0:0:0:0:
446,348,124110,6,0,B|394:324|394:324|268:349,1,150,4|0,1:0|0:2,0:0:0:0:
279,347,124457,1,8,1:2:0:0:
209,200,124630,1,0,0:2:0:0:
232,211,124717,1,0,0:2:0:0:
257,214,124803,1,0,0:2:0:0:
283,212,124890,1,0,0:2:0:0:
308,205,124977,1,0,1:2:0:0:
469,220,125150,2,0,B|447:261|447:261|422:114,1,150,8|0,1:2|0:2,0:0:0:0:
309,38,125497,6,0,B|285:90|285:90|310:216,1,150,0|0,1:0|0:2,0:0:0:0:
308,205,125844,1,8,1:2:0:0:
455,268,126017,1,0,0:2:0:0:
466,245,126104,1,0,0:2:0:0:
469,220,126191,1,0,0:2:0:0:
467,194,126277,1,0,0:2:0:0:
460,169,126364,1,0,1:2:0:0:
385,363,126537,2,0,B|371:297|371:297|389:206,1,150,8|0,1:2|0:2,0:0:0:0:
281,297,126884,6,0,B|229:273|229:273|103:298,1,150,0|0,1:0|0:2,0:0:0:0:
114,296,127231,1,8,1:2:0:0:
207,88,127405,1,0,0:2:0:0:
218,111,127491,1,0,0:2:0:0:
221,136,127578,1,0,0:2:0:0:
219,162,127665,1,0,0:2:0:0:
212,187,127751,1,0,1:2:0:0:
60,144,127925,2,0,B|13:119|13:119|60:102|124:142,1,150,8|0,1:2|0:2,0:0:0:0:
127,144,128272,6,0,L|136:198,1,50,0|0,1:2|0:2,0:0:0:0:
297,67,128445,6,0,L|57:27,1,225.000008583069,8|0,1:2|0:2,0:0:0:0:
335,105,128792,2,0,L|95:65,1,225.000008583069,8|0,1:2|0:2,0:0:0:0:
373,143,129139,6,0,L|298:130,1,75.0000028610231,0|0,1:2|0:2,0:0:0:0:
1,80,129312,2,0,L|75:93,1,75.0000028610231,8|0,1:2|0:2,0:0:0:0:
149,105,129485,2,0,L|224:118,1,75.0000028610231,8|0,1:2|0:2,0:0:0:0:
53,193,129659,6,0,B|105:169|105:169|231:194,1,150,0|0,1:0|0:2,0:0:0:0:
220,192,130006,1,8,1:2:0:0:
126,365,130179,1,0,0:2:0:0:
115,342,130266,1,0,0:2:0:0:
112,317,130352,1,0,0:2:0:0:
114,291,130439,1,0,0:2:0:0:
121,266,130526,1,0,1:2:0:0:
272,353,130699,2,0,B|313:331|313:331|166:306,1,150,8|0,1:2|0:2,0:0:0:0:
0,246,131046,6,0,B|52:222|52:222|178:247,1,150,0|0,1:0|0:2,0:0:0:0:
167,245,131393,1,8,1:2:0:0:
378,312,131566,2,0,B|326:336|326:336|200:311,1,150,0|0,0:2|0:2,0:0:0:0:
211,313,131913,1,0,1:2:0:0:
67,353,132087,1,8,1:2:0:0:
22,142,132260,1,0,1:0:0:0:
22,142,132347,1,0,1:2:0:0:
22,142,132433,6,0,L|262:102,1,225.000008583069,8|0,1:2|0:2,0:0:0:0:
490,221,132780,6,0,L|250:181,1,225.000008583069,8|0,1:2|0:2,0:0:0:0:
22,300,133127,6,0,L|262:260,1,225.000008583069,8|0,1:2|0:2,0:0:0:0:
490,379,133474,6,0,L|250:339,1,225.000008583069,8|0,1:2|0:2,0:0:0:0:
395,204,133821,6,0,P|400:273|379:311,1,75.0000028610231,8|0,1:2|0:2,0:0:0:0:
321,11,133994,6,0,P|310:58|330:135,1,112.500004291535,8|0,1:2|0:2,0:0:0:0:
476,249,134341,2,0,L|515:259,1,37.5000014305115,8|0,1:2|0:2,0:0:0:0:
358,357,134514,5,0,0:2:0:0:
336,343,134601,1,0,0:2:0:0:
311,339,134688,1,0,1:2:0:0:
286,343,134774,1,0,1:2:0:0:
263,353,134861,1,8,1:2:0:0:
240,363,134948,1,0,0:2:0:0:
215,367,135035,1,8,1:2:0:0:
190,363,135121,1,0,0:2:0:0:
168,349,135208,6,0,P|103:298|-14:294,1,194.999991073609,4|0,1:0|0:2,0:0:0:0:
233,259,135555,2,0,P|182:194|178:77,1,194.999991073609,2|0,1:2|0:2,0:0:0:0:
177,326,135902,2,0,P|112:275|-5:271,1,194.999991073609,2|0,1:2|0:2,0:0:0:0:
256,250,136248,2,0,P|213:200|192:120,1,129.999994049073,2|0,1:2|0:2,0:0:0:0:
344,349,136509,1,0,0:2:0:0:
344,349,136595,6,0,P|409:298|526:294,1,194.999991073609,2|0,1:2|0:2,0:0:0:0:
279,259,136942,2,0,P|330:194|334:77,1,194.999991073609,2|0,1:2|0:2,0:0:0:0:
335,326,137289,2,0,P|400:275|517:271,1,194.999991073609,2|0,1:2|0:2,0:0:0:0:
256,250,137636,2,0,P|299:200|320:120,1,129.999994049073,2|0,1:2|0:2,0:0:0:0:
99,327,137896,1,0,0:2:0:0:
99,327,137983,6,0,P|195:328|273:384,1,194.999991073609,2|0,1:2|0:2,0:0:0:0:
430,192,138329,2,0,P|333:193|255:249,1,194.999991073609,2|0,1:2|0:2,0:0:0:0:
109,302,138676,2,0,P|205:303|283:359,1,194.999991073609,2|0,1:2|0:2,0:0:0:0:
420,167,139023,2,0,P|323:168|245:224,1,194.999991073609,2|0,1:2|0:2,0:0:0:0:
440,384,139370,5,2,1:2:0:0:
352,256,139543,2,0,L|360:337,1,64.9999970245363,8|0,1:2|0:2,0:0:0:0:
440,384,139717,1,2,1:2:0:0:
72,384,140063,5,2,1:2:0:0:
160,256,140237,2,0,L|152:337,1,64.9999970245363,8|0,1:2|0:2,0:0:0:0:
72,384,140410,1,2,1:2:0:0:
246,224,140584,2,0,L|238:305,1,64.9999970245363,8|0,1:2|0:2,0:0:0:0:
0,92,140757,6,0,P|96:90|174:34,1,194.999991073609,2|0,1:2|0:2,0:0:0:0:
181,299,141104,2,0,P|182:202|238:124,1,194.999991073609,2|0,1:2|0:2,0:0:0:0:
9,115,141451,2,0,P|105:113|183:57,1,194.999991073609,2|0,1:2|0:2,0:0:0:0:
204,308,141798,2,0,P|198:244|222:178,1,129.999994049073,2|0,1:2|0:2,0:0:0:0:
512,92,142058,1,0,0:2:0:0:
512,92,142144,6,0,P|415:90|337:34,1,194.999991073609,2|0,1:2|0:2,0:0:0:0:
331,299,142491,2,0,P|329:202|273:124,1,194.999991073609,2|0,1:2|0:2,0:0:0:0:
503,115,142838,2,0,P|406:113|328:57,1,194.999991073609,2|0,1:2|0:2,0:0:0:0:
308,308,143185,2,0,P|315:268|309:218,1,64.9999970245363,2|0,1:2|0:2,0:0:0:0:
159,337,143358,2,0,P|190:363|236:382,1,64.9999970245363,8|0,1:2|0:2,0:0:0:0:
263,159,143532,6,0,L|161:148,1,64.9999970245363,8|0,1:2|0:2,0:0:0:0:
73,139,143705,1,0,1:2:0:0:
73,139,143878,1,0,1:2:0:0:
8,267,144052,6,0,L|110:256,1,64.9999970245363,8|0,1:2|0:2,0:0:0:0:
198,247,144225,1,0,0:2:0:0:
198,247,144399,1,0,1:2:0:0:
322,372,144572,6,0,L|220:361,1,64.9999970245363,8|0,1:2|0:2,0:0:0:0:
132,352,144746,1,0,1:2:0:0:
132,352,144832,1,0,1:2:0:0:
132,352,144919,6,0,L|234:363,1,100,8|0,1:2|0:2,0:0:0:0:
0,96,145092,6,0,L|334:60,1,300,8|0,1:2|0:2,0:0:0:0:
512,224,145439,6,0,L|213:191,1,300,8|0,1:2|0:2,0:0:0:0:
0,352,145786,6,0,L|298:319,1,300,8|0,1:2|0:2,0:0:0:0:
307,297,146133,6,0,L|265:302,1,25,0|0,0:2|0:2,0:0:0:0:
462,373,146306,6,0,B|433:324|433:324|447:196,1,165.000005035401,4|0,1:0|0:0,0:0:0:0:
448,190,146653,1,8,1:2:0:0:
247,231,146826,1,0,0:2:0:0:
274,223,146913,1,0,0:2:0:0:
303,221,147000,1,0,0:2:0:0:
330,224,147087,1,0,0:2:0:0:
355,237,147173,1,0,1:2:0:0:
512,115,147347,2,0,B|395:95|395:95|436:73,1,165.000005035401,8|0,1:2|0:0,0:0:0:0:
190,27,147694,6,0,B|239:-2|239:-2|367:12,1,165.000005035401,0|0,1:0|0:0,0:0:0:0:
373,13,148040,1,8,1:2:0:0:
274,223,148214,1,0,0:2:0:0:
266,196,148300,1,0,0:2:0:0:
264,167,148387,1,0,0:2:0:0:
267,140,148474,1,0,0:2:0:0:
280,115,148561,1,0,1:2:0:0:
486,189,148734,2,0,P|423:175|383:271,1,165.000005035401,8|0,1:2|0:0,0:0:0:0:
489,362,149081,6,0,B|440:333|440:333|312:347,1,165.000005035401,0|0,1:0|0:0,0:0:0:0:
306,348,149428,1,8,1:2:0:0:
183,228,149601,1,0,0:2:0:0:
211,227,149688,1,0,0:2:0:0:
239,232,149774,1,0,0:2:0:0:
264,242,149861,1,0,0:2:0:0:
285,261,149948,1,0,1:2:0:0:
286,255,150035,1,0,1:0:0:0:
287,249,150121,2,0,L|260:63,1,165.000005035401,8|0,1:2|0:0,0:0:0:0:
403,17,150468,6,0,B|391:124|391:124|433:59,1,165.000005035401,0|0,1:2|0:0,0:0:0:0:
437,53,150815,1,8,1:2:0:0:
466,276,150988,2,0,B|477:168|477:168|436:234,1,165.000005035401,0|0,1:2|0:0,0:0:0:0:
432,240,151335,1,0,1:2:0:0:
285,185,151509,2,0,L|355:192,1,55.0000016784668,8|0,1:2|0:0,0:0:0:0:
321,330,151682,2,0,L|314:260,1,55.0000016784668,0|0,1:2|0:0,0:0:0:0:
178,173,151855,6,0,B|207:222|207:222|193:350,1,165.000005035401,0|0,1:0|0:0,0:0:0:0:
192,356,152202,1,8,1:2:0:0:
320,253,152376,1,0,0:2:0:0:
319,225,152462,1,0,0:2:0:0:
324,197,152549,1,0,0:2:0:0:
334,172,152636,1,0,0:2:0:0:
353,151,152722,1,0,1:2:0:0:
347,150,152809,1,0,1:0:0:0:
341,149,152896,2,0,L|155:176,1,165.000005035401,8|0,1:2|0:0,0:0:0:0:
95,1,153243,6,0,P|161:-7|218:77,1,165.000005035401,0|0,1:0|0:0,0:0:0:0:
218,91,153589,1,8,1:2:0:0:
12,163,153763,2,0,P|78:171|135:87,1,165.000005035401,0|0,0:2|0:2,0:0:0:0:
135,73,154110,1,0,1:2:0:0:
281,152,154283,2,0,P|243:191|245:268,1,110.000003356934,8|0,1:2|0:0,0:0:0:0:
471,368,154630,6,0,L|448:125,1,225.000008583069,8|0,1:2|0:2,0:0:0:0:
349,271,154977,2,0,L|372:28,1,225.000008583069,8|0,1:2|0:2,0:0:0:0:
227,368,155324,2,0,L|204:125,1,225.000008583069,8|0,1:2|0:2,0:0:0:0:
105,271,155670,2,0,L|118:143,1,75.0000028610231,8|0,1:2|0:2,0:0:0:0:
120,123,155844,2,0,L|127:48,1,75.0000028610231,8|0,1:2|0:2,0:0:0:0:
371,212,156017,6,0,P|273:213|205:144,1,200,8|0,1:2|0:2,0:0:0:0:
24,363,156537,6,0,B|138:332|138:332|277:367,1,225.000008583069,8|0,1:2|0:2,0:0:0:0:
440,287,156884,6,0,L|347:296,1,75.0000028610231,0|0,1:2|0:2,0:0:0:0:
41,221,157058,2,0,L|134:230,1,75.0000028610231,8|0,1:2|0:2,0:0:0:0:
321,99,157231,1,0,1:2:0:0:
321,99,157318,1,0,1:2:0:0:
321,99,157405,5,4,1:0:0:0:
321,99,157751,1,0,0:2:0:0:
398,76,157925,1,0,1:2:0:0:
328,115,158098,2,0,L|443:130,1,100,8|0,1:2|0:2,0:0:0:0:
500,95,158618,1,0,1:2:0:0:
408,204,158792,5,0,0:2:0:0:
481,184,158965,1,0,1:2:0:0:
441,330,159139,1,0,1:2:0:0:
461,257,159312,1,0,0:2:0:0:
305,220,159485,2,0,P|361:288|317:345,1,150,8|0,1:2|0:0,0:0:0:0:
191,99,160179,5,0,1:2:0:0:
191,99,160526,1,0,0:2:0:0:
114,76,160699,1,0,1:2:0:0:
184,115,160873,2,0,L|69:130,1,100,8|0,1:2|0:2,0:0:0:0:
12,95,161393,1,0,1:2:0:0:
104,204,161566,5,0,0:2:0:0:
31,184,161740,1,0,1:2:0:0:
71,330,161913,1,0,1:2:0:0:
51,257,162087,1,0,0:2:0:0:
197,291,162260,2,0,L|132:280,1,50,8|0,1:2|1:2,0:0:0:0:
244,364,162607,2,0,L|179:375,1,50,8|0,1:2|0:2,0:0:0:0:
256,224,162954,5,0,1:2:0:0:
256,224,163300,1,0,0:2:0:0:
335,235,163474,1,0,1:2:0:0:
233,246,163647,1,8,1:2:0:0:
327,158,163821,2,0,L|387:166,1,50,0|0,0:2|0:0,0:0:0:0:
446,125,164168,1,0,1:2:0:0:
426,245,164341,5,0,0:0:0:0:
426,245,164514,1,0,1:2:0:0:
446,125,164688,1,0,1:2:0:0:
489,192,164861,1,0,0:2:0:0:
328,284,165035,2,0,L|336:224,1,50,8|0,1:2|1:2,0:0:0:0:
334,234,165555,1,0,1:2:0:0:
495,342,165728,6,0,P|451:328|349:375,1,150,0|0,1:2|1:2,0:0:0:0:
426,245,166422,1,8,1:2:0:0:
426,245,166769,1,0,1:2:0:0:
426,245,167115,6,0,L|486:237,2,50,0|0|0,1:2|0:0|0:0,0:0:0:0:
362,212,167636,1,0,1:2:0:0:
362,212,167722,1,0,1:2:0:0:
362,212,167809,1,8,1:2:0:0:
288,243,167983,1,8,1:2:0:0:
213,271,168156,2,0,P|178:277|141:272,1,66.6666666666667,0|0,0:2|0:2,0:0:0:0:
65,226,168503,6,0,L|57:126,1,100,4|0,1:0|0:2,0:0:0:0:
113,69,169023,1,0,1:2:0:0:
236,174,169196,1,8,1:2:0:0:
236,174,169370,2,0,P|191:159|136:173,1,100,0|0,0:2|1:2,0:0:0:0:
181,300,169890,5,0,0:2:0:0:
258,280,170063,1,0,1:2:0:0:
181,300,170237,1,0,1:2:0:0:
181,300,170584,2,0,P|171:331|176:363,1,50,8|0,1:2|0:2,0:0:0:0:
246,376,170931,1,0,0:2:0:0:
330,249,171104,1,0,0:2:0:0:
330,249,171191,1,0,0:2:0:0:
330,249,171277,6,0,L|335:140,1,100,0|0,1:2|0:2,0:0:0:0:
412,228,171798,1,0,1:2:0:0:
412,228,171971,2,0,L|417:119,1,100,8|0,1:2|0:2,0:0:0:0:
492,34,172491,2,0,P|495:64|515:95,1,50,0|0,1:2|0:2,0:0:0:0:
383,42,172838,5,0,1:2:0:0:
334,149,173011,1,0,1:2:0:0:
310,72,173185,1,0,0:2:0:0:
248,180,173358,2,0,P|249:156|256:132,1,50,8|0,1:2|0:2,0:0:0:0:
326,288,173705,2,0,P|325:264|319:240,1,50,8|0,1:2|0:2,0:0:0:0:
232,339,174052,6,0,P|284:319|378:353,1,150,0|0,1:2|1:2,0:0:0:0:
512,258,174746,2,0,P|460:278|366:244,1,150,8|0,1:2|1:2,0:0:0:0:
373,250,175613,5,0,1:2:0:0:
330,183,175786,2,0,L|327:117,1,50,0|0,1:2|0:2,0:0:0:0:
418,64,176133,2,0,B|425:104|425:104|413:143,2,75,8|0|0,1:2|0:2|0:2,0:0:0:0:
288,28,176826,6,0,L|339:23,1,50,0|0,1:2|0:2,0:0:0:0:
211,91,177173,2,0,L|262:96,1,50,0|0,0:2|1:2,0:0:0:0:
162,35,177520,2,0,P|170:61|157:138,1,100,8|0,1:2|0:2,0:0:0:0:
100,185,178040,1,0,1:2:0:0:
7,84,178214,6,0,P|40:81|71:90,1,50,0|0,0:2|1:2,0:0:0:0:
21,263,178561,2,0,P|13:237|26:160,1,100,0|8,1:2|1:2,0:0:0:0:
94,309,179081,1,0,1:2:0:0:
217,223,179254,2,0,P|184:226|153:217,1,50,8|0,1:2|0:2,0:0:0:0:
276,384,179601,6,0,P|268:358|281:281,1,100,0|0,1:2|0:2,0:0:0:0:
350,253,180121,1,0,1:2:0:0:
221,173,180295,2,0,L|217:223,1,50,8|0,1:2|0:2,0:0:0:0:
317,165,180642,1,0,0:2:0:0:
317,165,180815,1,0,1:2:0:0:
444,325,180988,6,0,P|414:323|375:332,1,50,0|0,0:2|1:2,0:0:0:0:
323,351,181335,1,0,1:0:0:0:
393,239,181509,1,0,0:2:0:0:
393,239,181595,1,0,0:2:0:0:
393,239,181682,1,8,1:2:0:0:
417,163,181855,1,0,0:2:0:0:
506,223,182029,2,0,L|513:278,1,50,0|0,0:2|0:2,0:0:0:0:
498,126,182376,6,0,P|463:134|379:51,1,150,0|0,1:2|1:2,0:0:0:0:
270,164,183069,2,0,P|303:158|351:171,2,75,8|0|0,1:2|0:2|1:2,0:0:0:0:
297,23,183763,5,0,0:2:0:0:
219,43,183936,1,0,1:2:0:0:
297,23,184110,1,0,1:2:0:0:
265,213,184457,2,0,L|271:149,1,50,8|0,1:2|1:2,0:0:0:0:
149,136,184803,2,0,L|143:72,1,50,8|0,1:2|0:2,0:0:0:0:
85,224,185150,6,0,P|122:220|201:301,1,150,0|0,1:2|1:2,0:0:0:0:
199,290,185757,1,0,0:2:0:0:
199,290,185844,1,8,1:2:0:0:
151,354,186017,1,0,0:2:0:0:
303,378,186191,2,0,P|298:351|304:318,1,50,0|0,0:2|1:2,0:0:0:0:
300,328,186711,1,0,1:2:0:0:
342,260,186884,1,0,1:2:0:0:
342,260,187231,1,8,1:2:0:0:
388,194,187405,1,0,0:2:0:0:
370,116,187578,1,0,0:2:0:0:
310,62,187751,1,0,0:2:0:0:
230,68,187925,6,0,L|237:108,1,25,0|0,0:2|0:2,0:0:0:0:
256,192,188098,12,0,190526,0:2:0:0:
256,192,190699,6,0,L|256:96,1,75.0000028610231,4|0,1:0|0:2,0:0:0:0:
160,192,191740,5,8,1:2:0:0:
352,192,191913,1,0,1:2:0:0:
256,192,192780,5,0,3:0:0:0:
256,192,193127,1,0,3:0:0:0:
64,192,193474,6,0,L|162:176,1,75.0000028610231,4|0,1:0|0:2,0:0:0:0:
448,192,193994,2,0,L|350:208,1,75.0000028610231,4|0,1:0|0:2,0:0:0:0:
256,160,194861,6,0,L|266:108,2,33.3333333333333,0|0|0,3:2|3:2|3:2,0:0:0:0:
286,229,195208,2,0,L|326:263,2,33.3333333333333,0|0|0,3:2|3:2|3:2,0:0:0:0:
211,220,195555,2,0,L|160:237,2,33.3333333333333,0|0|0,3:2|3:2|3:2,0:0:0:0:
241,290,195902,2,0,L|231:342,2,33.3333333333333,0|0|0,3:2|3:2|3:2,0:0:0:0:
294,370,196248,6,0,L|422:370,1,75.0000028610231,4|0,1:0|0:2,0:0:0:0:
336,303,197289,6,0,L|302:179,1,75.0000028610231,4|0,1:0|0:2,0:0:0:0:
176,81,197462,2,0,L|209:204,1,75.0000028610231,4|0,1:0|0:2,0:0:0:0:
256,192,198676,5,8,1:2:0:0:
117,272,199023,6,0,L|200:224,1,75.0000028610231,8|0,1:2|0:2,0:0:0:0:
256,32,199543,2,0,L|256:128,1,75.0000028610231,8|0,1:2|0:2,0:0:0:0:
394,272,200063,2,0,L|311:223,1,75.0000028610231,8|0,1:2|0:2,0:0:0:0:
108,157,200410,6,0,L|200:132,1,75.0000028610231,0|0,1:2|0:2,0:0:0:0:
404,130,200584,2,0,L|311:154,1,75.0000028610231,8|0,1:2|0:2,0:0:0:0:
166,45,200757,6,0,L|258:69,1,75.0000028610231,0|0,1:2|0:2,0:0:0:0:
255,246,200931,2,0,L|162:221,1,75.0000028610231,8|0,1:2|0:2,0:0:0:0:
378,231,201104,6,0,L|353:323,1,75.0000028610231,0|0,1:2|0:2,0:0:0:0:
91,365,201277,6,0,L|66:272,1,75.0000028610231,8|0,1:2|0:2,0:0:0:0:
88,274,201624,6,0,L|100:320,1,25,0|0,0:2|0:2,0:0:0:0:
0,158,201798,6,0,B|49:187|49:187|177:173,1,165.000005035401,4|0,1:0|0:0,0:0:0:0:
183,172,202144,1,8,1:2:0:0:
293,339,202318,1,0,0:2:0:0:
266,331,202405,1,0,0:2:0:0:
237,329,202491,1,0,0:2:0:0:
210,332,202578,1,0,0:2:0:0:
185,345,202665,1,0,1:2:0:0:
290,156,202838,2,0,P|268:208|359:236,1,165.000005035401,8|0,1:2|0:0,0:0:0:0:
458,110,203185,6,0,B|487:159|487:159|473:287,1,165.000005035401,0|0,1:0|0:0,0:0:0:0:
472,293,203532,1,8,1:2:0:0:
265,350,203705,1,0,0:2:0:0:
292,342,203792,1,0,0:2:0:0:
321,340,203878,1,0,0:2:0:0:
348,343,203965,1,0,0:2:0:0:
373,356,204052,1,0,1:2:0:0:
327,144,204225,2,0,B|307:261|307:261|285:220,1,165.000005035401,8|0,1:2|0:0,0:0:0:0:
427,42,204572,6,0,B|378:71|378:71|250:57,1,165.000005035401,0|0,1:0|0:0,0:0:0:0:
244,56,204919,1,8,1:2:0:0:
105,169,205092,1,0,0:2:0:0:
132,177,205179,1,0,0:2:0:0:
161,179,205266,1,0,0:2:0:0:
188,176,205352,1,0,0:2:0:0:
213,163,205439,1,0,1:2:0:0:
28,105,205613,2,0,P|71:151|67:262,1,165.000005035401,8|0,1:2|0:0,0:0:0:0:
28,361,205959,5,0,1:2:0:0:
206,379,206133,1,2,0:2:0:0:
188,176,206306,2,0,L|196:257,1,64.9999970245363,8|0,1:2|0:2,0:0:0:0:
206,379,206480,1,2,0:2:0:0:
98,301,206653,5,0,0:2:0:0:
287,258,206826,1,2,1:2:0:0:
72,162,207000,2,0,L|-9:154,1,64.9999970245363,8|0,1:2|0:2,0:0:0:0:
98,301,207173,2,0,L|17:293,1,64.9999970245363,10|0,1:2|0:0,0:0:0:0:
211,84,207347,6,0,B|182:133|182:133|196:261,1,165.000005035401,0|0,1:0|0:0,0:0:0:0:
197,267,207694,1,8,1:2:0:0:
404,173,207867,1,0,0:2:0:0:
377,165,207954,1,0,0:2:0:0:
348,163,208040,1,0,0:2:0:0:
321,166,208127,1,0,0:2:0:0:
296,179,208214,1,0,1:2:0:0:
335,364,208387,2,0,B|355:247|355:247|377:288,1,165.000005035401,8|0,1:2|0:0,0:0:0:0:
504,152,208734,6,0,B|455:181|455:181|327:167,1,165.000005035401,0|0,1:0|0:0,0:0:0:0:
321,166,209081,1,8,1:2:0:0:
8,232,209254,2,0,B|57:203|57:203|185:217,1,165.000005035401,0|0,0:2|0:2,0:0:0:0:
191,218,209601,1,0,1:2:0:0:
287,54,209774,2,0,P|238:66|157:42,1,110.000003356934,8|0,1:2|0:0,0:0:0:0:
21,5,210121,6,0,L|31:101,1,75.0000028610231,8|0,1:2|0:0,0:0:0:0:
56,327,210295,1,0,1:2:0:0:
21,5,210642,6,0,L|31:101,1,75.0000028610231,8|0,1:2|0:0,0:0:0:0:
56,327,210815,1,0,1:2:0:0:
59,330,211075,5,0,1:0:0:0:
59,330,211162,1,0,1:0:0:0:
21,5,211335,6,0,L|31:101,1,75.0000028610231,8|0,1:2|0:0,0:0:0:0:
222,160,211509,6,0,L|120:149,1,100,0|0,1:2|0:0,0:0:0:0:
168,378,211682,6,0,L|502:342,1,300,0|0,1:2|0:0,0:0:0:0:
44,236,212029,6,0,L|378:272,1,300,0|0,1:2|0:0,0:0:0:0:
512,89,212376,6,0,L|-5:144,1,500,0|0,1:2|0:0,0:0:0:0:
119,13,212896,5,4,1:0:0:0:
119,13,213243,1,0,0:2:0:0:
142,90,213416,1,0,1:2:0:0:
103,20,213589,2,0,L|88:135,1,100,8|0,1:2|0:2,0:0:0:0:
209,65,214110,1,0,1:2:0:0:
145,222,214283,5,0,0:2:0:0:
165,149,214457,1,0,1:2:0:0:
236,276,214630,1,0,1:2:0:0:
216,203,214803,1,0,0:2:0:0:
104,347,214977,2,0,B|139:333|139:333|213:346,1,100,8|0,1:2|0:2,0:0:0:0:
393,13,215670,5,0,1:2:0:0:
393,13,216017,1,0,0:2:0:0:
370,90,216191,1,0,1:2:0:0:
409,20,216364,2,0,L|424:135,1,100,8|0,1:2|0:2,0:0:0:0:
303,65,216884,1,0,1:2:0:0:
367,222,217058,5,0,0:2:0:0:
347,149,217231,1,0,1:2:0:0:
276,276,217405,1,0,1:2:0:0:
296,203,217578,1,0,0:2:0:0:
387,371,217751,2,0,L|335:364,1,50,8|0,1:2|1:2,0:0:0:0:
450,288,218098,2,0,L|398:295,1,50,8|0,1:2|0:2,0:0:0:0:
136,349,218445,5,0,1:2:0:0:
136,349,218792,1,0,0:2:0:0:
156,276,218965,1,0,1:2:0:0:
202,374,219139,1,8,1:2:0:0:
246,205,219312,2,0,B|232:240|232:240|245:314,1,100,0|0,0:2|1:2,0:0:0:0:
248,307,219746,1,0,1:2:0:0:
248,307,219832,6,0,L|388:288,1,75.0000028610231,8|0,1:2|0:2,0:0:0:0:
512,273,220006,1,8,1:2:0:0:
512,273,220699,5,0,1:2:0:0:
248,307,220873,2,0,B|149:322|149:322|188:268,1,150,8|0,1:2|0:2,0:0:0:0:
38,367,221220,6,0,B|62:315|62:315|37:189,1,150,4|0,1:0|0:2,0:0:0:0:
39,200,221566,1,8,1:2:0:0:
248,307,221740,1,0,0:2:0:0:
225,318,221826,1,0,0:2:0:0:
200,321,221913,1,0,0:2:0:0:
174,319,222000,1,0,0:2:0:0:
149,312,222087,1,0,1:2:0:0:
235,174,222260,2,0,B|210:221|210:221|193:174|233:110,1,150,8|0,1:2|0:2,0:0:0:0:
120,0,222607,6,0,B|144:52|144:52|119:178,1,150,0|0,1:0|0:2,0:0:0:0:
121,167,222954,1,8,1:2:0:0:
8,267,223127,2,0,P|59:253|146:326,1,150,0|0,0:2|0:2,0:0:0:0:
148,323,223474,1,0,1:2:0:0:
350,204,223647,2,0,B|259:185|259:185|207:209,1,150,8|0,1:2|0:2,0:0:0:0:
0,110,223994,6,0,B|52:86|52:86|178:111,1,150,0|0,1:0|0:2,0:0:0:0:
167,109,224341,1,8,1:2:0:0:
79,307,224514,1,0,0:2:0:0:
68,284,224601,1,0,0:2:0:0:
65,259,224688,1,0,0:2:0:0:
67,233,224774,1,0,0:2:0:0:
74,208,224861,1,0,1:2:0:0:
196,330,225035,2,0,B|221:283|221:283|238:330|198:394,1,150,8|0,1:2|0:2,0:0:0:0:
142,255,225381,5,0,1:2:0:0:
397,281,225555,2,0,L|329:275,1,50,8|0,1:2|0:0,0:0:0:0:
142,255,225728,1,0,0:2:0:0:
356,188,225902,2,0,L|288:194,1,50,8|0,1:2|0:0,0:0:0:0:
142,255,226075,1,0,0:2:0:0:
237,236,226248,1,0,1:2:0:0:
58,181,226422,2,0,L|52:249,1,50,8|0,1:2|0:0,0:0:0:0:
209,376,226595,2,0,L|203:308,1,50,8|0,1:2|0:0,0:0:0:0:
469,340,226769,6,0,B|417:364|417:364|291:339,1,150,0|0,1:0|0:2,0:0:0:0:
302,341,227115,1,8,1:2:0:0:
299,145,227289,2,0,P|372:143|391:222,1,150,0|0,0:2|0:2,0:0:0:0:
393,230,227636,1,0,1:2:0:0:
211,255,227809,2,0,B|252:240|252:240|148:217,1,150,8|0,1:2|0:2,0:0:0:0:
43,340,228156,6,0,B|95:364|95:364|221:339,1,150,0|0,1:0|0:2,0:0:0:0:
210,341,228503,1,8,1:2:0:0:
213,145,228676,2,0,P|140:143|121:222,1,150,0|0,0:2|0:2,0:0:0:0:
125,236,229023,1,0,1:2:0:0:
125,236,229110,1,0,1:0:0:0:
125,236,229196,2,0,L|294:230,1,150,8|0,1:2|0:2,0:0:0:0:
486,228,229543,5,0,1:2:0:0:
486,228,229630,1,0,1:2:0:0:
486,228,229717,2,0,B|463:124|463:124|448:165,1,150,8|0,1:2|0:0,0:0:0:0:
404,278,230063,2,0,L|382:339,1,50,8|0,1:2|0:2,0:0:0:0:
347,192,230237,1,0,1:2:0:0:
498,318,230410,1,8,1:2:0:0:
265,360,230584,1,8,1:2:0:0:
265,360,230931,6,0,L|255:274,1,75.0000028610231,8|0,1:2|0:2,0:0:0:0:
225,18,231104,1,8,1:2:0:0:
225,18,231451,6,0,L|235:104,1,75.0000028610231,8|0,1:2|0:2,0:0:0:0:
271,366,231798,1,0,1:2:0:0:
271,366,231971,1,0,1:2:0:0:
271,366,232144,1,0,1:2:0:0:
134,277,232318,6,0,L|127:349,1,50,6|0,1:2|0:2,0:0:0:0:
190,376,232491,1,0,0:2:0:0:
49,297,232665,1,2,1:2:0:0:
227,285,232838,1,8,1:2:0:0:
28,192,233011,2,0,B|80:216|80:216|206:191,1,150,2|0,1:2|0:2,0:0:0:0:
195,193,233358,1,10,1:2:0:0:
93,115,233532,1,0,0:2:0:0:
279,10,233705,6,0,B|255:62|255:62|280:188,1,150,10|0,1:2|0:2,0:0:0:0:
278,177,234052,1,2,1:2:0:0:
170,74,234225,1,8,1:2:0:0:
194,360,234399,2,0,B|218:308|218:308|193:182,1,150,2|0,1:2|0:2,0:0:0:0:
195,193,234746,1,2,1:2:0:0:
378,277,235092,6,0,L|385:349,1,50,2|0,1:2|0:2,0:0:0:0:
322,376,235266,1,0,0:2:0:0:
463,297,235439,1,2,1:2:0:0:
285,285,235613,1,8,1:2:0:0:
484,192,235786,2,0,B|432:216|432:216|306:191,1,150,2|0,1:2|0:2,0:0:0:0:
317,193,236133,1,10,1:2:0:0:
419,115,236306,1,0,0:2:0:0:
233,10,236480,5,2,1:2:0:0:
200,146,236653,2,0,L|188:92,1,50,8|0,1:2|0:2,0:0:0:0:
323,96,236826,1,2,1:2:0:0:
279,374,237173,5,2,1:2:0:0:
312,238,237347,2,0,L|324:292,1,50,8|0,1:2|0:2,0:0:0:0:
189,288,237520,1,2,1:2:0:0:
403,273,237694,2,0,L|415:327,1,50,8|0,1:2|0:2,0:0:0:0:
509,162,237867,6,0,B|457:186|457:186|331:161,1,150,2|0,1:2|0:2,0:0:0:0:
342,163,238214,1,2,1:2:0:0:
430,39,238387,2,0,L|442:93,1,50,8|0,1:2|0:2,0:0:0:0:
281,216,238561,2,0,B|257:164|257:164|282:38,1,150,2|0,1:2|0:2,0:0:0:0:
208,242,238907,2,0,B|232:294|232:294|207:420,1,150,2|0,1:2|0:2,0:0:0:0:
0,313,239254,6,0,L|160:306,1,150,10|0,1:2|0:2,0:0:0:0:
42,204,239601,1,2,1:2:0:0:
256,250,239774,2,0,L|207:241,1,50,8|0,1:2|0:2,0:0:0:0:
131,81,239948,2,0,B|107:133|107:133|132:259,1,150,2|0,1:2|0:2,0:0:0:0:
237,157,240295,2,0,L|228:108,1,50,2|0,1:2|0:2,0:0:0:0:
342,206,240468,2,0,L|333:157,1,50,8|0,1:2|0:2,0:0:0:0:
447,255,240642,6,0,L|438:206,1,50,0|0,0:2|0:2,0:0:0:0:
416,41,240815,1,0,1:2:0:0:
416,41,240988,1,0,1:2:0:0:
227,178,241162,6,0,L|276:187,1,50,8|0,1:2|0:2,0:0:0:0:
438,205,241335,1,0,0:2:0:0:
419,44,241509,1,0,1:2:0:0:
419,44,241595,1,0,1:2:0:0:
419,44,241682,1,0,1:2:0:0:
416,344,242029,6,0,L|298:327,1,100,8|0,1:2|0:2,0:0:0:0:
5,292,242202,1,8,1:2:0:0:
416,344,242549,5,0,1:2:0:0:
416,344,242636,1,0,1:2:0:0:
416,344,242722,2,0,L|298:327,1,100,8|0,1:2|0:2,0:0:0:0:
5,292,242896,1,8,1:2:0:0:
256,192,243416,12,0,246754,0:2:0:0:
