osu file format v14

[General]
AudioFilename: audio.mp3
AudioLeadIn: 0
PreviewTime: 51972
Countdown: 0
SampleSet: Soft
StackLeniency: 0.4
Mode: 0
LetterboxInBreaks: 0
WidescreenStoryboard: 0

[Editor]
DistanceSpacing: 1
BeatDivisor: 4
GridSize: 32
TimelineZoom: 1

[Metadata]
Title:Snow halation
TitleUnicode:Snow halation
Artist:Sayaka Sasaki
ArtistUnicode:佐咲紗花
Creator:ktgster
Version:Normal
Source:ラブライブ! School idol project
Tags:SAYAKAVER love live! 2期 2nd season
BeatmapID:1454886
BeatmapSetID:685864

[Difficulty]
HPDrainRate:4
CircleSize:3
OverallDifficulty:5
ApproachRate:5.5
SliderMultiplier:1
SliderTickRate:1

[Events]
//Background and Video events
0,0,"bg.png",0,0
//Break Periods
2,96364,106337
2,171477,178476
2,188124,189574
//Storyboard Layer 0 (Background)
//Storyboard Layer 1 (Fail)
//Storyboard Layer 2 (Pass)
//Storyboard Layer 3 (Foreground)
//Storyboard Sound Samples

[TimingPoints]
642,346.820809248555,4,2,1,40,1,0
22665,-100,4,2,1,70,0,0
24225,-100,4,2,1,60,0,0
35324,-100,4,2,1,50,0,0
40179,-100,4,2,1,60,0,0
49196,-100,4,2,1,70,0,0
51277,-100,4,2,1,60,0,0
51971,-100,4,2,2,70,0,1
56133,-100,4,2,1,70,0,1
57520,-100,4,2,2,70,0,1
60121,-100,4,2,1,70,0,1
61682,-100,4,2,1,80,0,1
62896,-100,4,2,1,40,0,0
63069,-100,4,2,1,70,0,1
72780,-100,4,2,1,80,0,1
74168,-100,4,2,1,50,0,0
85266,-100,4,2,1,60,0,0
94977,-100,4,2,1,70,0,0
96364,-100,4,3,1,30,0,0
106075,-100,4,2,1,40,0,0
107462,-100,4,2,1,60,0,0
118561,-100,4,2,1,50,0,0
123416,-100,4,2,1,60,0,0
132433,-100,4,2,1,70,0,0
134514,-100,4,2,1,60,0,0
135208,-100,4,2,2,70,0,1
143358,-100,4,2,1,70,0,1
144919,-100,4,2,1,80,0,1
146133,-100,4,2,1,40,0,0
146306,-100,4,2,1,70,0,1
156017,-100,4,2,1,80,0,1
157405,-100,4,2,1,50,0,0
190699,-100,4,2,1,70,0,0
194861,-100,4,2,1,60,0,0
196248,-100,4,2,1,70,0,0
201624,-100,4,2,1,40,0,0
201798,-100,4,2,1,70,0,1
211509,-100,4,2,1,80,0,1
212896,-100,4,2,1,50,0,0
219832,-100,4,2,1,60,0,0
232318,-100,4,2,2,70,0,1
242029,-100,4,2,1,80,0,1
243416,-100,4,2,1,40,0,0
246754,-100,4,2,1,5,0,0

[Colours]
Combo1 : 170,170,213
Combo2 : 0,124,185
Combo3 : 89,164,255
Combo4 : 192,130,255

[HitObjects]
22,317,642,6,0,P|74:290|135:285,1,100,0|0,0:2|0:2,0:0:0:0:
214,286,1335,1,0,0:2:0:0:
412,313,2029,2,0,P|431:289|437:175,2,150,0|0|0,0:2|0:2|0:2,0:0:0:0:
311,313,3416,5,0,0:2:0:0:
162,293,3936,1,0,0:2:0:0:
17,89,4803,6,0,P|67:62|123:64,1,100,0|0,0:2|0:2,0:0:0:0:
206,85,5497,2,0,P|255:81|298:56,1,100,0|0,0:2|0:0,0:0:0:0:
389,14,6191,6,0,P|417:46|423:163,2,150,0|0|0,0:2|0:2|0:2,0:0:0:0:
298,56,7578,1,0,0:2:0:0:
206,85,7925,2,0,P|188:135|220:239,1,150,0|0,0:2|0:2,0:0:0:0:
312,336,8965,5,0,0:2:0:0:
362,142,9659,1,0,0:2:0:0:
423,220,10006,1,0,0:2:0:0:
461,128,10352,1,0,0:2:0:0:
461,128,11740,5,0,0:0:0:0:
461,128,13127,5,0,0:2:0:0:
268,208,14514,1,0,0:2:0:0:
461,288,15902,2,0,P|404:284|326:337,1,150,0|0,0:2|0:2,0:0:0:0:
328,332,17983,1,0,0:0:0:0:
131,365,18676,6,0,P|66:223|134:35,1,350,0|0,0:2|0:2,0:0:0:0:
321,17,20584,2,0,L|428:24,1,100,0|0,0:2|0:2,0:0:0:0:
488,157,21451,2,0,P|397:190|140:137,1,350,0|0,0:2|1:2,0:0:0:0:
128,102,22838,6,0,L|126:42,1,50,8|0,1:2|1:2,0:0:0:0:
14,152,23532,2,0,L|12:212,1,50,0|8,1:2|1:2,0:0:0:0:
124,302,24225,6,0,P|85:333|38:347,2,100,4|0|0,1:0|1:2|1:2,0:0:0:0:
201,238,25266,1,0,1:2:0:0:
283,295,25613,1,0,1:0:0:0:
373,252,25959,2,0,P|420:266|458:297,2,100,0|0|0,1:2|1:2|1:2,0:0:0:0:
334,159,27000,5,0,1:0:0:0:
240,193,27347,1,0,1:2:0:0:
161,131,27694,2,0,P|122:138|76:184,1,100,0|8,1:2|1:2,0:0:0:0:
49,273,28387,1,0,1:2:0:0:
53,322,28561,2,0,P|87:357|135:369,1,100,8|0,1:2|1:2,0:0:0:0:
235,365,29254,2,0,L|305:356,1,50,8|0,1:2|1:2,0:0:0:0:
383,341,29774,6,0,L|392:233,1,100,0|0,1:0|1:2,0:0:0:0:
355,205,30295,1,0,1:0:0:0:
319,169,30468,2,0,P|272:161|214:180,1,100,0|0,1:2|1:2,0:0:0:0:
173,262,31162,2,0,L|65:271,1,100,0|0,1:0|1:2,0:0:0:0:
37,234,31682,1,8,1:2:0:0:
1,198,31855,2,0,P|-7:151|12:93,1,100,0|0,1:2|1:2,0:0:0:0:
89,44,32549,5,8,1:2:0:0:
187,59,32896,1,8,1:2:0:0:
285,75,33243,1,8,1:2:0:0:
383,90,33589,1,8,1:2:0:0:
481,108,33936,2,0,L|492:164,1,50,8|8,1:2|1:2,0:0:0:0:
455,192,34283,2,0,L|466:248,1,50,8|8,1:2|1:2,0:0:0:0:
429,276,34630,2,0,L|440:332,2,50,8|0|8,1:2|1:2|1:2,0:0:0:0:
336,236,35324,5,4,1:0:0:0:
281,319,35670,1,0,0:0:0:0:
183,298,36017,2,0,P|121:292|76:309,1,100,8|0,1:2|0:0,0:0:0:0:
44,274,36537,2,0,L|39:116,1,150,0|0,1:2|1:2,0:0:0:0:
110,53,37405,2,0,P|162:67|201:108,1,100,8|0,1:2|0:0,0:0:0:0:
215,195,38098,5,0,1:2:0:0:
270,278,38445,1,0,0:0:0:0:
368,257,38792,2,0,P|430:251|475:268,1,100,8|0,1:2|0:0,0:0:0:0:
507,233,39312,2,0,L|512:75,1,150,0|0,1:2|1:2,0:0:0:0:
441,12,40179,2,0,L|379:1,2,50,8|0|8,1:2|1:2|1:2,0:0:0:0:
415,109,40873,6,0,P|374:135|310:133,1,100,4|8,1:0|1:2,0:0:0:0:
229,104,41566,2,0,P|179:105|137:132,1,100,0|8,0:2|1:2,0:0:0:0:
97,224,42260,2,0,L|97:324,1,100,0|8,1:0|1:2,0:0:0:0:
132,359,42780,2,0,P|205:366|277:309,1,150,0|8,0:2|1:2,0:0:0:0:
318,239,43647,6,0,P|359:213|423:215,1,100,0|8,1:0|1:2,0:0:0:0:
480,140,44341,2,0,P|479:90|452:48,1,100,0|8,0:2|1:2,0:0:0:0:
364,95,45035,2,0,L|364:165,2,50,0|8|0,1:2|1:2|0:0,0:0:0:0:
337,52,45555,2,0,P|264:45|192:102,1,150,8|8,1:2|1:2,0:0:0:0:
180,131,46248,1,8,1:2:0:0:
165,178,46422,6,0,L|159:297,1,100,0|8,1:0|1:2,0:0:0:0:
230,348,47115,1,0,0:2:0:0:
316,298,47462,1,8,1:2:0:0:
413,321,47809,2,0,P|425:273|419:209,1,100,0|8,1:0|1:2,0:0:0:0:
350,152,48503,2,0,P|347:102|359:53,1,100,0|8,0:0|1:2,0:0:0:0:
457,33,49196,5,8,1:2:0:0:
496,124,49543,1,8,1:2:0:0:
490,223,49890,1,8,1:2:0:0:
417,291,50237,1,8,1:2:0:0:
317,304,50584,2,0,L|248:299,1,50,8|8,1:2|1:2,0:0:0:0:
179,251,51104,2,0,P|158:201|186:109,1,150,8|8,1:2|1:2,0:0:0:0:
277,78,51971,5,4,1:0:0:0:
376,65,52318,2,0,L|483:69,2,100,2|2|2,1:2|1:2|1:2,0:0:0:0:
338,157,53358,1,2,1:2:0:0:
256,214,53705,2,0,P|250:265|263:325,2,100,2|2|2,1:2|1:2|1:2,0:0:0:0:
185,143,54746,6,0,L|78:139,1,100,2|2,1:2|1:2,0:0:0:0:
112,43,55439,2,0,L|219:39,1,100,2|2,1:2|1:2,0:0:0:0:
312,34,56133,2,0,P|336:29|358:18,2,50,0|10|0,1:2|1:2|1:2,0:0:0:0:
267,123,56826,2,0,P|242:127|220:138,2,50,0|8|2,1:2|1:2|1:2,0:0:0:0:
354,172,57520,5,2,1:2:0:0:
381,268,57867,2,0,L|385:375,2,100,2|2|2,1:2|1:2|1:2,0:0:0:0:
284,243,58907,1,2,1:2:0:0:
194,287,59254,1,2,1:2:0:0:
97,262,59601,1,2,1:2:0:0:
70,165,59948,2,0,L|74:104,1,50,2|8,1:2|1:2,0:0:0:0:
78,65,60295,6,0,P|114:47|172:51,1,100,8|0,1:2|1:2,0:0:0:0:
216,74,60815,2,0,P|265:79|310:60,1,100,8|0,1:2|1:2,0:0:0:0:
352,32,61335,1,8,1:2:0:0:
422,102,61682,2,0,L|428:171,1,50,8|8,1:2|1:2,0:0:0:0:
355,222,62202,1,8,1:2:0:0:
409,305,62549,2,0,P|362:320|301:306,1,100,8|0,1:2|0:2,0:0:0:0:
263,300,63069,6,0,P|214:291|166:306,1,100,4|8,1:0|1:2,0:0:0:0:
72,340,63763,2,0,L|26:365,2,50,0|0|8,0:2|1:2|1:2,0:0:0:0:
92,241,64457,2,0,P|103:192|94:136,1,100,0|8,1:0|1:2,0:0:0:0:
49,54,65150,2,0,L|23:1,2,50,0|0|8,0:2|1:2|1:2,0:0:0:0:
149,58,65844,6,0,P|198:62|240:89,1,100,0|8,1:0|1:2,0:0:0:0:
275,125,66364,2,0,P|316:151|366:156,1,100,0|0,0:2|1:2,0:0:0:0:
415,148,66884,1,8,1:2:0:0:
506,108,67231,1,0,1:2:0:0:
495,206,67578,2,0,P|491:230|482:253,2,50,8|2|0,1:2|1:2|0:2,0:0:0:0:
415,148,68272,2,0,L|403:86,1,50,8|2,1:2|1:2,0:0:0:0:
397,49,68618,5,0,1:0:0:0:
299,27,68965,2,0,P|248:25|198:40,1,100,8|0,1:2|0:2,0:0:0:0:
133,112,69659,1,8,1:2:0:0:
158,208,70006,2,0,P|207:204|249:177,1,100,0|8,1:0|1:2,0:0:0:0:
284,141,70526,2,0,P|325:115|375:110,1,100,0|0,0:2|1:2,0:0:0:0:
424,118,71046,1,8,1:2:0:0:
486,195,71393,5,8,1:2:0:0:
495,294,71740,1,8,1:2:0:0:
429,369,72087,1,8,1:2:0:0:
329,377,72433,2,0,L|273:362,1,50,8|0,1:2|1:2,0:0:0:0:
232,351,72780,2,0,P|236:302|263:260,1,100,0|8,1:2|1:2,0:0:0:0:
299,225,73300,2,0,P|325:184|330:134,1,100,0|0,1:2|1:2,0:0:0:0:
158,19,74168,5,4,1:0:0:0:
107,104,74514,2,0,L|7:111,2,100,0|8|0,0:2|1:2|0:2,0:0:0:0:
177,174,75555,2,0,P|190:221|178:286,1,100,0|0,0:2|1:2,0:0:0:0:
116,345,76248,2,0,P|155:315|306:322,1,200,8|0,1:2|1:2,0:0:0:0:
387,365,77289,6,0,L|487:358,2,100,0|8|0,0:2|1:2|0:2,0:0:0:0:
384,265,78329,2,0,P|393:240|415:215,2,50,0|0|0,0:2|1:2|1:2,0:0:0:0:
299,317,79023,1,8,1:2:0:0:
201,337,79370,1,8,1:2:0:0:
103,314,79717,5,0,1:2:0:0:
34,241,80063,2,0,L|41:141,1,100,0|8,0:2|1:2,0:0:0:0:
111,70,80757,1,0,0:0:0:0:
151,40,80931,2,0,P|191:31|254:44,1,100,0|0,1:2|1:2,0:0:0:0:
283,76,81451,1,0,1:2:0:0:
308,172,81798,2,0,L|312:226,1,50,8|0,1:2|1:2,0:0:0:0:
324,321,82318,1,0,1:2:0:0:
334,369,82491,6,0,P|373:370|492:262,1,200,0|8,1:2|1:2,0:0:0:0:
485,171,83532,1,0,1:2:0:0:
428,88,83878,1,0,1:2:0:0:
292,235,84572,2,0,L|285:342,1,100,0|0,1:2|0:2,0:0:0:0:
190,368,85266,6,0,P|146:368|81:350,1,100,4|0,1:0|1:2,0:0:0:0:
39,269,85959,2,0,L|34:213,2,50,0|0|8,0:0|1:2|1:2,0:0:0:0:
139,266,86653,1,0,1:2:0:0:
209,195,87000,1,8,1:2:0:0:
221,95,87347,2,0,L|226:39,2,50,0|0|8,0:2|1:2|1:2,0:0:0:0:
320,81,88040,6,0,P|364:81|429:99,1,100,0|8,1:2|1:2,0:0:0:0:
471,180,88734,2,0,L|476:236,2,50,0|0|8,0:0|1:2|1:2,0:0:0:0:
371,183,89428,1,0,1:2:0:0:
275,211,89774,1,8,1:2:0:0:
225,297,90121,2,0,P|199:336|143:360,1,100,8|8,1:2|1:2,0:0:0:0:
61,316,90815,6,0,P|61:272|79:207,1,100,0|8,1:2|1:2,0:0:0:0:
160,165,91509,2,0,L|216:160,2,50,0|0|8,0:0|1:2|1:2,0:0:0:0:
71,118,92202,1,0,1:2:0:0:
137,43,92549,2,0,P|96:20|27:30,2,100,8|0|8,1:2|0:2|1:2,0:0:0:0:
216,103,93589,6,0,P|264:115|314:116,1,100,0|8,1:2|1:2,0:0:0:0:
407,78,94283,2,0,L|412:22,2,50,0|0|8,0:0|1:2|1:2,0:0:0:0:
477,149,94977,6,0,L|482:205,1,50,8|8,1:2|1:2,0:0:0:0:
355,280,95670,2,0,L|360:224,1,50,8|8,1:2|1:2,0:0:0:0:
70,37,107462,6,0,P|55:92|66:140,1,100,4|8,1:0|1:2,0:0:0:0:
110,221,108156,2,0,L|102:279,2,50,0|0|8,0:0|1:2|1:2,0:0:0:0:
199,176,108850,1,0,1:0:0:0:
290,216,109196,1,8,1:2:0:0:
372,159,109543,2,0,L|380:101,2,50,0|0|8,0:2|1:2|1:2,0:0:0:0:
442,229,110237,6,0,P|451:279|440:340,2,100,0|8|0,1:0|1:2|0:2,0:0:0:0:
372,159,111277,1,8,1:2:0:0:
272,146,111624,1,0,1:2:0:0:
230,174,111798,2,0,P|189:188|123:191,1,100,8|8,1:2|1:2,0:0:0:0:
39,154,112491,1,0,1:2:0:0:
17,108,112665,2,0,L|23:43,1,50,8|8,1:2|1:2,0:0:0:0:
64,32,113011,6,0,P|114:23|168:39,1,100,0|8,1:0|1:2,0:0:0:0:
231,106,113705,2,0,L|239:164,2,50,0|0|8,0:0|1:2|1:2,0:0:0:0:
141,151,114399,2,0,P|132:201|148:255,1,100,0|8,1:0|1:2,0:0:0:0:
215,318,115092,2,0,L|273:326,2,50,0|0|8,0:2|1:2|1:2,0:0:0:0:
118,344,115786,5,0,1:0:0:0:
34,288,116133,2,0,P|14:189|44:84,1,200,8|8,1:2|1:2,0:0:0:0:
118,34,117173,1,0,1:2:0:0:
201,89,117520,1,0,1:2:0:0:
296,58,117867,2,0,P|351:56|402:75,1,100,0|8,1:2|1:2,0:0:0:0:
451,151,118561,5,4,1:0:0:0:
408,241,118907,1,0,0:0:0:0:
450,331,119254,2,0,P|394:340|345:317,1,100,8|0,1:2|0:0,0:0:0:0:
309,303,119774,2,0,P|255:284|164:304,1,150,0|0,1:2|1:2,0:0:0:0:
81,248,120642,2,0,P|71:198|87:141,1,100,8|0,1:2|0:0,0:0:0:0:
166,97,121335,5,0,1:2:0:0:
209,187,121682,1,0,0:0:0:0:
167,277,122029,2,0,P|223:286|272:263,1,100,8|0,1:2|0:0,0:0:0:0:
308,249,122549,2,0,P|362:230|472:236,1,150,0|0,1:2|1:2,0:0:0:0:
499,320,123416,2,0,L|495:380,2,50,8|0|8,1:2|1:2|1:2,0:0:0:0:
398,314,124110,5,4,1:0:0:0:
308,359,124457,1,8,1:2:0:0:
217,316,124803,2,0,P|170:302|121:309,1,100,0|8,0:2|1:2,0:0:0:0:
36,254,125497,2,0,L|36:154,1,100,0|8,1:0|1:2,0:0:0:0:
38,103,126017,2,0,P|99:62|172:69,1,150,0|8,0:2|1:2,0:0:0:0:
253,128,126884,5,0,1:0:0:0:
221,223,127231,1,8,1:2:0:0:
259,314,127578,2,0,P|306:328|355:321,1,100,0|8,0:2|1:2,0:0:0:0:
451,290,128272,2,0,L|499:260,2,50,0|8|0,1:2|1:2|0:0,0:0:0:0:
415,254,128792,2,0,P|375:193|361:113,1,150,8|8,1:2|1:2,0:0:0:0:
363,68,129485,1,8,1:2:0:0:
387,24,129659,5,0,1:0:0:0:
287,14,130006,1,8,1:2:0:0:
210,77,130352,2,0,P|190:121|200:188,1,100,0|8,0:2|1:2,0:0:0:0:
236,261,131046,2,0,P|239:310|219:355,1,100,0|8,1:0|1:2,0:0:0:0:
119,369,131740,2,0,L|58:363,2,50,0|0|8,0:0|1:2|1:2,0:0:0:0:
100,270,132433,5,8,1:2:0:0:
174,203,132780,1,8,1:2:0:0:
271,181,133127,1,8,1:2:0:0:
367,207,133474,1,8,1:2:0:0:
421,290,133821,2,0,L|425:346,1,50,8|8,1:2|1:2,0:0:0:0:
328,367,134341,2,0,P|270:357|200:294,1,150,8|8,1:2|1:2,0:0:0:0:
174,203,135208,5,4,1:0:0:0:
265,162,135555,2,0,P|273:112|267:63,2,100,2|2|2,1:2|1:2|1:2,0:0:0:0:
174,203,136595,1,2,1:2:0:0:
83,244,136942,2,0,P|74:293|80:342,2,100,2|2|2,1:2|1:2|1:2,0:0:0:0:
174,203,137983,6,0,L|275:210,1,100,2|2,1:2|1:2,0:0:0:0:
344,280,138676,2,0,L|445:273,1,100,2|2,1:2|1:2,0:0:0:0:
500,190,139370,2,0,L|504:125,2,50,2|8|2,1:2|1:2|1:2,0:0:0:0:
409,148,140063,2,0,L|405:83,1,50,2|8,1:2|1:2,0:0:0:0:
360,76,140410,2,0,L|356:11,1,50,2|8,1:2|1:2,0:0:0:0:
311,4,140757,5,2,1:2:0:0:
214,32,141104,2,0,P|165:41|116:35,2,100,2|2|2,1:2|1:2|1:2,0:0:0:0:
287,101,142144,1,2,1:2:0:0:
327,192,142491,1,2,1:2:0:0:
301,288,142838,1,2,1:2:0:0:
217,342,143185,2,0,L|156:338,1,50,2|8,1:2|1:2,0:0:0:0:
117,334,143532,6,0,P|99:298|103:240,1,100,8|0,1:2|1:2,0:0:0:0:
126,196,144052,2,0,P|131:147|112:102,1,100,8|0,1:2|1:2,0:0:0:0:
84,60,144572,1,8,1:2:0:0:
173,15,144919,2,0,L|242:21,1,50,8|8,1:2|1:2,0:0:0:0:
293,90,145439,1,8,1:2:0:0:
376,36,145786,2,0,P|391:83|377:144,1,100,8|0,1:2|0:2,0:0:0:0:
358,176,146306,6,0,P|349:224|364:272,1,100,4|8,1:0|1:2,0:0:0:0:
431,346,147000,2,0,L|489:354,2,50,0|0|8,0:2|1:2|1:2,0:0:0:0:
331,367,147694,2,0,P|283:352|235:361,1,100,0|8,1:0|1:2,0:0:0:0:
136,375,148387,2,0,L|85:358,2,50,0|0|8,0:2|1:2|1:2,0:0:0:0:
173,282,149081,6,0,P|188:235|174:174,1,100,0|8,1:0|1:2,0:0:0:0:
167,137,149601,2,0,P|214:122|262:131,1,100,0|0,0:2|1:2,0:0:0:0:
308,152,150121,1,8,1:2:0:0:
376,224,150468,2,0,L|404:338,1,100,0|8,1:2|1:2,0:0:0:0:
450,321,150988,2,0,L|478:207,1,100,0|0,1:2|1:2,0:0:0:0:
488,175,151509,1,8,1:2:0:0:
470,76,151855,5,0,1:0:0:0:
372,54,152202,2,0,P|321:52|271:67,1,100,8|0,1:2|0:2,0:0:0:0:
206,139,152896,1,8,1:2:0:0:
223,237,153243,2,0,P|174:233|132:206,1,100,0|8,1:0|1:2,0:0:0:0:
89,179,153763,2,0,P|63:220|58:270,1,100,0|0,0:2|1:2,0:0:0:0:
71,318,154283,1,8,1:2:0:0:
156,369,154630,5,8,1:2:0:0:
256,371,154977,1,8,1:2:0:0:
343,322,155324,1,8,1:2:0:0:
404,243,155670,2,0,L|419:187,1,50,8|8,1:2|1:2,0:0:0:0:
431,146,156017,2,0,P|389:119|339:115,1,100,8|0,1:2|0:0,0:0:0:0:
289,117,156537,2,0,P|262:158|258:207,1,100,8|0,1:2|1:2,0:0:0:0:
270,256,157058,1,8,1:2:0:0:
268,356,157405,5,4,1:0:0:0:
170,364,157751,2,0,L|70:357,2,100,0|8|0,0:2|1:2|0:2,0:0:0:0:
137,269,158792,2,0,P|124:222|136:157,1,100,0|0,0:2|1:2,0:0:0:0:
72,89,159485,2,0,P|111:119|262:112,1,200,8|0,1:2|1:2,0:0:0:0:
345,72,160526,6,0,P|392:58|442:65,2,100,0|8|0,0:2|1:2|0:2,0:0:0:0:
338,172,161566,2,0,L|332:231,1,50,0|0,0:2|1:2,0:0:0:0:
325,271,161913,1,0,1:2:0:0:
243,328,162260,1,8,1:2:0:0:
143,335,162607,1,8,1:2:0:0:
52,291,162954,5,0,1:2:0:0:
133,233,163300,2,0,L|140:133,1,100,0|8,0:2|1:2,0:0:0:0:
238,115,163994,1,0,0:0:0:0:
268,155,164168,2,0,P|277:195|264:258,1,100,0|0,1:2|1:2,0:0:0:0:
232,287,164688,1,0,1:2:0:0:
300,360,165035,2,0,L|354:356,1,50,8|0,1:2|1:2,0:0:0:0:
420,285,165555,1,0,1:2:0:0:
468,275,165728,6,0,P|483:174|437:74,1,200,0|8,1:2|1:2,0:0:0:0:
354,45,166769,1,0,1:2:0:0:
259,75,167115,1,0,1:2:0:0:
168,253,167809,2,0,P|154:298|155:355,1,100,8|0,1:2|0:2,0:0:0:0:
248,314,168503,1,4,1:0:0:0:
256,192,168676,12,0,171277,1:2:0:0:
119,94,179601,6,0,P|104:151|115:297,1,200,0|8,1:2|1:2,0:0:0:0:
201,337,180642,1,0,0:2:0:0:
299,355,180988,2,0,L|403:345,1,100,0|0,0:2|1:0,0:0:0:0:
445,256,181682,2,0,L|341:246,1,100,8|0,1:2|0:2,0:0:0:0:
274,175,182376,6,0,P|246:117|343:62,1,200,0|8,1:2|1:2,0:0:0:0:
440,86,183416,1,0,0:0:0:0:
495,168,183763,2,0,L|499:225,2,50,0|0|0,0:2|1:2|1:2,0:0:0:0:
395,175,184457,1,8,1:2:0:0:
386,274,184803,1,8,1:2:0:0:
325,353,185150,6,0,P|281:367|134:302,1,200,0|8,1:2|1:2,0:0:0:0:
103,223,186191,2,0,L|99:166,1,50,0|0,0:2|1:2,0:0:0:0:
170,102,186711,2,0,L|174:45,1,50,0|0,1:2|1:2,0:0:0:0:
267,16,187231,2,0,P|320:30|356:76,2,100,8|0|0,1:2|0:2|0:2,0:0:0:0:
128,192,190699,5,4,1:0:0:0:
384,192,191740,1,8,1:2:0:0:
256,352,192780,6,0,L|256:242,1,100,0|0,3:0|3:0,0:0:0:0:
183,183,193474,2,0,P|254:199|332:181,1,150,4|4,1:0|1:0,0:0:0:0:
386,31,194861,5,0,3:2:0:0:
126,31,195555,1,0,3:2:0:0:
256,257,196248,1,4,1:0:0:0:
256,56,197289,6,0,L|256:117,1,50,4|4,1:0|1:0,0:0:0:0:
256,352,198676,1,8,1:2:0:0:
185,281,199023,6,0,P|136:266|40:283,2,150,8|8|8,1:2|1:2|1:2,0:0:0:0:
256,352,200410,2,0,L|321:344,1,50,0|8,1:2|1:2,0:0:0:0:
341,310,200757,2,0,L|406:302,1,50,0|8,1:2|1:2,0:0:0:0:
426,268,201104,2,0,L|491:260,1,50,0|8,1:2|1:2,0:0:0:0:
488,94,201798,6,0,P|437:79|378:88,1,100,4|8,1:0|1:2,0:0:0:0:
313,146,202491,2,0,L|305:211,2,50,0|0|8,0:2|1:2|1:2,0:0:0:0:
253,65,203185,1,0,1:0:0:0:
167,116,203532,1,8,1:2:0:0:
79,68,203878,2,0,L|71:3,2,50,0|0|8,0:2|1:2|1:2,0:0:0:0:
22,151,204572,6,0,P|7:198|21:259,1,100,0|8,1:0|1:2,0:0:0:0:
51,282,205092,2,0,L|172:272,1,100,0|0,0:2|1:2,0:0:0:0:
186,309,205613,1,8,1:2:0:0:
272,358,205959,1,0,1:2:0:0:
362,315,206306,1,8,1:2:0:0:
460,330,206653,2,0,L|468:265,1,50,0|2,0:2|1:2,0:0:0:0:
430,244,207000,2,0,L|438:179,1,50,8|10,1:2|1:2,0:0:0:0:
442,144,207347,5,0,1:0:0:0:
344,165,207694,2,0,P|330:212|332:262,1,100,8|0,1:2|0:2,0:0:0:0:
365,357,208387,1,8,1:2:0:0:
267,377,208734,2,0,P|225:350|176:346,1,100,0|8,1:0|1:2,0:0:0:0:
125,349,209254,2,0,P|75:344|33:318,1,100,0|0,0:2|1:2,0:0:0:0:
16,271,209774,1,8,1:2:0:0:
17,171,210121,6,0,L|25:106,1,50,8|0,1:2|1:2,0:0:0:0:
120,146,210642,2,0,L|128:81,1,50,8|0,1:2|1:2,0:0:0:0:
223,121,211162,2,0,L|231:56,1,50,0|8,1:0|1:2,0:0:0:0:
236,21,211509,5,0,1:2:0:0:
285,13,211682,1,0,1:2:0:0:
355,83,212029,1,0,1:2:0:0:
438,26,212376,2,0,P|456:84|443:133,1,100,0|0,1:2|0:0,0:0:0:0:
428,167,212896,5,4,1:0:0:0:
358,239,213243,2,0,L|365:339,2,100,0|8|0,0:2|1:2|0:2,0:0:0:0:
288,169,214283,2,0,P|241:156|176:168,1,100,0|0,0:2|1:2,0:0:0:0:
117,230,214977,2,0,P|147:191|140:40,1,200,8|0,1:2|1:2,0:0:0:0:
47,25,216017,5,0,0:2:0:0:
9,118,216364,2,0,P|17:163|9:233,1,100,8|0,1:2|0:2,0:0:0:0:
9,317,217058,2,0,L|68:311,1,50,0|0,0:2|1:2,0:0:0:0:
108,304,217405,1,0,1:2:0:0:
207,302,217751,1,8,1:2:0:0:
299,340,218098,1,8,1:2:0:0:
396,364,218445,5,0,1:2:0:0:
493,343,218792,2,0,P|497:306|474:241,1,100,0|8,0:2|1:2,0:0:0:0:
420,165,219485,1,0,0:0:0:0:
388,125,219659,2,0,P|382:102|390:66,2,50,0|8|8,1:2|1:2|1:2,0:0:0:0:
269,283,220699,2,0,L|263:344,1,50,0|8,1:2|1:2,0:0:0:0:
166,357,221220,6,0,P|111:362|58:338,1,100,4|8,1:0|1:2,0:0:0:0:
13,263,221913,1,0,0:2:0:0:
83,192,222260,1,8,1:2:0:0:
46,98,222607,2,0,P|101:93|154:117,1,100,0|8,1:0|1:2,0:0:0:0:
184,135,223127,2,0,P|230:151|280:145,1,100,0|0,0:2|1:2,0:0:0:0:
327,130,223647,1,8,1:2:0:0:
397,200,223994,6,0,P|402:255|378:308,1,100,0|8,1:0|1:2,0:0:0:0:
303,353,224688,1,0,0:2:0:0:
232,283,225035,1,8,1:2:0:0:
161,353,225381,2,0,L|100:359,1,50,0|8,1:2|1:2,0:0:0:0:
54,275,225902,2,0,L|-7:269,2,50,8|0|0,1:2|0:2|1:2,0:0:0:0:
95,247,226422,1,8,1:2:0:0:
53,155,226769,5,0,1:0:0:0:
119,80,227115,2,0,P|166:65|268:94,1,150,8|0,1:2|1:2,0:0:0:0:
289,130,227809,1,8,1:2:0:0:
218,200,228156,1,0,1:0:0:0:
284,275,228503,2,0,P|331:290|433:261,1,150,8|0,1:2|1:2,0:0:0:0:
454,225,229196,1,8,1:2:0:0:
473,126,229543,6,0,L|475:62,1,50,0|8,1:2|1:2,0:0:0:0:
394,16,230063,1,8,1:2:0:0:
344,25,230237,2,0,P|310:38|287:63,2,50,0|8|8,1:2|1:2|1:2,0:0:0:0:
365,124,230931,2,0,L|363:188,1,50,8|8,1:2|1:2,0:0:0:0:
356,273,231451,1,8,1:2:0:0:
255,273,231798,2,0,L|253:209,2,50,0|0|0,1:2|1:2|1:2,0:0:0:0:
219,308,232318,6,0,P|175:333|115:337,1,100,6|2,1:2|1:2,0:0:0:0:
30,312,233011,1,2,1:2:0:0:
101,242,233358,1,10,1:2:0:0:
27,173,233705,2,0,L|35:72,1,100,10|2,1:2|1:2,0:0:0:0:
129,38,234399,2,0,L|137:139,1,100,2|2,1:2|1:2,0:0:0:0:
207,208,235092,6,0,P|251:233|311:237,1,100,2|2,1:2|1:2,0:0:0:0:
396,212,235786,1,2,1:2:0:0:
325,142,236133,1,10,1:2:0:0:
231,106,236480,2,0,L|158:111,2,50,2|8|2,1:2|1:2|1:2,0:0:0:0:
301,35,237173,2,0,L|373:40,2,50,2|8|2,1:2|1:2|1:2,0:0:0:0:
202,16,237867,6,0,P|154:17|107:48,1,100,2|2,1:2|1:2,0:0:0:0:
86,87,238387,1,8,1:2:0:0:
74,135,238561,2,0,L|74:244,1,100,2|2,1:2|1:2,0:0:0:0:
121,322,239254,2,0,P|162:348|212:349,1,100,10|2,1:2|1:2,0:0:0:0:
260,335,239774,1,8,1:2:0:0:
301,307,239948,2,0,L|301:198,1,100,2|2,1:2|1:2,0:0:0:0:
336,171,240468,1,8,1:2:0:0:
371,135,240642,6,0,L|443:140,2,50,0|0|0,0:2|1:2|1:2,0:0:0:0:
335,99,241162,2,0,P|299:84|236:93,1,100,8|0,1:2|1:2,0:0:0:0:
199,120,241682,1,0,1:2:0:0:
158,208,242029,6,0,L|214:213,1,50,8|8,1:2|1:2,0:0:0:0:
283,342,242722,2,0,L|227:347,1,50,8|8,1:2|1:2,0:0:0:0:
256,192,243416,12,0,246754,0:2:0:0:
