osu file format v14

[General]
AudioFilename: audio.mp3
AudioLeadIn: 0
PreviewTime: 51972
Countdown: 0
SampleSet: Soft
StackLeniency: 0.4
Mode: 0
LetterboxInBreaks: 0
WidescreenStoryboard: 0

[Editor]
DistanceSpacing: 1.8
BeatDivisor: 4
GridSize: 32
TimelineZoom: 1

[Metadata]
Title:Snow halation
TitleUnicode:Snow halation
Artist:Sayaka Sasaki
ArtistUnicode:佐咲紗花
Creator:ktgster
Version:Insane
Source:ラブライブ! School idol project
Tags:SAYAKAVER love live! 2期 2nd season
BeatmapID:1453868
BeatmapSetID:685864

[Difficulty]
HPDrainRate:5.3
CircleSize:4
OverallDifficulty:8
ApproachRate:9
SliderMultiplier:1.7
SliderTickRate:1

[Events]
//Background and Video events
0,0,"bg.png",0,0
//Break Periods
2,96364,105475
//Storyboard Layer 0 (Background)
//Storyboard Layer 1 (Fail)
//Storyboard Layer 2 (Pass)
//Storyboard Layer 3 (Foreground)
//Storyboard Sound Samples

[TimingPoints]
642,346.820809248555,4,2,1,40,1,0
642,-166.666666666667,4,2,1,40,0,0
22665,-50,4,2,1,70,0,0
24225,-100,4,2,1,60,0,0
28040,-83.3333333333333,4,2,1,60,0,0
28387,-100,4,2,1,60,0,0
30295,-83.3333333333333,4,2,1,60,0,0
30642,-100,4,2,1,60,0,0
30815,-83.3333333333333,4,2,1,60,0,0
31162,-100,4,2,1,60,0,0
31682,-83.3333333333333,4,2,1,60,0,0
35324,-142.857142857143,4,2,1,50,0,0
40179,-100,4,2,1,60,0,0
40873,-100,4,2,1,60,0,0
45208,-66.6666666666667,4,2,1,60,0,0
46422,-100,4,2,1,60,0,0
49196,-76.9230769230769,4,2,1,70,0,0
50757,-133.333333333333,4,2,1,70,0,0
51277,-100,4,2,1,60,0,0
51971,-90.9090909090909,4,2,2,70,0,1
56133,-90.9090909090909,4,2,1,70,0,1
57520,-90.9090909090909,4,2,2,70,0,1
60121,-83.3333333333333,4,2,1,70,0,1
61682,-66.6666666666667,4,2,1,80,0,1
62896,-200,4,2,1,40,0,0
63069,-90.9090909090909,4,2,1,70,0,1
67231,-76.9230769230769,4,2,1,70,0,1
68618,-90.9090909090909,4,2,1,70,0,1
71393,-83.3333333333333,4,2,1,70,0,1
72780,-66.6666666666667,4,2,1,80,0,1
73821,-200,4,2,1,80,0,1
74168,-142.857142857143,4,2,1,50,0,0
85266,-100,4,2,1,60,0,0
94977,-50,4,2,1,70,0,0
96364,-200,4,3,1,30,0,0
106075,-200,4,2,1,40,0,0
107462,-100,4,2,1,60,0,0
117173,-200,4,2,1,60,0,0
118214,-83.3333333333333,4,2,1,60,0,0
118561,-142.857142857143,4,2,1,50,0,0
123416,-142.857142857143,4,2,1,60,0,0
124110,-100,4,2,1,60,0,0
128445,-66.6666666666667,4,2,1,60,0,0
129659,-100,4,2,1,60,0,0
132433,-76.9230769230769,4,2,1,70,0,0
133994,-133.333333333333,4,2,1,70,0,0
134514,-100,4,2,1,60,0,0
135208,-90.9090909090909,4,2,2,70,0,1
143358,-76.9230769230769,4,2,1,70,0,1
144919,-66.6666666666667,4,2,1,80,0,1
146133,-200,4,2,1,40,0,0
146306,-90.9090909090909,4,2,1,70,0,1
154630,-83.3333333333333,4,2,1,70,0,1
156017,-50,4,2,1,80,0,1
156537,-66.6666666666667,4,2,1,80,0,1
157405,-142.857142857143,4,2,1,50,0,0
190526,-142.857142857143,4,2,1,5,0,0
190699,-66.6666666666667,4,2,1,70,0,0
194861,-200,4,2,1,60,0,0
196248,-66.6666666666667,4,2,1,70,0,0
201277,-200,4,2,1,70,0,0
201624,-200,4,2,1,40,0,0
201798,-90.9090909090909,4,2,1,70,0,1
205959,-76.9230769230769,4,2,1,70,0,1
207347,-90.9090909090909,4,2,1,70,0,1
210121,-66.6666666666667,4,2,1,70,0,1
211509,-50,4,2,1,80,0,1
212896,-142.857142857143,4,2,1,50,0,0
219832,-66.6666666666667,4,2,1,60,0,0
220699,-100,4,2,1,60,0,0
230931,-142.857142857143,4,2,1,60,0,0
232318,-100,4,2,2,70,0,1
242029,-50,4,2,1,80,0,1
243416,-50,4,2,1,40,0,0
246754,-50,4,2,1,5,0,0

[Colours]
Combo1 : 170,170,213
Combo2 : 0,124,185
Combo3 : 89,164,255
Combo4 : 192,130,255

[HitObjects]
77,289,642,6,0,L|68:350,2,50.9999984436036,0|0|0,0:2|0:2|0:2,0:0:0:0:
145,244,1162,1,0,0:2:0:0:
201,303,1335,2,0,P|261:332|312:331,1,101.999996887207,0|0,0:2|0:2,0:0:0:0:
374,310,1855,1,0,0:2:0:0:
451,336,2029,6,0,L|452:274,1,50.9999984436036,0|0,0:2|0:2,0:0:0:0:
391,230,2376,1,0,0:2:0:0:
458,184,2549,2,0,P|474:140|466:71,1,101.999996887207,0|0,0:2|0:2,0:0:0:0:
418,22,3069,1,0,0:2:0:0:
418,22,3243,1,0,0:2:0:0:
338,6,3416,5,0,0:2:0:0:
309,166,3763,1,0,0:2:0:0:
360,228,3936,2,0,P|260:229|236:132,1,203.999993774414,0|0,0:2|0:0,0:0:0:0:
253,63,4803,6,0,L|316:51,2,50.9999984436036,0|0|0,0:2|0:2|0:2,0:0:0:0:
174,38,5324,1,0,0:2:0:0:
154,117,5497,2,0,P|119:137|5:123,1,152.999995330811,0|0,0:2|0:0,0:0:0:0:
10,126,6104,1,0,0:2:0:0:
10,126,6191,6,0,L|20:230,1,101.999996887207,0|0,0:2|0:2,0:0:0:0:
77,286,6711,1,0,0:2:0:0:
77,286,7058,1,0,0:2:0:0:
149,249,7231,1,0,0:2:0:0:
214,298,7405,1,0,0:2:0:0:
217,310,7491,1,0,0:2:0:0:
220,322,7578,5,0,0:2:0:0:
290,362,7751,1,0,0:2:0:0:
364,329,7925,1,0,0:2:0:0:
434,369,8098,1,0,0:2:0:0:
434,369,8445,1,0,0:2:0:0:
497,132,8965,6,0,P|454:106|328:177,1,203.999993774414,0|0,0:2|0:2,0:0:0:0:
298,244,9832,1,0,0:2:0:0:
240,302,10006,1,0,0:2:0:0:
161,322,10179,1,0,0:2:0:0:
85,292,10352,1,0,0:2:0:0:
256,192,10439,12,0,11740,0:0:0:0:
179,188,13127,6,0,L|183:132,1,50.9999984436036,0|0,0:2|0:2,0:0:0:0:
101,149,13474,2,0,L|105:93,1,50.9999984436036,0|0,0:2|0:2,0:0:0:0:
194,342,14514,6,0,L|198:286,1,50.9999984436036,0|0,0:2|0:2,0:0:0:0:
116,303,14861,2,0,L|120:247,1,50.9999984436036,0|0,0:2|0:2,0:0:0:0:
300,35,15902,5,0,0:2:0:0:
300,35,16422,1,0,0:2:0:0:
300,35,17289,6,0,L|304:91,3,50.9999984436036,0|0|0|0,0:2|0:2|0:2|0:2,0:0:0:0:
385,204,18676,6,0,L|381:148,1,50.9999984436036,0|0,0:2|0:2,0:0:0:0:
463,165,19023,2,0,L|459:109,1,50.9999984436036,0|0,0:2|0:2,0:0:0:0:
392,349,19890,5,0,0:2:0:0:
392,349,20584,1,0,0:2:0:0:
392,349,20931,1,0,0:2:0:0:
392,349,21451,6,0,P|302:300|95:320,1,305.999990661621,0|0,0:2|0:0,0:0:0:0:
8,174,22665,5,0,1:2:0:0:
8,174,22751,1,0,1:2:0:0:
8,174,22838,1,8,1:2:0:0:
212,208,23011,1,0,1:2:0:0:
358,29,23532,5,0,1:2:0:0:
154,63,23705,1,8,1:2:0:0:
384,348,24225,6,0,B|357:302|357:302|385:169,1,170,4|0,1:0|1:2,0:0:0:0:
464,143,24746,1,0,0:0:0:0:
292,89,24919,2,0,P|318:56|356:38,1,85,0|0,1:2|0:0,0:0:0:0:
296,206,25266,2,0,L|186:198,1,85,0|0,1:2|0:0,0:0:0:0:
11,267,25613,6,0,L|121:259,1,85,0|0,1:0|0:0,0:0:0:0:
203,98,25959,2,0,P|117:91|53:153,2,170,0|0|0,1:2|1:2|1:2,0:0:0:0:
288,136,26826,1,0,0:0:0:0:
217,281,27000,6,0,P|205:240|211:199,1,85,0|0,1:0|0:0,0:0:0:0:
356,281,27347,2,0,L|347:381,1,85,0|0,1:2|0:0,0:0:0:0:
488,155,27694,2,0,B|428:172|428:172|333:148,1,127.5,0|0,1:2|0:2,0:0:0:0:
288,136,28040,6,0,L|279:17,1,101.999996887207,8|0,1:2|0:2,0:0:0:0:
427,80,28387,5,0,1:2:0:0:
302,246,28561,2,0,P|367:238|427:278,1,127.5,8|0,1:2|0:2,0:0:0:0:
429,343,28907,2,0,L|300:351,1,127.5,0|0,1:2|0:2,0:0:0:0:
246,298,29254,1,8,1:2:0:0:
113,369,29428,2,0,P|104:329|118:281,1,85,0|0,1:2|0:0,0:0:0:0:
194,206,29774,6,0,B|117:184|117:184|-4:214,1,170,0|0,1:0|1:2,0:0:0:0:
115,6,30295,6,0,P|124:43|107:119,1,101.999996887207,0|0,1:0|1:2,0:0:0:0:
15,54,30642,1,0,0:2:0:0:
213,57,30815,2,0,P|213:99|191:172,1,101.999996887207,0|0,1:2|0:2,0:0:0:0:
0,292,31162,6,0,B|76:270|76:270|197:300,1,170,0|0,1:0|1:2,0:0:0:0:
348,377,31682,6,0,P|357:340|340:264,1,101.999996887207,8|0,1:2|1:2,0:0:0:0:
248,329,32029,1,0,0:2:0:0:
446,326,32202,2,0,P|446:284|424:211,1,101.999996887207,0|0,1:2|0:2,0:0:0:0:
225,81,32549,6,0,L|92:67,1,101.999996887207,8|0,1:2|1:2,0:0:0:0:
257,161,32896,2,0,L|124:147,1,101.999996887207,8|0,1:2|1:2,0:0:0:0:
289,241,33243,2,0,L|156:227,1,101.999996887207,8|0,1:2|1:2,0:0:0:0:
321,321,33589,2,0,L|188:307,1,101.999996887207,8|0,1:2|1:2,0:0:0:0:
18,289,33936,5,8,1:2:0:0:
187,230,34110,1,8,1:2:0:0:
61,207,34283,1,8,1:2:0:0:
219,310,34457,1,8,1:2:0:0:
88,378,34630,1,8,1:2:0:0:
135,124,34803,1,0,1:2:0:0:
135,124,34890,1,0,1:2:0:0:
135,124,34977,6,0,P|182:85|285:86,1,152.999995330811,8|0,1:2|0:2,0:0:0:0:
340,107,35324,6,0,L|350:236,1,118.999996368408,4|0,1:0|0:0,0:0:0:0:
285,288,35844,1,0,1:2:0:0:
347,350,36017,2,0,P|379:355|424:345,1,59.4999981842042,8|0,1:2|0:0,0:0:0:0:
469,288,36364,1,0,0:0:0:0:
253,372,36537,6,0,P|195:354|116:360,1,118.999996368408,0|0,1:2|1:2,0:0:0:0:
48,370,37058,1,0,1:2:0:0:
48,370,37405,2,0,L|59:293,2,59.4999981842042,8|0|0,1:2|0:0|0:0,0:0:0:0:
172,277,38098,6,0,L|162:148,1,118.999996368408,0|0,1:2|0:0,0:0:0:0:
227,96,38618,1,0,1:2:0:0:
165,34,38792,2,0,P|133:29|88:39,1,59.4999981842042,8|0,1:2|0:0,0:0:0:0:
43,96,39139,1,0,0:0:0:0:
259,12,39312,6,0,P|317:30|396:24,1,118.999996368408,0|0,1:2|1:2,0:0:0:0:
464,14,39832,1,0,1:2:0:0:
464,14,40006,1,0,0:0:0:0:
464,14,40179,5,8,1:2:0:0:
282,107,40352,1,0,1:2:0:0:
512,154,40526,1,8,1:2:0:0:
325,346,40873,6,0,L|341:234,1,85,4|0,1:0|0:0,0:0:0:0:
233,132,41220,2,0,B|199:181|199:181|235:312,1,170,8|0,1:2|0:2,0:0:0:0:
350,175,41740,1,0,1:2:0:0:
102,135,41913,2,0,P|93:177|103:227,1,85,8|0,1:2|0:0,0:0:0:0:
329,72,42260,6,0,P|263:20|179:22,1,170,0|8,1:0|1:2,0:0:0:0:
350,175,42780,2,0,P|433:176|499:125,1,170,0|0,0:2|1:2,0:0:0:0:
250,141,43300,2,0,B|258:135|249:146|206:162|208:229,1,85,8|0,1:2|0:0,0:0:0:0:
318,373,43647,6,0,L|302:261,1,85,0|0,1:0|0:0,0:0:0:0:
68,325,43994,2,0,B|117:359|117:359|249:343,1,170,8|0,1:2|0:2,0:0:0:0:
148,221,44514,1,0,1:2:0:0:
343,161,44688,2,0,P|299:149|246:159,1,85,8|0,1:2|0:0,0:0:0:0:
55,204,45035,5,0,1:2:0:0:
295,247,45208,1,8,1:2:0:0:
295,247,45555,1,8,1:2:0:0:
295,247,45902,1,0,1:2:0:0:
148,221,46075,1,8,1:2:0:0:
343,161,46248,1,8,1:2:0:0:
390,372,46422,6,0,L|278:356,1,85,0|0,1:0|0:0,0:0:0:0:
455,166,46769,2,0,B|489:215|489:215|473:347,1,170,8|0,1:2|0:2,0:0:0:0:
376,248,47289,1,0,1:2:0:0:
495,88,47462,2,0,P|446:86|387:44,1,85,8|0,1:2|0:0,0:0:0:0:
299,8,47809,5,0,1:0:0:0:
247,177,47983,1,0,0:0:0:0:
247,177,48156,2,0,L|356:168,1,85,8|0,1:2|0:2,0:0:0:0:
215,74,48503,1,0,0:0:0:0:
167,258,48676,1,0,1:2:0:0:
21,133,48850,2,0,P|66:131|115:143,1,85,8|0,1:2|0:0,0:0:0:0:
124,146,49110,1,0,0:2:0:0:
138,154,49196,6,0,L|143:292,1,110.499994941712,8|0,1:2|0:0,0:0:0:0:
238,169,49543,2,0,L|243:307,1,110.499994941712,8|0,1:2|0:0,0:0:0:0:
338,184,49890,2,0,L|343:322,1,110.499994941712,8|0,1:2|0:0,0:0:0:0:
437,198,50237,2,0,L|442:336,1,110.499994941712,8|0,1:2|0:0,0:0:0:0:
452,15,50584,5,8,1:2:0:0:
236,0,50757,1,8,1:2:0:0:
236,0,51104,1,8,1:2:0:0:
387,121,51277,1,0,0:2:0:0:
369,109,51364,1,0,0:2:0:0:
347,106,51451,1,0,1:2:0:0:
326,111,51537,1,0,1:2:0:0:
309,124,51624,1,8,1:2:0:0:
292,137,51711,1,0,0:2:0:0:
271,142,51798,1,8,1:2:0:0:
249,139,51884,1,0,0:2:0:0:
231,127,51971,6,0,P|188:102|119:100,1,93.5000028533936,4|0,1:0|0:0,0:0:0:0:
0,233,52318,2,0,L|142:222,1,140.25000428009,2|0,1:2|0:2,0:0:0:0:
163,219,52665,1,2,1:2:0:0:
43,137,52838,1,0,0:0:0:0:
119,320,53011,1,2,1:2:0:0:
256,224,53185,1,0,0:2:0:0:
256,224,53272,1,0,0:2:0:0:
256,224,53358,6,0,P|269:275|258:318,1,93.5000028533936,2|0,1:2|0:0,0:0:0:0:
334,177,53705,2,0,P|276:188|189:121,1,140.25000428009,2|0,1:2|0:2,0:0:0:0:
192,132,54052,1,2,1:2:0:0:
288,76,54225,1,0,0:0:0:0:
436,99,54399,2,0,L|454:240,1,140.25000428009,2|0,1:2|0:2,0:0:0:0:
456,261,54746,6,0,P|410:271|346:247,1,93.5000028533936,2|0,1:2|0:0,0:0:0:0:
224,362,55092,2,0,L|332:353,1,93.5000028533936,2|0,1:2|0:0,0:0:0:0:
288,178,55439,1,2,1:2:0:0:
227,268,55613,1,0,0:0:0:0:
192,132,55786,2,0,P|199:80|226:27,1,93.5000028533936,2|0,1:2|0:0,0:0:0:0:
412,17,56133,5,0,1:2:0:0:
369,159,56306,1,10,1:2:0:0:
336,62,56480,1,0,1:2:0:0:
481,47,56653,1,2,0:2:0:0:
439,197,56826,5,0,1:2:0:0:
412,17,57000,1,8,1:2:0:0:
286,132,57173,1,2,1:2:0:0:
510,146,57347,1,8,1:2:0:0:
324,261,57520,6,0,P|266:272|179:205,1,140.25000428009,2|0,1:2|0:2,0:0:0:0:
185,214,57867,1,2,1:2:0:0:
113,337,58040,1,0,0:0:0:0:
19,160,58214,2,0,P|34:211|21:264,1,93.5000028533936,2|0,1:2|0:0,0:0:0:0:
122,121,58561,1,2,1:2:0:0:
122,121,58734,1,0,0:2:0:0:
240,38,58907,6,0,L|370:49,1,93.5000028533936,2|0,1:2|0:0,0:0:0:0:
354,232,59254,2,0,L|279:124,1,93.5000028533936,2|0,1:2|0:0,0:0:0:0:
119,212,59601,2,0,P|171:214|221:244,1,93.5000028533936,2|0,1:2|0:0,0:0:0:0:
328,348,59948,1,2,1:2:0:0:
400,154,60121,1,8,1:2:0:0:
229,77,60295,6,0,B|286:83|286:83|354:53,1,101.999996887207,8|0,1:2|1:2,0:0:0:0:
476,2,60642,1,0,1:2:0:0:
497,141,60815,6,0,B|440:135|440:135|372:165,1,101.999996887207,8|0,1:2|0:2,0:0:0:0:
250,216,61162,1,0,1:2:0:0:
449,358,61335,6,0,P|460:308|457:251,1,101.999996887207,8|0,1:2|1:2,0:0:0:0:
458,257,61595,1,0,1:2:0:0:
458,257,61682,5,8,1:2:0:0:
144,333,61855,2,0,L|314:325,1,127.500004863739,8|0,1:2|0:0,0:0:0:0:
41,240,62202,6,0,L|48:393,1,127.500004863739,8|0,1:2|0:0,0:0:0:0:
151,182,62549,6,0,L|419:169,1,255.000009727478,8|0,1:2|0:2,0:0:0:0:
423,0,63069,6,0,P|372:-11|334:94,1,187.000005706787,4|8,1:0|1:2,0:0:0:0:
460,234,63589,1,0,0:2:0:0:
472,253,63676,1,0,0:2:0:0:
478,275,63763,1,0,0:2:0:0:
475,298,63850,1,0,0:2:0:0:
466,319,63936,1,0,1:2:0:0:
278,365,64110,2,0,P|286:322|336:273,1,93.5000028533936,8|0,1:2|0:0,0:0:0:0:
229,109,64457,6,0,P|253:161|159:251,1,187.000005706787,0|8,1:0|1:2,0:0:0:0:
20,220,64977,1,0,0:2:0:0:
20,220,65063,1,0,0:2:0:0:
20,220,65150,1,0,0:2:0:0:
115,135,65324,1,0,1:2:0:0:
86,305,65497,2,0,P|97:353|129:386,1,93.5000028533936,8|0,1:2|0:0,0:0:0:0:
308,361,65844,6,0,B|366:335|366:335|500:363,1,187.000005706787,0|8,1:0|1:2,0:0:0:0:
395,150,66364,2,0,P|366:197|470:246,1,187.000005706787,0|0,0:2|1:2,0:0:0:0:
454,257,66798,1,0,1:0:0:0:
454,257,66884,1,8,1:2:0:0:
505,162,67058,1,0,0:0:0:0:
325,98,67231,5,0,1:2:0:0:
183,141,67405,1,2,0:2:0:0:
280,174,67578,1,8,1:2:0:0:
295,29,67751,1,2,1:2:0:0:
145,71,67925,5,0,0:2:0:0:
210,224,68098,1,2,1:2:0:0:
325,98,68272,1,8,1:2:0:0:
130,161,68445,1,2,1:2:0:0:
348,209,68618,6,0,P|392:222|507:124,1,187.000005706787,0|8,1:0|1:2,0:0:0:0:
400,111,69139,1,0,0:2:0:0:
472,323,69312,2,0,P|427:315|382:326,1,93.5000028533936,0|0,0:2|1:2,0:0:0:0:
381,326,69572,1,0,1:0:0:0:
381,326,69659,1,8,1:2:0:0:
277,364,69832,1,0,0:0:0:0:
94,271,70006,6,0,B|152:297|152:297|286:269,1,187.000005706787,0|8,1:0|1:2,0:0:0:0:
512,200,70526,2,0,B|454:174|454:174|320:202,1,187.000005706787,0|0,0:2|1:2,0:0:0:0:
136,106,71046,2,0,P|174:128|250:120,1,93.5000028533936,8|0,1:2|0:0,0:0:0:0:
420,106,71393,6,0,L|409:-20,1,101.999996887207,8|0,1:2|0:0,0:0:0:0:
333,199,71740,2,0,L|322:73,1,101.999996887207,8|0,1:2|0:0,0:0:0:0:
246,292,72087,2,0,L|235:166,1,101.999996887207,8|0,1:2|0:0,0:0:0:0:
371,321,72433,1,8,1:2:0:0:
121,263,72607,1,0,1:2:0:0:
460,210,72780,6,0,L|321:197,1,127.500004863739,0|0,1:2|0:0,0:0:0:0:
80,171,73127,1,8,1:2:0:0:
359,103,73300,1,0,1:2:0:0:
359,103,73647,1,0,1:2:0:0:
364,87,73734,1,0,1:2:0:0:
369,71,73821,1,8,1:2:0:0:
486,258,74168,6,0,B|446:269|446:269|359:254,1,118.999996368408,4|0,1:0|0:2,0:0:0:0:
314,200,74688,1,0,1:2:0:0:
286,306,74861,2,0,P|265:273|183:257,1,118.999996368408,8|0,1:2|0:2,0:0:0:0:
136,309,75381,1,0,1:2:0:0:
136,309,75555,6,0,L|131:373,1,59.4999981842042,0|0,0:2|1:2,0:0:0:0:
46,253,75902,2,0,L|51:317,1,59.4999981842042,0|0,1:2|0:2,0:0:0:0:
171,173,76248,2,0,P|117:189|56:169,1,118.999996368408,8|0,1:2|0:2,0:0:0:0:
255,29,76942,6,0,B|244:69|244:69|259:156,1,118.999996368408,0|0,1:2|0:2,0:0:0:0:
313,201,77462,1,0,1:2:0:0:
207,229,77636,2,0,P|240:250|256:332,1,118.999996368408,8|0,1:2|0:2,0:0:0:0:
379,369,78156,1,0,1:2:0:0:
379,369,78329,6,0,L|443:364,1,59.4999981842042,0|0,0:2|1:2,0:0:0:0:
323,279,78676,2,0,L|387:284,1,59.4999981842042,0|0,1:2|0:2,0:0:0:0:
469,255,79023,1,8,1:2:0:0:
469,255,79196,1,0,1:2:0:0:
377,204,79370,1,8,1:2:0:0:
377,204,79543,1,0,0:2:0:0:
507,175,79717,5,0,1:2:0:0:
507,175,80063,2,0,L|498:115,1,59.4999981842042,0|0,0:2|1:2,0:0:0:0:
428,81,80410,1,8,1:2:0:0:
359,117,80584,2,0,P|313:133|242:119,1,118.999996368408,0|0,0:2|1:2,0:0:0:0:
245,120,81277,5,0,1:2:0:0:
190,65,81451,2,0,L|183:2,1,59.4999981842042,0|0,1:2|0:2,0:0:0:0:
95,138,81798,1,8,1:2:0:0:
94,138,81971,2,0,P|152:150|193:192,1,118.999996368408,0|0,1:2|1:2,0:0:0:0:
93,368,82491,6,0,B|77:336|77:336|94:255,1,118.999996368408,0|0,1:2|0:2,0:0:0:0:
156,300,83011,1,0,1:2:0:0:
235,365,83185,2,0,L|231:305,1,59.4999981842042,8|0,1:2|0:2,0:0:0:0:
288,248,83532,1,0,1:2:0:0:
288,248,83878,5,0,1:2:0:0:
288,248,84399,1,0,1:2:0:0:
302,250,84485,1,0,1:2:0:0:
316,251,84572,2,0,L|354:257,3,29.7499990921021,0|0|0|0,1:2|0:2|1:2|0:2,0:0:0:0:
359,249,84919,2,0,L|397:255,3,29.7499990921021,0|0|0|0,0:2|0:2|0:2|0:2,0:0:0:0:
402,247,85266,6,0,B|454:228|454:228|474:102,1,170,4|0,1:0|1:2,0:0:0:0:
292,7,85786,2,0,B|309:120|309:120|361:139,1,170,0|0,0:2|1:2,0:0:0:0:
390,48,86306,1,8,1:2:0:0:
215,93,86480,1,0,0:2:0:0:
472,115,86653,6,0,P|501:191|476:306,1,170,0|8,1:2|1:2,0:0:0:0:
386,371,87173,1,0,0:0:0:0:
273,218,87347,2,0,P|323:207|364:211,1,85,0|0,0:2|1:2,0:0:0:0:
200,312,87694,2,0,L|99:307,1,85,8|0,1:2|0:2,0:0:0:0:
32,192,88040,5,0,1:2:0:0:
158,228,88214,1,0,0:0:0:0:
102,139,88387,1,8,1:2:0:0:
115,307,88561,2,0,B|134:359|134:359|260:379,1,170,0|0,0:2|1:2,0:0:0:0:
338,243,89081,2,0,P|304:241|245:270,1,85,8|0,1:2|0:2,0:0:0:0:
458,355,89428,5,0,1:2:0:0:
458,355,89514,1,0,1:2:0:0:
458,355,89601,1,0,1:2:0:0:
428,220,89774,1,8,1:2:0:0:
428,220,89861,1,0,1:2:0:0:
428,220,89948,1,0,1:2:0:0:
319,306,90121,6,0,L|369:311,2,42.5,8|0|0,1:2|1:2|1:2,0:0:0:0:
289,171,90468,2,0,L|339:166,2,42.5,8|0|0,1:2|1:2|1:2,0:0:0:0:
487,94,90815,6,0,P|448:93|394:67,1,85,0|0,1:2|0:0,0:0:0:0:
333,31,91162,1,8,1:2:0:0:
438,215,91335,2,0,P|386:170|276:177,1,170,0|0,0:2|1:2,0:0:0:0:
323,360,91855,2,0,P|324:318|338:278,1,85,8|0,1:2|0:2,0:0:0:0:
487,94,92202,5,0,1:2:0:0:
487,94,92549,2,0,P|437:85|387:53,1,85,8|0,1:2|0:0,0:0:0:0:
340,16,92896,1,0,0:2:0:0:
340,16,93069,1,0,1:2:0:0:
288,170,93243,2,0,L|395:160,1,85,8|0,1:2|0:0,0:0:0:0:
488,318,93589,5,0,1:2:0:0:
362,282,93763,1,0,0:0:0:0:
418,371,93936,1,8,1:2:0:0:
275,369,94110,2,0,B|223:350|223:350|203:224,1,170,0|0,0:2|1:2,0:0:0:0:
362,282,94630,1,8,1:2:0:0:
362,282,94977,5,8,1:2:0:0:
396,78,95150,1,8,1:2:0:0:
197,19,95497,5,0,1:2:0:0:
197,19,95584,1,0,1:2:0:0:
197,19,95670,1,8,1:2:0:0:
231,223,95844,1,8,1:2:0:0:
123,224,106075,6,0,L|68:222,2,42.5,0|0|0,0:2|0:2|0:2,0:0:0:0:
183,163,106595,1,0,0:2:0:0:
205,245,106769,2,0,L|207:300,1,42.5,0|0,0:2|0:2,0:0:0:0:
286,260,107115,2,0,L|288:315,1,42.5,0|0,0:2|0:2,0:0:0:0:
347,362,107462,6,0,P|399:367|489:285,1,170,4|8,1:0|1:2,0:0:0:0:
478,168,107983,1,0,0:2:0:0:
478,168,108069,1,0,0:0:0:0:
478,168,108156,1,0,0:0:0:0:
385,264,108329,1,0,1:2:0:0:
330,82,108503,2,0,P|369:86|439:63,1,85,8|0,1:2|0:0,0:0:0:0:
272,17,108850,6,0,P|296:89|259:178,1,170,0|8,1:0|1:2,0:0:0:0:
94,97,109370,1,0,0:2:0:0:
113,85,109457,1,0,0:2:0:0:
135,79,109543,1,0,0:2:0:0:
158,82,109630,1,0,0:2:0:0:
179,91,109717,1,0,1:2:0:0:
157,264,109890,2,0,P|140:221|144:165,1,85,8|0,1:2|0:0,0:0:0:0:
263,319,110237,6,0,P|201:301|75:340,1,170,0|8,1:0|1:2,0:0:0:0:
27,367,110757,1,0,0:0:0:0:
27,367,110844,1,0,0:2:0:0:
27,367,110931,1,0,0:2:0:0:
60,229,111104,1,0,1:2:0:0:
8,104,111277,2,0,P|52:112|138:80,1,127.5,8|0,1:2|0:2,0:0:0:0:
145,73,111624,5,0,1:2:0:0:
266,163,111798,2,0,P|246:111|259:31,1,127.5,8|0,1:2|0:2,0:0:0:0:
321,5,112144,2,0,L|452:12,1,127.5,8|0,1:2|0:2,0:0:0:0:
502,66,112491,1,0,1:2:0:0:
380,123,112665,1,8,1:2:0:0:
380,123,112838,1,8,1:2:0:0:
505,222,113011,6,0,P|454:214|350:289,1,170,0|8,1:0|1:2,0:0:0:0:
297,378,113532,1,0,0:2:0:0:
297,378,113618,1,0,0:0:0:0:
297,378,113705,1,0,0:0:0:0:
461,333,113878,1,0,1:2:0:0:
247,273,114052,2,0,P|240:235|253:173,1,85,8|0,1:2|0:0,0:0:0:0:
255,170,114312,1,0,0:2:0:0:
267,152,114399,6,0,P|284:86|219:11,1,170,0|8,1:0|1:2,0:0:0:0:
110,93,114919,1,0,0:2:0:0:
129,105,115006,1,0,0:2:0:0:
151,111,115092,1,0,0:2:0:0:
174,108,115179,1,0,0:2:0:0:
195,99,115266,1,0,1:2:0:0:
30,28,115439,2,0,P|9:69|16:131,1,85,8|0,1:2|0:0,0:0:0:0:
13,127,115699,1,0,0:2:0:0:
22,146,115786,6,0,P|48:222|28:313,1,170,0|8,1:0|1:2,0:0:0:0:
226,218,116306,1,0,0:2:0:0:
207,206,116393,1,0,0:0:0:0:
185,200,116480,1,0,0:0:0:0:
162,203,116566,1,0,0:2:0:0:
141,212,116653,1,0,1:2:0:0:
175,359,116826,2,0,L|266:348,1,85,8|0,1:2|0:0,0:0:0:0:
463,342,117173,5,0,1:2:0:0:
463,342,117347,1,0,1:2:0:0:
463,342,117520,1,0,1:2:0:0:
463,342,117694,1,0,1:2:0:0:
463,342,117867,1,0,1:2:0:0:
337,264,118040,1,0,1:2:0:0:
337,264,118127,1,0,1:2:0:0:
337,264,118214,2,0,P|383:215|474:195,1,152.999995330811,8|0,1:2|0:2,0:0:0:0:
496,117,118561,6,0,P|437:100|395:54,1,118.999996368408,4|0,1:0|0:0,0:0:0:0:
323,9,119081,1,0,1:2:0:0:
260,71,119254,2,0,P|255:103|265:148,1,59.4999981842042,8|0,1:2|0:0,0:0:0:0:
313,200,119601,1,0,0:0:0:0:
181,255,119774,6,0,P|181:195|164:139,1,118.999996368408,0|0,1:2|1:2,0:0:0:0:
91,85,120295,1,0,1:2:0:0:
91,85,120642,2,0,L|14:74,2,59.4999981842042,8|0|0,1:2|0:0|0:0,0:0:0:0:
16,267,121335,6,0,P|75:284|117:330,1,118.999996368408,0|0,1:2|0:0,0:0:0:0:
189,375,121855,1,0,1:2:0:0:
252,313,122029,2,0,P|257:281|247:236,1,59.4999981842042,8|0,1:2|0:0,0:0:0:0:
199,184,122376,1,0,0:0:0:0:
331,129,122549,6,0,P|330:188|347:245,1,118.999996368408,0|0,1:2|1:2,0:0:0:0:
421,299,123069,1,0,1:2:0:0:
504,267,123243,1,0,0:0:0:0:
504,267,123416,5,8,1:2:0:0:
331,155,123589,1,0,1:2:0:0:
406,377,123763,1,8,1:2:0:0:
406,377,124110,6,0,P|348:340|243:331,1,170,4|8,1:0|1:2,0:0:0:0:
124,361,124630,1,0,0:2:0:0:
112,342,124717,1,0,0:2:0:0:
106,320,124803,1,0,0:2:0:0:
109,297,124890,1,0,0:2:0:0:
118,276,124977,1,0,1:2:0:0:
238,150,125150,2,0,P|255:193|245:261,1,85,8|0,1:2|0:0,0:0:0:0:
57,166,125497,6,0,B|67:46|67:46|109:0,1,170,0|8,1:0|1:2,0:0:0:0:
238,150,126017,2,0,P|258:206|208:306,1,170,0|0,0:2|1:2,0:0:0:0:
168,86,126537,2,0,P|201:62|261:57,1,85,8|0,1:2|0:0,0:0:0:0:
265,56,126798,1,0,0:2:0:0:
286,57,126884,6,0,P|351:64|481:31,1,170,0|8,1:0|1:2,0:0:0:0:
366,249,127405,1,0,0:2:0:0:
354,230,127491,1,0,0:2:0:0:
348,208,127578,1,0,0:2:0:0:
351,185,127665,1,0,0:2:0:0:
360,164,127751,1,0,1:2:0:0:
475,322,127925,2,0,P|436:324|383:355,1,85,8|0,1:2|0:0,0:0:0:0:
292,384,128272,5,0,1:2:0:0:
256,192,128445,1,8,1:2:0:0:
256,192,128792,1,8,1:2:0:0:
256,192,129139,1,0,1:2:0:0:
200,294,129312,1,8,1:2:0:0:
159,136,129485,1,8,1:2:0:0:
68,333,129659,6,0,P|70:275|51:160,1,170,0|8,1:0|1:2,0:0:0:0:
176,53,130179,1,0,0:2:0:0:
182,74,130266,1,0,0:2:0:0:
182,97,130352,1,0,0:2:0:0:
173,118,130439,1,0,0:2:0:0:
159,136,130526,1,0,1:2:0:0:
28,37,130699,1,8,1:2:0:0:
28,37,130873,1,0,0:0:0:0:
147,229,131046,5,0,1:0:0:0:
245,54,131220,1,0,0:0:0:0:
245,54,131393,2,0,P|239:93|253:149,1,85,8|0,1:2|0:2,0:0:0:0:
430,175,131740,1,0,0:0:0:0:
350,48,131913,1,0,1:2:0:0:
309,257,132087,2,0,P|270:251|214:265,1,85,8|0,1:2|1:0,0:0:0:0:
207,270,132347,1,0,1:2:0:0:
191,284,132433,6,0,L|186:146,1,110.499994941712,8|0,1:2|0:0,0:0:0:0:
375,188,132780,2,0,L|370:77,1,110.499994941712,8|0,1:2|0:0,0:0:0:0:
283,236,133127,2,0,L|278:125,1,110.499994941712,8|0,1:2|0:0,0:0:0:0:
467,140,133474,2,0,L|462:29,1,110.499994941712,8|0,1:2|0:0,0:0:0:0:
298,20,133821,5,8,1:2:0:0:
283,236,133994,1,8,1:2:0:0:
283,236,134341,1,8,1:2:0:0:
179,107,134514,1,0,0:2:0:0:
167,125,134601,1,0,0:2:0:0:
164,147,134688,1,0,1:2:0:0:
169,168,134774,1,0,1:2:0:0:
182,185,134861,1,8,1:2:0:0:
195,202,134948,1,0,0:2:0:0:
200,223,135035,1,8,1:2:0:0:
197,245,135121,1,0,0:2:0:0:
185,263,135208,6,0,P|160:306|158:375,1,93.5000028533936,4|0,1:0|0:0,0:0:0:0:
19,199,135555,2,0,L|161:188,1,140.25000428009,2|0,1:2|0:2,0:0:0:0:
182,185,135902,1,2,1:2:0:0:
84,71,136075,1,0,0:0:0:0:
262,31,136248,2,0,P|261:75|282:137,1,93.5000028533936,2|0,1:2|0:2,0:0:0:0:
288,141,136509,1,0,0:2:0:0:
310,147,136595,6,0,L|427:141,1,93.5000028533936,2|0,1:2|0:0,0:0:0:0:
488,288,136942,2,0,P|429:304|365:251,1,140.25000428009,2|0,1:2|0:2,0:0:0:0:
360,238,137289,1,2,1:2:0:0:
508,136,137462,1,0,0:0:0:0:
279,79,137636,2,0,P|284:124|266:224,1,140.25000428009,2|0,1:2|0:2,0:0:0:0:
248,229,137983,6,0,L|138:215,1,93.5000028533936,2|0,1:2|0:0,0:0:0:0:
0,334,138329,2,0,L|110:320,1,93.5000028533936,2|0,1:2|0:0,0:0:0:0:
30,145,138676,2,0,P|39:193|28:242,1,93.5000028533936,2|0,1:2|0:0,0:0:0:0:
203,124,139023,2,0,P|194:76|205:27,1,93.5000028533936,2|0,1:2|0:0,0:0:0:0:
402,0,139370,5,2,1:2:0:0:
362,188,139543,1,8,1:2:0:0:
312,81,139717,1,2,1:2:0:0:
452,269,140063,5,2,1:2:0:0:
412,81,140237,1,8,1:2:0:0:
362,188,140410,1,2,1:2:0:0:
502,162,140584,1,8,1:2:0:0:
359,292,140757,6,0,P|354:342|370:398,1,93.5000028533936,2|0,1:2|0:0,0:0:0:0:
134,288,141104,2,0,P|209:273|253:228,1,140.25000428009,2|0,1:2|0:2,0:0:0:0:
263,208,141451,1,2,1:2:0:0:
151,170,141624,1,0,0:0:0:0:
33,262,141798,2,0,P|34:317|54:356,1,93.5000028533936,2|0,1:2|0:2,0:0:0:0:
72,360,142058,1,0,0:2:0:0:
95,360,142144,6,0,L|212:354,1,93.5000028533936,2|0,1:2|0:0,0:0:0:0:
263,208,142491,2,0,L|146:202,1,93.5000028533936,2|0,1:2|0:0,0:0:0:0:
311,310,142838,2,0,P|349:301|414:313,1,93.5000028533936,2|0,1:2|0:0,0:0:0:0:
511,371,143185,1,2,1:2:0:0:
511,371,143358,1,8,1:2:0:0:
512,203,143532,6,0,B|518:146|518:146|488:78,1,110.499994941712,8|0,1:2|1:2,0:0:0:0:
423,1,143878,1,0,1:2:0:0:
426,219,144052,6,0,B|432:162|432:162|402:94,1,110.499994941712,8|0,1:2|0:2,0:0:0:0:
337,17,144399,1,0,1:2:0:0:
340,235,144572,6,0,B|346:178|346:178|316:110,1,110.499994941712,8|0,1:2|1:2,0:0:0:0:
309,125,144832,1,0,1:2:0:0:
292,121,144919,5,8,1:2:0:0:
193,242,145092,2,0,L|209:408,1,127.500004863739,8|0,1:2|0:0,0:0:0:0:
480,333,145439,6,0,L|314:317,1,127.500004863739,8|0,1:2|0:0,0:0:0:0:
55,149,145786,6,0,L|342:121,1,255.000009727478,8|0,1:2|0:2,0:0:0:0:
480,333,146306,6,0,P|418:346|402:229,1,187.000005706787,4|8,1:0|1:2,0:0:0:0:
466,116,146826,1,0,0:2:0:0:
478,97,146913,1,0,0:2:0:0:
484,75,147000,1,0,0:2:0:0:
481,52,147087,1,0,0:2:0:0:
472,31,147173,1,0,1:2:0:0:
268,95,147347,2,0,P|319:95|375:65,1,93.5000028533936,8|0,1:2|0:0,0:0:0:0:
190,27,147694,6,0,P|165:109|228:191,1,187.000005706787,0|8,1:0|1:2,0:0:0:0:
394,230,148214,1,0,0:2:0:0:
413,238,148300,1,0,0:2:0:0:
430,255,148387,1,0,0:2:0:0:
440,275,148474,1,0,0:2:0:0:
443,297,148561,1,0,1:2:0:0:
302,248,148734,2,0,P|307:196|359:145,1,93.5000028533936,8|0,1:2|0:0,0:0:0:0:
365,368,149081,6,0,L|172:357,1,187.000005706787,0|8,1:0|1:2,0:0:0:0:
75,176,149601,2,0,P|125:165|207:271,1,187.000005706787,0|0,0:2|1:2,0:0:0:0:
208,255,150035,1,0,1:0:0:0:
208,255,150121,1,8,1:2:0:0:
91,358,150295,1,0,0:0:0:0:
0,247,150468,5,0,1:2:0:0:
16,86,150642,1,0,0:0:0:0:
75,176,150815,1,8,1:2:0:0:
180,29,150988,2,0,B|154:87|154:87|182:221,1,187.000005706787,0|0,1:2|1:2,0:0:0:0:
289,108,151509,1,8,1:2:0:0:
289,108,151682,1,0,1:2:0:0:
376,230,151855,6,0,P|387:273|376:333,1,93.5000028533936,0|0,1:0|0:0,0:0:0:0:
239,380,152202,1,8,1:2:0:0:
156,255,152376,1,0,0:2:0:0:
175,267,152462,1,0,0:2:0:0:
197,273,152549,1,0,0:2:0:0:
220,270,152636,1,0,0:2:0:0:
241,261,152722,1,0,1:2:0:0:
243,252,152809,1,0,1:0:0:0:
245,242,152896,2,0,P|248:204|236:138,1,93.5000028533936,8|0,1:2|0:0,0:0:0:0:
121,42,153243,6,0,B|179:68|179:68|313:40,1,187.000005706787,0|8,1:0|1:2,0:0:0:0:
512,129,153763,2,0,B|454:103|454:103|320:131,1,187.000005706787,0|0,0:2|1:2,0:0:0:0:
419,323,154283,1,8,1:2:0:0:
436,213,154457,1,0,0:0:0:0:
253,261,154630,6,0,L|384:256,1,101.999996887207,8|0,1:2|0:0,0:0:0:0:
174,177,154977,2,0,L|305:172,1,101.999996887207,8|0,1:2|0:0,0:0:0:0:
95,93,155324,2,0,L|226:88,1,101.999996887207,8|0,1:2|0:0,0:0:0:0:
67,211,155670,1,8,1:2:0:0:
253,261,155844,1,8,1:2:0:0:
8,369,156017,6,0,L|174:353,1,127.500004863739,8|0,1:2|0:0,0:0:0:0:
501,284,156537,6,0,L|335:268,1,127.500004863739,8|0,1:2|0:0,0:0:0:0:
154,252,156884,1,0,1:2:0:0:
298,364,157058,1,8,1:2:0:0:
246,151,157231,1,0,1:2:0:0:
246,151,157318,1,0,1:2:0:0:
246,151,157405,1,4,1:0:0:0:
51,34,157751,5,0,0:2:0:0:
51,34,157925,1,0,1:2:0:0:
51,34,158098,2,0,B|40:74|40:74|55:161,1,118.999996368408,8|0,1:2|0:2,0:0:0:0:
109,206,158618,1,0,1:2:0:0:
7,256,158792,2,0,P|42:262|72:277,1,59.4999981842042,0|0,0:2|1:2,0:0:0:0:
62,373,159139,2,0,P|97:367|127:352,1,59.4999981842042,0|0,1:2|0:2,0:0:0:0:
195,245,159485,2,0,P|181:276|291:323,1,178.499994552612,8|0,1:2|0:0,0:0:0:0:
441,241,160179,5,0,1:2:0:0:
441,241,160526,1,0,0:2:0:0:
414,168,160699,1,0,1:2:0:0:
498,173,160873,2,0,P|486:121|494:48,1,118.999996368408,8|0,1:2|0:2,0:0:0:0:
425,15,161393,1,0,1:2:0:0:
338,112,161566,6,0,P|341:79|336:47,1,59.4999981842042,0|0,0:2|1:2,0:0:0:0:
272,10,161913,1,0,1:2:0:0:
272,10,162087,1,0,0:2:0:0:
213,158,162260,2,0,L|221:94,1,59.4999981842042,8|0,1:2|1:2,0:0:0:0:
142,68,162607,2,0,L|150:4,1,59.4999981842042,8|0,1:2|0:2,0:0:0:0:
13,127,162954,6,0,P|71:125|136:155,1,118.999996368408,0|0,1:2|0:2,0:0:0:0:
170,211,163474,1,0,1:2:0:0:
59,310,163647,1,8,1:2:0:0:
59,310,163821,2,0,P|51:280|54:247,1,59.4999981842042,0|0,0:2|0:0,0:0:0:0:
153,346,164168,6,0,P|186:335|286:337,1,118.999996368408,0|0,1:2|1:2,0:0:0:0:
344,353,164688,1,0,1:2:0:0:
344,353,164861,1,0,0:2:0:0:
364,221,165035,2,0,L|302:226,1,59.4999981842042,8|0,1:2|1:2,0:0:0:0:
304,225,165555,1,0,1:2:0:0:
183,182,165728,6,0,P|163:138|177:51,1,118.999996368408,0|0,1:2|0:0,0:0:0:0:
225,16,166248,1,0,1:2:0:0:
302,12,166422,2,0,L|432:18,1,118.999996368408,8|0,1:2|1:2,0:0:0:0:
420,17,167115,5,0,1:2:0:0:
420,17,167636,1,0,1:2:0:0:
425,30,167722,1,0,1:2:0:0:
430,43,167809,1,8,1:2:0:0:
454,116,167983,2,0,P|461:147|453:195,2,59.4999981842042,8|0|0,1:2|0:2|0:0,0:0:0:0:
378,100,168503,6,0,P|333:86|300:197,1,178.499994552612,4|0,1:0|1:2,0:0:0:0:
347,231,169196,1,8,1:2:0:0:
293,287,169370,2,0,P|338:270|433:281,1,118.999996368408,0|0,0:2|1:2,0:0:0:0:
512,169,169890,6,0,L|449:177,1,59.4999981842042,0|0,0:2|1:2,0:0:0:0:
385,138,170237,1,0,1:2:0:0:
385,138,170584,1,8,1:2:0:0:
380,60,170757,2,0,P|329:86|312:160,1,118.999996368408,0|0,0:2|0:2,0:0:0:0:
311,156,171191,1,0,0:2:0:0:
313,170,171277,6,0,L|335:295,1,118.999996368408,0|0,1:2|0:2,0:0:0:0:
399,329,171798,1,0,1:2:0:0:
402,252,171971,1,8,1:2:0:0:
467,293,172144,1,0,0:0:0:0:
470,216,172318,1,0,0:2:0:0:
402,252,172491,1,0,1:2:0:0:
337,210,172665,6,0,L|323:132,1,59.4999981842042,0|0,0:2|1:2,0:0:0:0:
240,266,173011,2,0,L|253:188,1,59.4999981842042,0|0,1:2|0:2,0:0:0:0:
321,360,173358,2,0,P|322:320|306:283,1,59.4999981842042,8|0,1:2|0:2,0:0:0:0:
170,326,173705,2,0,P|163:354|165:384,1,59.4999981842042,8|0,1:2|0:2,0:0:0:0:
79,216,174052,6,0,P|166:234|250:207,1,178.499994552612,0|0,1:2|1:2,0:0:0:0:
302,149,174746,1,8,1:2:0:0:
302,149,175092,1,0,0:0:0:0:
253,88,175266,1,0,1:2:0:0:
306,32,175439,5,0,0:0:0:0:
376,63,175613,2,0,P|406:69|452:61,2,59.4999981842042,0|0|0,1:2|1:2|0:2,0:0:0:0:
306,32,176133,2,0,B|261:47|261:47|250:98,2,89.2499972763062,8|0|0,1:2|0:2|0:2,0:0:0:0:
324,143,176826,5,0,1:2:0:0:
290,212,177000,1,0,0:2:0:0:
344,266,177173,2,0,P|351:298|348:333,1,59.4999981842042,0|0,0:2|1:2,0:0:0:0:
494,228,177520,2,0,P|449:227|387:191,1,118.999996368408,8|0,1:2|0:2,0:0:0:0:
324,143,178040,1,0,1:2:0:0:
459,61,178214,6,0,L|457:130,1,59.4999981842042,0|0,0:2|1:2,0:0:0:0:
244,101,178561,2,0,P|286:62|357:58,1,118.999996368408,0|8,1:2|1:2,0:0:0:0:
324,143,179081,1,0,1:2:0:0:
174,208,179254,2,0,P|147:217|102:219,1,59.4999981842042,8|0,1:2|0:2,0:0:0:0:
9,332,179601,6,0,P|56:323|189:346,1,178.499994552612,0|0,1:2|1:2,0:0:0:0:
254,373,180295,1,8,1:2:0:0:
331,373,180468,1,0,0:2:0:0:
400,338,180642,2,0,P|420:308|422:272,1,59.4999981842042,0|0,0:2|1:2,0:0:0:0:
425,208,180988,6,0,L|422:131,1,59.4999981842042,0|0,0:2|1:2,0:0:0:0:
381,82,181335,1,0,1:0:0:0:
336,193,181509,1,0,0:2:0:0:
336,193,181595,1,0,0:2:0:0:
336,193,181682,1,8,1:2:0:0:
285,251,181855,1,0,0:2:0:0:
209,267,182029,2,0,P|176:268|128:255,1,59.4999981842042,0|0,0:2|0:2,0:0:0:0:
4,181,182376,6,0,P|38:166|178:161,1,178.499994552612,0|0,1:2|1:2,0:0:0:0:
249,187,183069,2,0,B|294:172|294:172|305:121,2,89.2499972763062,8|0|0,1:2|0:2|1:2,0:0:0:0:
184,302,183763,6,0,P|178:273|179:244,1,59.4999981842042,0|0,0:2|1:2,0:0:0:0:
277,349,184110,1,0,1:2:0:0:
277,349,184457,2,0,L|348:353,1,59.4999981842042,8|0,1:2|1:2,0:0:0:0:
436,310,184803,2,0,L|507:314,1,59.4999981842042,8|0,1:2|0:2,0:0:0:0:
314,233,185150,6,0,P|410:232|497:188,1,178.499994552612,0|0,1:2|1:2,0:0:0:0:
483,198,185757,1,0,0:2:0:0:
483,198,185844,1,8,1:2:0:0:
436,310,186017,1,0,0:2:0:0:
390,128,186191,1,0,0:2:0:0:
390,128,186364,1,0,1:2:0:0:
390,128,186711,6,0,L|397:60,1,59.4999981842042,0|0,1:2|1:2,0:0:0:0:
396,68,187231,1,8,1:2:0:0:
256,192,187925,6,0,L|256:224,1,29.7499990921021,0|0,0:2|0:0,0:0:0:0:
256,192,188098,12,0,190526,0:2:0:0:
64,256,190699,5,4,1:0:0:0:
448,128,191740,5,8,1:2:0:0:
448,128,191913,1,0,1:2:0:0:
256,192,192780,5,0,3:0:0:0:
256,192,193127,1,0,3:0:0:0:
256,352,193474,5,4,1:0:0:0:
256,32,193994,1,4,1:0:0:0:
327,271,194861,6,0,L|359:268,2,28.3333333333333,0|0|0,3:2|3:2|3:2,0:0:0:0:
259,228,195208,2,0,L|227:225,2,28.3333333333333,0|0|0,3:2|3:2|3:2,0:0:0:0:
327,185,195555,2,0,L|359:182,2,28.3333333333333,0|0|0,3:2|3:2|3:2,0:0:0:0:
259,142,195902,2,0,L|227:139,2,28.3333333333333,0|0|0,3:2|3:2|3:2,0:0:0:0:
327,99,196248,5,4,1:0:0:0:
185,285,197289,5,4,1:0:0:0:
185,285,197462,1,4,1:0:0:0:
256,192,198676,5,8,1:2:0:0:
256,32,199023,5,8,1:2:0:0:
394,272,199543,1,8,1:2:0:0:
117,272,200063,1,8,1:2:0:0:
407,140,200410,5,0,1:2:0:0:
204,121,200584,1,8,1:2:0:0:
311,232,200757,1,0,1:2:0:0:
292,29,200931,1,8,1:2:0:0:
412,236,201104,1,0,1:2:0:0:
204,121,201277,6,0,L|303:133,1,85,8|0,1:2|0:2,0:0:0:0:
446,331,201798,6,0,B|388:357|388:357|254:329,1,187.000005706787,4|8,1:0|1:2,0:0:0:0:
126,218,202318,1,0,0:2:0:0:
145,206,202405,1,0,0:2:0:0:
167,200,202491,1,0,0:2:0:0:
190,203,202578,1,0,0:2:0:0:
211,212,202665,1,0,1:2:0:0:
67,379,202838,2,0,P|59:333|72:281,1,93.5000028533936,8|0,1:2|0:0,0:0:0:0:
273,145,203185,6,0,B|299:203|299:203|271:337,1,187.000005706787,0|8,1:0|1:2,0:0:0:0:
138,237,203705,1,0,0:2:0:0:
126,218,203792,1,0,0:2:0:0:
120,196,203878,1,0,0:2:0:0:
123,173,203965,1,0,0:2:0:0:
132,152,204052,1,0,1:2:0:0:
177,362,204225,2,0,P|131:367|63:345,1,93.5000028533936,8|0,1:2|0:0,0:0:0:0:
283,246,204572,6,0,P|373:242|470:277,1,187.000005706787,0|8,1:0|1:2,0:0:0:0:
505,70,205092,2,0,P|502:126|377:143,1,187.000005706787,0|0,0:2|1:2,0:0:0:0:
275,102,205613,2,0,L|265:8,1,93.5000028533936,8|0,1:2|0:0,0:0:0:0:
108,78,205959,5,0,1:2:0:0:
151,220,206133,1,2,0:2:0:0:
184,123,206306,1,8,1:2:0:0:
81,258,206480,1,2,0:2:0:0:
39,108,206653,5,0,0:2:0:0:
234,193,206826,1,2,1:2:0:0:
10,207,207000,1,8,1:2:0:0:
108,78,207173,1,10,1:2:0:0:
196,309,207347,6,0,B|254:335|254:335|388:307,1,187.000005706787,0|8,1:0|1:2,0:0:0:0:
291,138,207867,1,0,0:2:0:0:
279,157,207954,1,0,0:2:0:0:
273,179,208040,1,0,0:2:0:0:
276,202,208127,1,0,0:2:0:0:
285,223,208214,1,0,1:2:0:0:
458,154,208387,2,0,P|470:107|453:46,1,93.5000028533936,8|0,1:2|0:0,0:0:0:0:
273,0,208734,6,0,B|247:58|247:58|275:192,1,187.000005706787,0|8,1:0|1:2,0:0:0:0:
165,350,209254,2,0,B|191:292|191:292|163:158,1,187.000005706787,0|0,0:2|1:2,0:0:0:0:
63,260,209774,1,8,1:2:0:0:
294,319,209948,1,0,0:0:0:0:
501,258,210121,5,8,1:2:0:0:
501,258,210295,1,0,1:2:0:0:
198,212,210642,5,8,1:2:0:0:
198,212,210815,1,0,1:2:0:0:
395,179,211075,5,0,1:0:0:0:
395,179,211162,1,0,1:0:0:0:
277,130,211335,1,8,1:2:0:0:
489,102,211509,5,0,1:2:0:0:
418,294,211682,1,0,1:2:0:0:
277,130,211855,1,0,0:0:0:0:
512,228,212029,5,0,1:2:0:0:
297,3,212376,1,0,1:2:0:0:
26,258,212896,6,0,B|66:269|66:269|153:254,1,118.999996368408,4|0,1:0|0:2,0:0:0:0:
198,200,213416,1,0,1:2:0:0:
226,306,213589,2,0,P|247:273|329:257,1,118.999996368408,8|0,1:2|0:2,0:0:0:0:
376,309,214110,1,0,1:2:0:0:
376,309,214283,6,0,L|381:373,1,59.4999981842042,0|0,0:2|1:2,0:0:0:0:
466,253,214630,2,0,L|461:317,1,59.4999981842042,0|0,1:2|0:2,0:0:0:0:
341,173,214977,2,0,P|395:189|456:169,1,118.999996368408,8|0,1:2|0:2,0:0:0:0:
257,29,215670,6,0,B|268:69|268:69|253:156,1,118.999996368408,0|0,1:2|0:2,0:0:0:0:
199,201,216191,1,0,1:2:0:0:
305,229,216364,2,0,P|272:250|256:332,1,118.999996368408,8|0,1:2|0:2,0:0:0:0:
133,369,216884,1,0,1:2:0:0:
133,369,217058,6,0,L|69:364,1,59.4999981842042,0|0,0:2|1:2,0:0:0:0:
189,279,217405,2,0,L|125:284,1,59.4999981842042,0|0,1:2|0:2,0:0:0:0:
43,255,217751,1,8,1:2:0:0:
43,255,217925,1,0,1:2:0:0:
135,204,218098,1,8,1:2:0:0:
135,204,218272,1,0,0:2:0:0:
5,175,218445,5,0,1:2:0:0:
5,175,218792,2,0,L|14:115,1,59.4999981842042,0|0,0:2|1:2,0:0:0:0:
84,81,219139,1,8,1:2:0:0:
153,117,219312,2,0,P|199:133|270:119,1,118.999996368408,0|0,0:2|1:2,0:0:0:0:
267,120,219746,1,0,1:2:0:0:
267,120,219832,5,8,1:2:0:0:
227,342,220006,1,8,1:2:0:0:
227,342,220699,5,0,1:2:0:0:
274,127,220873,1,8,1:2:0:0:
18,261,221220,6,0,P|68:277|188:239,1,170,4|8,1:0|1:2,0:0:0:0:
252,127,221740,2,0,P|169:110|91:140,1,170,0|0,0:2|1:2,0:0:0:0:
175,364,222260,2,0,P|220:369|267:353,1,85,8|0,1:2|0:0,0:0:0:0:
446,220,222607,6,0,P|396:204|276:242,1,170,0|8,1:0|1:2,0:0:0:0:
375,335,223127,1,0,0:2:0:0:
200,173,223300,2,0,P|183:218|188:269,1,85,0|0,0:0|1:2,0:0:0:0:
350,115,223647,1,8,1:2:0:0:
350,115,223821,1,0,0:0:0:0:
153,64,223994,6,0,P|205:66|311:-1,1,170,0|8,1:0|1:2,0:0:0:0:
501,59,224514,2,0,P|417:65|350:115,1,170,0|0,0:2|1:2,0:0:0:0:
233,216,225035,2,0,P|202:184|158:166,1,85,8|0,1:2|0:0,0:0:0:0:
12,181,225381,5,0,1:2:0:0:
108,371,225555,2,0,L|102:268,1,85,8|0,1:2|0:2,0:0:0:0:
330,191,225902,2,0,L|324:294,1,85,8|0,1:2|0:2,0:0:0:0:
264,365,226248,1,0,1:2:0:0:
233,216,226422,1,8,1:2:0:0:
233,216,226595,1,8,1:2:0:0:
411,320,226769,6,0,B|437:262|437:262|409:128,1,170,0|8,1:0|1:2,0:0:0:0:
312,0,227289,2,0,P|261:34|232:155,1,170,0|0,0:2|1:2,0:0:0:0:
279,281,227809,1,8,1:2:0:0:
279,281,228156,6,0,B|221:307|221:307|87:279,1,170,0|8,1:0|1:2,0:0:0:0:
7,174,228676,2,0,P|41:123|162:94,1,170,0|0,0:2|1:2,0:0:0:0:
161,95,229110,1,0,1:0:0:0:
179,105,229196,2,0,L|190:191,1,85,8|0,1:2|0:0,0:0:0:0:
77,370,229543,5,0,1:2:0:0:
77,370,229630,1,0,1:2:0:0:
77,370,229717,1,8,1:2:0:0:
77,370,230063,1,8,1:2:0:0:
202,318,230237,1,0,1:2:0:0:
202,318,230410,1,8,1:2:0:0:
12,275,230584,1,8,1:2:0:0:
12,275,230931,5,8,1:2:0:0:
287,238,231104,1,8,1:2:0:0:
287,238,231451,1,8,1:2:0:0:
287,238,231798,2,0,L|351:251,2,59.4999981842042,0|0|0,1:2|1:2|1:2,0:0:0:0:
298,354,232318,5,6,1:2:0:0:
203,232,232491,1,0,0:2:0:0:
101,346,232665,2,0,P|141:331|199:328,1,85,2|8,1:2|1:2,0:0:0:0:
405,350,233011,2,0,B|431:292|431:292|403:158,1,170,2|10,1:2|1:2,0:0:0:0:
297,270,233532,1,0,0:2:0:0:
323,120,233705,6,0,P|399:78|491:116,1,170,10|2,1:2|1:2,0:0:0:0:
409,187,234225,1,8,1:2:0:0:
231,54,234399,2,0,B|205:112|205:112|226:216,1,170,2|2,1:2|1:2,0:0:0:0:
214,354,235092,5,2,1:2:0:0:
309,232,235266,1,0,0:2:0:0:
411,346,235439,2,0,P|371:331|313:328,1,85,2|8,1:2|1:2,0:0:0:0:
107,350,235786,2,0,B|81:292|81:292|109:158,1,170,2|10,1:2|1:2,0:0:0:0:
215,270,236306,1,0,0:2:0:0:
189,120,236480,5,2,1:2:0:0:
23,75,236653,1,8,1:2:0:0:
141,33,236826,1,2,1:2:0:0:
215,270,237173,5,2,1:2:0:0:
381,225,237347,1,8,1:2:0:0:
263,183,237520,2,0,P|253:135|265:97,1,85,2|8,1:2|1:2,0:0:0:0:
484,15,237867,6,0,B|510:73|510:73|488:177,1,170,2|2,1:2|1:2,0:0:0:0:
381,225,238387,1,8,1:2:0:0:
503,371,238561,2,0,P|492:326|503:280,1,85,2|0,1:2|0:0,0:0:0:0:
344,346,238907,1,2,1:2:0:0:
344,346,239081,1,0,0:0:0:0:
294,167,239254,5,10,1:2:0:0:
294,167,239601,2,0,L|286:73,1,85,2|8,1:2|1:2,0:0:0:0:
217,236,239948,2,0,L|302:276,1,85,2|0,1:2|0:0,0:0:0:0:
195,134,240295,2,0,L|117:187,1,85,2|8,1:2|1:2,0:0:0:0:
38,351,240642,5,0,0:2:0:0:
145,327,240815,1,0,1:2:0:0:
250,359,240988,1,0,1:2:0:0:
357,335,241162,1,8,1:2:0:0:
357,335,241509,1,0,1:2:0:0:
360,314,241595,1,0,1:2:0:0:
363,292,241682,1,0,1:2:0:0:
209,87,242029,5,8,1:2:0:0:
476,45,242202,1,8,1:2:0:0:
333,304,242549,5,0,1:2:0:0:
333,304,242636,1,0,1:2:0:0:
333,304,242722,1,8,1:2:0:0:
66,262,242896,1,8,1:2:0:0:
256,192,243416,12,0,246754,0:2:0:0:
