osu file format v14

[General]
AudioFilename: audio.mp3
AudioLeadIn: 0
PreviewTime: 51972
Countdown: 0
SampleSet: Soft
StackLeniency: 0.4
Mode: 0
LetterboxInBreaks: 0
WidescreenStoryboard: 0

[Editor]
DistanceSpacing: 1.1
BeatDivisor: 4
GridSize: 4
TimelineZoom: 1

[Metadata]
Title:Snow halation
TitleUnicode:Snow halation
Artist:Sayaka Sasaki
ArtistUnicode:佐咲紗花
Creator:ktgster
Version:Hard
Source:ラブライブ! School idol project
Tags:SAYAKAVER love live! 2期 2nd season
BeatmapID:1463161
BeatmapSetID:685864

[Difficulty]
HPDrainRate:4.7
CircleSize:4
OverallDifficulty:7
ApproachRate:8
SliderMultiplier:1.4
SliderTickRate:1

[Events]
//Background and Video events
0,0,"bg.png",0,0
//Break Periods
2,96364,105325
2,171477,178851
//Storyboard Layer 0 (Background)
//Storyboard Layer 1 (Fail)
//Storyboard Layer 2 (Pass)
//Storyboard Layer 3 (Foreground)
//Storyboard Sound Samples

[TimingPoints]
642,346.820809248555,4,2,1,40,1,0
17289,-125,4,2,1,40,0,0
22665,-100,4,2,1,70,0,0
24225,-100,4,2,1,60,0,0
35324,-100,4,2,1,50,0,0
40179,-100,4,2,1,60,0,0
49196,-100,4,2,1,70,0,0
51277,-100,4,2,1,60,0,0
51971,-100,4,2,2,70,0,1
56133,-100,4,2,1,70,0,1
57520,-100,4,2,2,70,0,1
60121,-100,4,2,1,70,0,1
61682,-100,4,2,1,80,0,1
62896,-100,4,2,1,40,0,0
63069,-100,4,2,1,70,0,1
72780,-100,4,2,1,80,0,1
74168,-125,4,2,1,50,0,0
85266,-100,4,2,1,60,0,0
94977,-100,4,2,1,70,0,0
96364,-100,4,3,1,30,0,0
106075,-100,4,2,1,40,0,0
107462,-100,4,2,1,60,0,0
118561,-100,4,2,1,50,0,0
123416,-100,4,2,1,60,0,0
132433,-100,4,2,1,70,0,0
134514,-100,4,2,1,60,0,0
135208,-100,4,2,2,70,0,1
143358,-100,4,2,1,70,0,1
144919,-100,4,2,1,80,0,1
146133,-100,4,2,1,40,0,0
146306,-100,4,2,1,70,0,1
156017,-100,4,2,1,80,0,1
157405,-125,4,2,1,50,0,0
190699,-100,4,2,1,70,0,0
194861,-100,4,2,1,60,0,0
196248,-100,4,2,1,70,0,0
201624,-100,4,2,1,40,0,0
201798,-100,4,2,1,70,0,1
211509,-100,4,2,1,80,0,1
212896,-125,4,2,1,50,0,0
219832,-100,4,2,1,60,0,0
232318,-100,4,2,2,70,0,1
242029,-100,4,2,1,80,0,1
243416,-100,4,2,1,40,0,0
246754,-100,4,2,1,5,0,0

[Colours]
Combo1 : 170,170,213
Combo2 : 0,124,185
Combo3 : 89,164,255
Combo4 : 192,130,255

[HitObjects]
106,318,642,6,0,L|37:324,2,70,0|0|0,0:2|0:2|0:2,0:0:0:0:
164,267,1162,1,0,0:2:0:0:
212,326,1335,2,0,P|252:348|356:338,1,140,0|0,0:2|0:2,0:0:0:0:
409,303,1855,1,0,0:2:0:0:
449,237,2029,6,0,L|455:168,2,70,0|0|0,0:2|0:2|0:2,0:0:0:0:
372,235,2549,2,0,P|317:214|334:131,1,140,0|0,0:2|0:2,0:0:0:0:
367,81,3069,1,0,0:2:0:0:
367,81,3243,1,0,0:2:0:0:
442,64,3416,5,0,0:2:0:0:
292,25,3763,1,0,0:2:0:0:
216,41,3936,1,0,0:2:0:0:
216,41,4803,5,0,0:2:0:0:
296,343,5497,1,0,0:2:0:0:
34,249,6191,6,0,P|71:228|181:239,1,140,0|0,0:2|0:2,0:0:0:0:
238,256,6711,2,0,P|306:265|369:238,1,140,0|0,0:2|0:2,0:0:0:0:
411,173,7231,2,0,L|423:91,1,70,0|0,0:2|0:2,0:0:0:0:
366,49,7578,6,0,P|332:44|294:55,1,70,0|0,0:2|0:2,0:0:0:0:
236,99,7925,1,0,0:2:0:0:
185,156,8098,2,0,P|133:172|48:135,1,140,0|0,0:2|0:2,0:0:0:0:
55,142,8965,5,0,0:2:0:0:
23,344,9659,2,0,P|59:331|105:333,1,70,0|0,0:2|0:2,0:0:0:0:
167,334,10006,2,0,P|201:332|234:320,1,70,0|0,0:2|0:2,0:0:0:0:
295,273,10352,1,0,0:2:0:0:
295,273,11740,5,0,0:0:0:0:
256,192,11826,12,0,13127,0:2:0:0:
98,236,14514,5,0,0:2:0:0:
400,168,15902,1,0,0:2:0:0:
400,168,16422,1,0,0:2:0:0:
400,168,17289,6,0,L|393:242,3,56,0|0|0|0,0:2|0:2|0:2|0:2,0:0:0:0:
217,111,18676,5,0,0:2:0:0:
414,148,19890,1,0,0:2:0:0:
148,217,20584,1,0,0:2:0:0:
148,217,20931,1,0,0:2:0:0:
460,271,21451,5,0,0:2:0:0:
460,271,21971,1,0,0:2:0:0:
238,267,22665,5,0,1:2:0:0:
238,267,22751,1,0,1:2:0:0:
238,267,22838,2,0,L|256:354,1,70,8|0,1:2|1:2,0:0:0:0:
50,221,23532,2,0,L|68:134,1,70,0|8,1:2|1:2,0:0:0:0:
306,27,24225,6,0,P|336:70|314:167,1,140,4|0,1:0|1:2,0:0:0:0:
268,206,24746,1,0,0:0:0:0:
213,260,24919,2,0,P|204:293|213:338,1,70,0|0,1:2|0:0,0:0:0:0:
275,377,25266,1,0,1:2:0:0:
275,377,25439,1,0,0:0:0:0:
338,333,25613,6,0,P|390:304|470:300,1,140,0|0,1:0|1:2,0:0:0:0:
502,230,26133,1,0,0:0:0:0:
471,159,26306,2,0,P|460:118|466:70,1,70,0|0,1:2|0:0,0:0:0:0:
482,16,26653,1,0,1:2:0:0:
263,35,27000,6,0,P|246:100|258:174,1,140,0|0,1:0|1:2,0:0:0:0:
323,209,27520,1,0,0:0:0:0:
384,162,27694,2,0,P|401:227|389:301,1,140,0|8,1:2|1:2,0:0:0:0:
174,356,28387,5,0,1:2:0:0:
119,301,28561,2,0,L|105:228,1,70,8|0,1:2|0:0,0:0:0:0:
160,177,28907,2,0,L|174:104,1,70,0|0,1:2|0:0,0:0:0:0:
118,53,29254,1,8,1:2:0:0:
118,53,29428,1,0,1:2:0:0:
305,46,29774,6,0,P|354:62|452:49,1,140,0|0,1:0|1:2,0:0:0:0:
495,108,30295,2,0,L|484:206,1,70,0|0,1:0|1:2,0:0:0:0:
432,232,30642,1,0,0:2:0:0:
456,304,30815,2,0,P|420:306|371:278,1,70,0|0,1:2|0:2,0:0:0:0:
315,269,31162,6,0,P|266:253|168:266,1,140,0|0,1:0|1:2,0:0:0:0:
125,207,31683,2,0,L|136:109,1,70,8|0,1:2|1:2,0:0:0:0:
188,83,32030,1,0,0:2:0:0:
164,11,32203,2,0,P|200:9|249:37,1,70,0|0,1:2|0:2,0:0:0:0:
309,93,32549,6,0,L|320:191,1,70,8|0,1:2|1:2,0:0:0:0:
239,162,32896,2,0,L|250:260,1,70,8|0,1:2|1:2,0:0:0:0:
169,231,33243,2,0,L|180:329,1,70,8|0,1:2|1:2,0:0:0:0:
99,300,33590,2,0,L|110:398,1,70,8|0,1:2|1:2,0:0:0:0:
183,377,33936,5,8,1:2:0:0:
246,333,34110,1,8,1:2:0:0:
322,326,34283,1,8,1:2:0:0:
393,356,34457,1,8,1:2:0:0:
419,283,34630,1,8,1:2:0:0:
382,215,34803,1,0,1:2:0:0:
382,215,34890,1,0,1:2:0:0:
382,215,34977,2,0,P|360:166|363:122,1,70,8|0,1:2|0:0,0:0:0:0:
376,28,35324,6,0,P|331:16|237:68,1,140,4|0,1:0|0:0,0:0:0:0:
201,113,35844,1,0,1:2:0:0:
178,186,36017,2,0,L|179:274,1,70,8|0,1:2|0:0,0:0:0:0:
235,316,36364,1,0,0:0:0:0:
235,316,36537,2,0,P|185:292|91:304,1,140,0|0,1:2|1:2,0:0:0:0:
33,334,37058,1,0,1:2:0:0:
33,334,37405,2,0,P|67:296|52:199,1,140,8|0,1:2|0:0,0:0:0:0:
136,28,38098,6,0,P|181:16|275:68,1,140,0|0,1:2|0:0,0:0:0:0:
311,113,38618,1,0,1:2:0:0:
334,186,38791,2,0,L|333:274,1,70,8|0,1:2|0:0,0:0:0:0:
277,316,39138,1,0,0:0:0:0:
277,316,39312,2,0,P|327:292|421:304,1,140,0|0,1:2|1:2,0:0:0:0:
479,334,39832,1,0,1:2:0:0:
479,334,40179,5,8,1:2:0:0:
409,298,40352,1,0,1:2:0:0:
387,224,40525,1,8,1:2:0:0:
304,30,40873,6,0,P|262:63|277:168,1,140,4|8,1:0|1:2,0:0:0:0:
308,203,41393,1,0,0:2:0:0:
382,221,41566,2,0,L|475:216,1,70,0|0,0:2|1:2,0:0:0:0:
506,162,41913,1,8,1:2:0:0:
484,346,42260,6,0,P|427:324|336:338,1,140,0|8,1:0|1:2,0:0:0:0:
274,349,42780,2,0,P|205:358|139:334,1,140,0|0,0:2|1:2,0:0:0:0:
95,271,43300,1,8,1:2:0:0:
179,142,43647,6,0,P|246:124|328:137,1,140,0|8,1:0|1:2,0:0:0:0:
382,172,44168,1,0,0:2:0:0:
420,238,44341,2,0,L|425:331,1,70,0|0,0:2|1:2,0:0:0:0:
369,362,44688,1,8,1:2:0:0:
219,324,45035,5,0,1:2:0:0:
219,324,45208,1,8,1:2:0:0:
167,178,45555,1,8,1:2:0:0:
63,292,45902,2,0,P|54:331|62:369,2,70,0|8|8,1:2|1:2|1:2,0:0:0:0:
127,248,46422,6,0,L|293:255,1,140,0|8,1:0|1:2,0:0:0:0:
341,273,46942,1,0,0:2:0:0:
407,312,47115,2,0,P|416:278|405:233,1,70,0|0,0:2|1:2,0:0:0:0:
374,175,47462,1,8,1:2:0:0:
319,120,47636,2,0,P|313:85|322:52,1,70,0|0,0:0|1:0,0:0:0:0:
465,52,47983,6,0,L|474:133,1,70,0|8,0:0|1:2,0:0:0:0:
418,175,48329,2,0,L|409:256,1,70,0|0,0:2|0:0,0:0:0:0:
464,299,48676,1,0,1:2:0:0:
409,353,48850,2,0,P|381:341|319:348,1,70,8|0,1:2|0:0,0:0:0:0:
166,347,49196,6,0,L|87:354,1,70,8|0,1:2|0:0,0:0:0:0:
55,279,49543,2,0,L|124:273,1,70,8|0,1:2|0:0,0:0:0:0:
153,192,49890,2,0,L|83:197,1,70,8|0,1:2|0:0,0:0:0:0:
43,127,50237,2,0,L|112:121,1,70,8|0,1:2|0:0,0:0:0:0:
256,111,50584,5,8,1:2:0:0:
233,255,50757,1,8,1:2:0:0:
422,179,51104,6,0,L|477:163,9,35,8|0|0|0|0|0|8|0|8|0,1:2|0:2|0:2|0:2|1:2|1:2|1:2|0:2|1:2|0:2,0:0:0:0:
482,160,51971,6,0,P|487:116|481:69,1,70,4|0,1:0|0:0,0:0:0:0:
425,30,52318,2,0,P|354:22|296:63,1,140,2|2,1:2|1:2,0:0:0:0:
269,137,52838,1,0,0:0:0:0:
310,209,53011,2,0,P|339:180|351:142,1,70,2|0,1:2|0:2,0:0:0:0:
190,111,53358,6,0,L|185:257,1,140,2|2,1:2|1:2,0:0:0:0:
125,310,53878,1,0,0:0:0:0:
42,292,54052,2,0,P|25:262|30:214,1,70,2|0,1:2|0:0,0:0:0:0:
84,167,54399,2,0,P|84:132|66:102,1,70,2|0,1:2|0:2,0:0:0:0:
171,22,54746,6,0,L|323:25,1,140,2|2,1:2|1:2,0:0:0:0:
370,84,55266,1,0,0:0:0:0:
404,160,55439,2,0,P|370:167|324:152,1,70,2|0,1:2|0:0,0:0:0:0:
254,138,55786,2,0,P|220:130|186:137,1,70,2|0,1:2|0:0,0:0:0:0:
127,285,56133,5,0,1:2:0:0:
175,353,56306,1,10,1:2:0:0:
210,276,56480,2,0,P|193:233|166:211,1,70,0|2,1:2|0:2,0:0:0:0:
16,180,56826,5,0,1:2:0:0:
64,112,56999,1,8,1:2:0:0:
99,189,57173,2,0,P|82:232|55:254,1,70,2|8,1:2|1:2,0:0:0:0:
148,358,57520,6,0,P|188:337|300:338,1,140,2|2,1:2|1:2,0:0:0:0:
363,351,58040,1,0,0:0:0:0:
422,291,58214,2,0,P|429:257|414:211,1,70,2|0,1:2|0:0,0:0:0:0:
361,163,58561,1,2,1:2:0:0:
361,163,58734,1,0,0:2:0:0:
464,79,58907,6,0,P|399:77|313:41,1,140,2|2,1:2|1:2,0:0:0:0:
249,22,59428,1,0,0:0:0:0:
189,81,59601,2,0,P|179:120|192:166,1,70,2|0,1:2|0:0,0:0:0:0:
250,209,59948,1,2,1:2:0:0:
250,209,60121,1,8,1:2:0:0:
170,328,60295,6,0,L|88:326,1,70,8|0,1:2|1:2,0:0:0:0:
27,284,60642,1,0,1:2:0:0:
86,224,60815,2,0,P|97:193|88:138,1,70,8|0,1:2|0:2,0:0:0:0:
44,89,61162,1,0,1:2:0:0:
103,29,61335,2,0,L|185:27,1,70,8|0,1:2|1:2,0:0:0:0:
341,26,61682,5,8,1:2:0:0:
323,168,61855,2,0,L|313:244,1,70,8|0,1:2|0:0,0:0:0:0:
233,97,62202,2,0,L|223:173,1,70,8|0,1:2|0:0,0:0:0:0:
227,287,62549,2,0,P|181:263|85:273,1,140,8|0,1:2|0:2,0:0:0:0:
0,154,63069,6,0,P|68:162|131:135,1,140,4|8,1:0|1:2,0:0:0:0:
187,71,63589,2,0,L|196:30,2,35,0|0|0,0:2|0:2|0:2,0:0:0:0:
234,140,63936,1,0,1:2:0:0:
308,178,64110,2,0,P|350:180|395:169,1,70,8|0,1:2|0:0,0:0:0:0:
477,139,64457,6,0,P|504:202|495:270,1,140,0|8,1:0|1:2,0:0:0:0:
434,328,64977,2,0,L|393:337,2,35,0|0|0,0:2|0:2|0:2,0:0:0:0:
416,245,65324,1,0,1:2:0:0:
339,210,65497,2,0,P|297:208|252:219,1,70,8|0,1:2|0:0,0:0:0:0:
166,291,65844,6,0,P|97:299|34:272,1,140,0|8,1:0|1:2,0:0:0:0:
6,192,66364,2,0,L|0:150,2,35,0|0|0,0:2|0:2|0:2,0:0:0:0:
88,208,66711,1,0,1:2:0:0:
92,198,66798,1,0,1:0:0:0:
96,188,66884,2,0,P|125:160|167:148,1,70,8|0,1:2|0:0,0:0:0:0:
235,137,67231,5,0,1:2:0:0:
317,156,67405,1,2,0:2:0:0:
369,221,67578,2,0,P|383:260|375:311,1,70,8|2,1:2|1:2,0:0:0:0:
217,368,67925,5,0,0:2:0:0:
236,286,68099,1,2,1:2:0:0:
301,234,68272,2,0,P|340:220|391:228,1,70,8|2,1:2|1:2,0:0:0:0:
504,218,68618,6,0,P|512:149|485:86,1,140,0|8,1:0|1:2,0:0:0:0:
405,58,69138,2,0,L|363:52,2,35,0|0|0,0:2|0:2|0:2,0:0:0:0:
421,140,69485,1,0,1:2:0:0:
411,144,69572,1,0,1:0:0:0:
401,148,69658,2,0,P|368:151|316:120,1,70,8|0,1:2|0:0,0:0:0:0:
218,68,70006,6,0,P|166:53|115:126,1,140,0|8,1:0|1:2,0:0:0:0:
114,195,70526,2,0,P|152:249|217:238,1,140,0|0,0:2|1:2,0:0:0:0:
298,212,71046,2,0,P|336:206|375:215,1,70,8|0,1:2|0:0,0:0:0:0:
473,266,71393,6,0,L|477:337,1,70,8|0,1:2|0:0,0:0:0:0:
367,383,71740,2,0,L|371:312,1,70,8|0,1:2|0:0,0:0:0:0:
435,182,72087,2,0,P|381:202|289:171,1,140,8|8,1:2|1:2,0:0:0:0:
234,102,72607,1,0,1:2:0:0:
307,27,72780,6,0,L|399:23,1,70,0|0,1:2|0:0,0:0:0:0:
234,102,73127,1,8,1:2:0:0:
170,13,73300,2,0,L|14:6,1,140,0|0,1:2|1:2,0:0:0:0:
30,6,73734,1,0,1:2:0:0:
30,6,73821,1,8,1:2:0:0:
41,237,74168,5,4,1:0:0:0:
41,237,74514,2,0,P|54:291|38:357,2,112,0|8|0,0:2|1:2|0:2,0:0:0:0:
12,128,75555,1,0,0:2:0:0:
119,96,75902,2,0,L|182:100,1,56,0|0,1:2|0:2,0:0:0:0:
252,104,76248,2,0,P|263:155|248:235,1,112,8|0,1:2|0:2,0:0:0:0:
471,237,76942,5,0,1:2:0:0:
471,237,77289,2,0,P|463:269|472:309,1,56,0|0,0:2|1:2,0:0:0:0:
489,366,77636,1,8,1:2:0:0:
335,335,77983,2,0,L|327:262,1,56,0|0,0:2|1:2,0:0:0:0:
273,224,78329,1,0,0:2:0:0:
344,192,78503,1,0,1:2:0:0:
417,218,78676,2,0,P|422:189|411:153,1,56,0|0,1:2|0:2,0:0:0:0:
373,97,79023,1,8,1:2:0:0:
418,33,79196,1,0,1:2:0:0:
496,39,79370,1,8,1:2:0:0:
502,235,79717,6,0,P|470:251|375:248,1,112,0|0,1:2|0:2,0:0:0:0:
320,229,80237,1,0,1:2:0:0:
276,164,80410,1,8,1:2:0:0:
276,164,80584,2,0,L|268:99,1,56,0|0,0:2|0:0,0:0:0:0:
203,64,80931,2,0,P|166:63|110:120,1,112,0|0,1:2|1:2,0:0:0:0:
93,186,81451,1,0,1:2:0:0:
93,186,81624,2,0,L|101:251,1,56,0|8,0:2|1:2,0:0:0:0:
175,262,81971,2,0,L|183:197,1,56,0|0,1:2|0:2,0:0:0:0:
247,162,82318,1,0,1:2:0:0:
302,217,82491,6,0,P|351:226|466:200,1,168,0|0,1:2|1:2,0:0:0:0:
507,134,83185,1,8,1:2:0:0:
507,134,83532,2,0,L|500:74,1,56,0|0,1:2|0:2,0:0:0:0:
436,33,83878,1,0,1:2:0:0:
436,33,84399,5,0,1:2:0:0:
367,70,84572,2,0,P|332:82|307:81,1,56,0|0,1:2|1:2,0:0:0:0:
238,58,84919,2,0,P|210:59|184:69,1,56,0|0,0:2|0:2,0:0:0:0:
32,112,85266,6,0,P|19:173|33:255,1,140,4|0,1:0|1:2,0:0:0:0:
99,297,85786,2,0,L|175:304,1,70,0|0,0:2|0:0,0:0:0:0:
241,260,86133,1,0,1:2:0:0:
267,339,86306,1,8,1:2:0:0:
339,295,86480,1,0,0:2:0:0:
455,359,86653,6,0,P|483:304|465:213,1,140,0|8,1:2|1:2,0:0:0:0:
398,190,87173,1,0,0:0:0:0:
316,209,87347,2,0,P|317:168|341:126,2,70,0|0|8,0:2|1:2|1:2,0:0:0:0:
222,348,88040,6,0,L|142:344,1,70,0|0,1:2|0:0,0:0:0:0:
92,284,88387,1,8,1:2:0:0:
19,326,88561,2,0,P|8:288|74:201,1,140,0|0,0:2|1:2,0:0:0:0:
140,216,89081,2,0,L|215:230,1,70,8|0,1:2|0:2,0:0:0:0:
311,326,89428,6,0,L|323:368,2,35,0|0|0,1:2|1:2|1:2,0:0:0:0:
370,266,89774,2,0,L|382:224,2,35,8|0|0,1:2|1:2|1:2,0:0:0:0:
429,325,90121,2,0,L|441:367,2,35,8|0|0,1:2|1:2|1:2,0:0:0:0:
488,265,90468,1,8,1:2:0:0:
488,265,90555,1,0,1:2:0:0:
488,265,90642,1,0,1:2:0:0:
433,154,90815,6,0,P|407:123|396:85,1,70,0|0,1:2|0:0,0:0:0:0:
380,12,91162,1,8,1:2:0:0:
296,12,91335,2,0,P|261:46|259:144,1,140,0|0,0:2|1:2,0:0:0:0:
308,197,91855,2,0,L|382:202,1,70,8|0,1:2|0:2,0:0:0:0:
493,146,92202,5,0,1:2:0:0:
493,146,92549,2,0,P|463:201|466:282,1,140,8|0,1:2|0:2,0:0:0:0:
493,361,93069,1,0,1:2:0:0:
493,361,93243,1,8,1:2:0:0:
301,331,93589,6,0,P|267:322|233:325,1,70,0|0,1:2|0:0,0:0:0:0:
149,341,93936,1,8,1:2:0:0:
69,368,94110,2,0,P|109:342|108:245,1,140,0|0,0:2|1:2,0:0:0:0:
69,185,94630,1,8,1:2:0:0:
187,66,94977,6,0,L|283:73,1,70,8|8,1:2|1:2,0:0:0:0:
479,189,95497,1,0,1:2:0:0:
479,189,95584,1,0,1:2:0:0:
479,189,95670,2,0,L|383:196,1,70,8|8,1:2|1:2,0:0:0:0:
256,192,106075,5,0,0:2:0:0:
90,67,107462,6,0,P|66:129|91:214,1,140,4|8,1:0|1:2,0:0:0:0:
140,258,107983,2,0,L|294:245,1,140,0|0,0:2|1:2,0:0:0:0:
339,186,108503,1,8,1:2:0:0:
339,186,108676,1,0,0:0:0:0:
462,198,108850,6,0,P|496:256|479:322,1,140,0|8,1:0|1:2,0:0:0:0:
399,348,109370,2,0,L|343:353,2,35,0|0|0,0:2|0:2|0:2,0:0:0:0:
417,266,109717,1,0,1:2:0:0:
380,193,109890,2,0,P|393:155|419:128,1,70,8|0,1:2|0:0,0:0:0:0:
304,19,110237,6,0,P|309:59|282:161,1,140,0|8,1:0|1:2,0:0:0:0:
206,184,110757,1,0,0:0:0:0:
128,149,110931,2,0,L|117:74,1,70,0|0,0:2|1:2,0:0:0:0:
177,20,111277,1,8,1:2:0:0:
23,253,111624,5,0,1:2:0:0:
82,312,111798,2,0,P|123:293|171:293,1,70,8|0,1:2|0:0,0:0:0:0:
220,331,112144,2,0,P|254:325|285:309,1,70,8|0,1:2|0:0,0:0:0:0:
324,234,112491,1,0,1:2:0:0:
324,234,112665,1,8,1:2:0:0:
299,153,112838,1,8,1:2:0:0:
335,77,113011,6,0,P|384:59|469:104,1,140,0|8,1:0|1:2,0:0:0:0:
486,173,113532,2,0,L|492:254,1,70,0|0,0:2|0:0,0:0:0:0:
431,302,113878,1,0,1:2:0:0:
371,361,114052,2,0,P|349:322|351:280,1,70,8|0,1:2|0:0,0:0:0:0:
319,172,114399,6,0,P|270:154|185:199,1,140,0|8,1:0|1:2,0:0:0:0:
168,268,114920,2,0,L|162:349,1,70,0|0,0:2|0:0,0:0:0:0:
88,298,115266,1,0,1:2:0:0:
28,357,115440,2,0,P|6:318|8:276,1,70,8|0,1:2|0:0,0:0:0:0:
53,177,115786,6,0,L|193:187,1,140,0|8,1:0|1:2,0:0:0:0:
252,246,116306,2,0,L|391:236,1,140,0|0,0:2|1:2,0:0:0:0:
451,177,116826,2,0,P|455:138|445:89,1,70,8|0,1:2|0:0,0:0:0:0:
350,20,117173,5,0,1:2:0:0:
350,20,117346,1,0,1:2:0:0:
281,69,117520,1,0,1:2:0:0:
281,69,117693,1,0,1:2:0:0:
203,36,117867,1,0,1:2:0:0:
140,88,118040,1,0,1:2:0:0:
140,88,118127,1,0,1:2:0:0:
140,88,118214,2,0,P|116:127|118:176,1,70,8|0,1:2|0:0,0:0:0:0:
141,308,118561,6,0,P|173:322|291:307,1,140,4|0,1:0|0:0,0:0:0:0:
343,279,119081,1,0,1:2:0:0:
376,209,119254,2,0,P|379:170|367:134,1,70,8|0,1:2|0:0,0:0:0:0:
315,86,119601,1,0,0:0:0:0:
315,86,119774,2,0,P|365:110|459:98,1,140,0|0,1:2|1:2,0:0:0:0:
505,51,120295,1,0,1:2:0:0:
505,51,120642,1,8,1:2:0:0:
499,204,120988,1,0,0:0:0:0:
371,308,121335,6,0,P|339:322|221:307,1,140,0|0,1:2|0:0,0:0:0:0:
169,279,121855,1,0,1:2:0:0:
136,209,122028,2,0,P|133:170|145:134,1,70,8|0,1:2|0:0,0:0:0:0:
197,86,122375,1,0,0:0:0:0:
197,86,122549,2,0,P|147:110|53:98,1,140,0|0,1:2|1:2,0:0:0:0:
7,51,123069,1,0,1:2:0:0:
7,51,123416,5,8,1:2:0:0:
64,103,123589,1,0,1:2:0:0:
39,176,123762,1,8,1:2:0:0:
151,332,124110,6,0,P|201:356|295:344,1,140,4|8,1:0|1:2,0:0:0:0:
355,322,124630,1,0,0:2:0:0:
330,249,124803,2,0,P|323:211|336:169,1,70,0|0,0:2|1:2,0:0:0:0:
384,125,125150,2,0,L|472:115,1,70,8|0,1:2|0:0,0:0:0:0:
382,30,125497,6,0,L|239:13,1,140,0|8,1:0|1:2,0:0:0:0:
188,68,126017,2,0,P|174:117|265:161,1,140,0|0,0:2|1:2,0:0:0:0:
312,170,126537,2,0,L|400:160,1,70,8|0,1:2|0:0,0:0:0:0:
414,320,126884,6,0,P|364:344|270:332,1,140,0|8,1:0|1:2,0:0:0:0:
210,310,127404,1,0,0:2:0:0:
235,237,127577,2,0,P|242:199|229:157,1,70,0|0,0:2|1:2,0:0:0:0:
181,113,127924,2,0,L|93:103,1,70,8|0,1:2|0:0,0:0:0:0:
14,208,128272,5,0,1:2:0:0:
14,208,128445,2,0,L|17:293,1,70,8|0,1:2|0:0,0:0:0:0:
71,332,128792,1,8,1:2:0:0:
71,332,129139,1,0,1:2:0:0:
142,303,129312,1,8,1:2:0:0:
217,316,129485,1,8,1:2:0:0:
280,359,129659,6,0,P|333:365|430:340,1,140,0|8,1:0|1:2,0:0:0:0:
470,290,130179,1,0,0:2:0:0:
479,213,130352,2,0,L|483:136,1,70,0|0,0:2|1:2,0:0:0:0:
427,88,130699,1,8,1:2:0:0:
360,127,130873,2,0,P|349:91|360:49,1,70,0|0,0:0|1:0,0:0:0:0:
237,14,131220,6,0,L|233:91,1,70,0|8,0:0|1:2,0:0:0:0:
139,128,131566,2,0,L|135:51,1,70,0|0,0:2|0:0,0:0:0:0:
261,176,131913,1,0,1:2:0:0:
261,176,132087,2,0,P|222:182|177:210,1,70,8|0,1:2|1:0,0:0:0:0:
181,206,132347,1,0,1:2:0:0:
173,221,132433,6,0,L|166:300,1,70,8|0,1:2|0:0,0:0:0:0:
249,251,132780,2,0,L|242:330,1,70,8|0,1:2|0:0,0:0:0:0:
325,281,133127,2,0,L|318:360,1,70,8|0,1:2|0:0,0:0:0:0:
401,311,133474,2,0,L|394:390,1,70,8|0,1:2|0:0,0:0:0:0:
496,268,133821,5,8,1:2:0:0:
330,199,133994,1,8,1:2:0:0:
144,298,134341,6,0,L|138:361,9,35,8|0|0|0|0|0|8|0|8|0,1:2|0:2|0:2|0:2|1:2|1:2|1:2|0:2|1:2|0:2,0:0:0:0:
139,350,135208,6,0,P|99:358|52:344,1,70,4|0,1:0|0:0,0:0:0:0:
11,293,135555,2,0,L|7:142,1,140,2|2,1:2|1:2,0:0:0:0:
66,93,136075,1,0,0:0:0:0:
134,44,136248,2,0,P|149:79|144:124,1,70,2|0,1:2|0:2,0:0:0:0:
115,261,136595,6,0,P|158:309|231:309,1,140,2|2,1:2|1:2,0:0:0:0:
303,269,137115,1,0,0:0:0:0:
354,202,137289,2,0,L|356:101,1,70,2|0,1:2|0:0,0:0:0:0:
437,112,137636,2,0,L|439:212,1,70,2|0,1:2|0:2,0:0:0:0:
504,331,137983,6,0,P|455:316|357:329,1,140,2|2,1:2|1:2,0:0:0:0:
290,358,138503,1,0,0:0:0:0:
230,298,138676,2,0,L|227:197,1,70,2|0,1:2|0:0,0:0:0:0:
143,228,139023,2,0,L|140:328,1,70,2|0,1:2|0:0,0:0:0:0:
27,354,139370,5,2,1:2:0:0:
7,272,139543,1,8,1:2:0:0:
27,190,139717,1,2,1:2:0:0:
230,134,140064,5,2,1:2:0:0:
250,216,140237,1,8,1:2:0:0:
230,298,140411,1,2,1:2:0:0:
250,380,140584,1,8,1:2:0:0:
324,341,140757,6,0,P|385:326|468:329,1,140,2|2,1:2|1:2,0:0:0:0:
495,250,141277,1,0,0:0:0:0:
435,190,141451,2,0,P|419:151|423:113,1,70,2|0,1:2|0:0,0:0:0:0:
447,44,141798,1,2,1:2:0:0:
447,44,141971,1,0,0:2:0:0:
295,17,142144,6,0,P|279:56|283:94,1,70,2|0,1:2|0:0,0:0:0:0:
338,143,142491,2,0,P|289:122|189:126,1,140,2|2,1:2|1:2,0:0:0:0:
129,161,143011,1,0,0:0:0:0:
79,229,143185,1,2,1:2:0:0:
79,229,143358,1,8,1:2:0:0:
167,352,143532,6,0,L|268:349,1,70,8|0,1:2|1:2,0:0:0:0:
296,290,143878,1,0,1:2:0:0:
355,349,144052,2,0,P|376:315|375:262,1,70,8|0,1:2|0:2,0:0:0:0:
334,215,144399,1,0,1:2:0:0:
250,219,144572,1,8,1:2:0:0:
204,148,144746,1,0,1:2:0:0:
204,148,144832,1,0,1:2:0:0:
204,148,144919,6,0,P|209:113|229:85,1,70,8|8,1:2|1:2,0:0:0:0:
346,24,145266,1,0,0:0:0:0:
340,155,145439,1,8,1:2:0:0:
340,155,145786,2,0,P|330:197|414:218,1,140,8|0,1:2|0:2,0:0:0:0:
447,351,146306,6,0,P|406:359|286:343,1,140,4|8,1:0|1:2,0:0:0:0:
231,316,146826,2,0,L|192:293,2,35,0|0|0,0:2|0:2|0:2,0:0:0:0:
300,267,147173,1,0,1:2:0:0:
342,194,147347,2,0,P|353:158|335:97,1,70,8|0,1:2|0:0,0:0:0:0:
240,40,147694,6,0,P|182:55|117:112,1,140,0|8,1:0|1:2,0:0:0:0:
82,180,148214,2,0,L|74:237,2,35,0|0|0,0:2|0:2|0:2,0:0:0:0:
166,176,148561,1,0,1:2:0:0:
237,220,148734,2,0,P|247:257|243:296,1,70,8|0,1:2|0:0,0:0:0:0:
363,348,149081,6,0,P|401:365|487:297,1,140,0|8,1:0|1:2,0:0:0:0:
495,237,149601,2,0,L|501:195,2,35,0|0|0,0:2|0:2|0:2,0:0:0:0:
413,253,149948,1,0,1:2:0:0:
409,243,150035,1,0,1:0:0:0:
405,233,150121,2,0,P|376:205|334:193,1,70,8|0,1:2|0:0,0:0:0:0:
260,349,150468,6,0,L|404:342,1,140,0|8,1:2|1:2,0:0:0:0:
272,246,150988,2,0,L|128:239,1,140,0|0,1:2|1:2,0:0:0:0:
66,355,151509,1,8,1:2:0:0:
66,355,151682,1,0,1:2:0:0:
13,248,151855,6,0,P|2:182|35:97,1,140,0|8,1:0|1:2,0:0:0:0:
93,66,152376,2,0,L|135:60,2,35,0|0|0,0:2|0:2|0:2,0:0:0:0:
99,150,152723,1,0,1:2:0:0:
103,160,152810,1,0,1:0:0:0:
107,170,152896,2,0,P|136:198|178:210,1,70,8|0,1:2|0:0,0:0:0:0:
311,226,153243,6,0,L|468:219,1,140,0|8,1:0|1:2,0:0:0:0:
510,160,153763,1,0,0:2:0:0:
475,83,153936,2,0,P|452:58|408:49,1,70,0|0,0:0|1:2,0:0:0:0:
333,50,154283,1,8,1:2:0:0:
274,110,154457,1,0,0:0:0:0:
274,110,154543,1,0,0:0:0:0:
274,110,154630,6,0,L|270:186,1,70,8|0,1:2|0:0,0:0:0:0:
157,125,154977,2,0,L|153:49,1,70,8|0,1:2|0:0,0:0:0:0:
115,222,155324,2,0,P|173:226|242:283,1,140,8|8,1:2|1:2,0:0:0:0:
277,363,155844,1,8,1:2:0:0:
135,346,156017,5,8,1:2:0:0:
480,299,156537,1,8,1:2:0:0:
236,236,156884,2,0,P|224:198|234:141,1,70,0|8,1:2|1:2,0:0:0:0:
268,99,157231,1,0,1:2:0:0:
268,99,157318,1,0,1:2:0:0:
268,99,157405,5,4,1:0:0:0:
452,229,157751,2,0,P|459:277|450:341,2,112,0|8|0,0:2|1:2|0:2,0:0:0:0:
343,258,158792,1,0,0:2:0:0:
266,175,159139,2,0,L|259:103,1,56,0|0,1:2|0:2,0:0:0:0:
320,68,159485,2,0,P|268:87|155:63,1,168,8|0,1:2|0:0,0:0:0:0:
86,39,160179,5,0,1:2:0:0:
17,180,160526,2,0,L|24:252,1,56,0|0,0:2|1:2,0:0:0:0:
78,291,160873,1,8,1:2:0:0:
78,291,161220,2,0,L|85:363,1,56,0|0,0:2|1:2,0:0:0:0:
158,368,161566,1,0,0:2:0:0:
227,331,161740,1,0,1:2:0:0:
300,357,161913,2,0,P|338:364|370:357,1,56,0|0,1:2|0:2,0:0:0:0:
428,334,162260,1,8,1:2:0:0:
388,266,162433,1,0,1:2:0:0:
424,196,162607,1,8,1:2:0:0:
339,63,162954,6,0,P|289:49|208:46,1,112,0|0,1:2|0:2,0:0:0:0:
173,100,163474,1,0,1:2:0:0:
217,165,163647,1,8,1:2:0:0:
217,165,163821,2,0,L|225:230,1,56,0|0,0:2|0:0,0:0:0:0:
168,276,164168,2,0,P|131:277|75:220,1,112,0|0,1:2|1:2,0:0:0:0:
74,150,164688,1,0,1:2:0:0:
74,150,164861,2,0,L|82:85,1,56,0|8,0:2|1:2,0:0:0:0:
156,74,165208,2,0,L|164:139,1,56,0|0,1:2|0:0,0:0:0:0:
228,174,165555,1,0,1:2:0:0:
283,118,165728,6,0,P|328:91|453:120,1,168,0|0,1:2|1:2,0:0:0:0:
492,163,166422,1,8,1:2:0:0:
492,163,166769,2,0,L|498:230,1,56,0|0,1:2|0:0,0:0:0:0:
441,274,167115,1,0,1:2:0:0:
441,274,167636,6,0,L|436:327,2,28,0|0|8,1:2|1:2|1:2,0:0:0:0:
382,221,167983,1,8,1:2:0:0:
306,241,168156,2,0,P|253:252|233:249,1,56,0|0,0:2|0:0,0:0:0:0:
173,242,168503,5,4,1:0:0:0:
256,192,168589,12,0,171277,1:2:0:0:
79,332,179601,6,0,P|166:297|249:308,1,168,0|0,1:2|1:2,0:0:0:0:
309,336,180295,1,8,1:2:0:0:
386,347,180468,1,0,0:2:0:0:
463,333,180642,2,0,P|489:317|505:284,1,56,0|0,0:2|1:2,0:0:0:0:
508,217,180988,6,0,L|498:97,1,112,0|0,0:2|1:0,0:0:0:0:
427,72,181509,2,0,L|423:27,2,28,0|0|8,0:2|0:0|1:2,0:0:0:0:
388,140,181855,1,0,0:2:0:0:
316,173,182029,2,0,P|269:186|242:181,1,56,0|0,0:2|0:2,0:0:0:0:
184,174,182376,6,0,P|112:178|116:268,1,168,0|0,1:2|1:2,0:0:0:0:
176,294,183069,2,0,L|276:286,2,84,8|0|0,1:2|0:2|1:2,0:0:0:0:
111,338,183763,5,0,0:2:0:0:
41,303,183936,1,0,1:2:0:0:
106,259,184110,1,0,1:2:0:0:
106,259,184457,2,0,L|111:188,1,56,8|0,1:2|1:2,0:0:0:0:
165,147,184803,2,0,L|159:76,1,56,8|0,1:2|0:2,0:0:0:0:
104,36,185150,6,0,P|182:16|239:86,1,168,0|0,1:2|1:2,0:0:0:0:
242,86,185757,1,0,0:2:0:0:
246,99,185844,2,0,L|252:170,1,56,8|0,1:2|0:2,0:0:0:0:
207,220,186191,1,0,0:2:0:0:
207,220,186364,6,0,P|239:204|337:212,1,112,0|0,1:2|1:2,0:0:0:0:
385,234,186884,2,0,L|400:311,1,56,0|0,1:2|0:0,0:0:0:0:
474,288,187231,1,8,1:2:0:0:
474,288,187405,2,0,P|484:232|463:160,1,112
256,192,188011,12,4,190699,1:0:0:0:
256,192,191740,5,8,1:2:0:0:
256,192,191913,1,0,1:2:0:0:
160,352,192780,5,0,3:0:0:0:
352,352,193127,1,0,3:0:0:0:
256,192,193474,5,4,1:0:0:0:
256,192,193994,1,4,1:0:0:0:
202,111,194861,6,0,P|224:96|257:92,5,46.6666666666667,0|0|0|0|0|0,3:2|3:2|3:2|3:2|3:2|3:2,0:0:0:0:
272,91,195555,2,0,P|295:97|314:111,5,46.6666666666667,0|0|0|0|0|0,3:2|3:2|3:2|3:2|3:2|3:2,0:0:0:0:
335,129,196248,1,4,1:0:0:0:
96,192,197289,5,4,1:0:0:0:
96,192,197462,1,4,1:0:0:0:
433,259,198676,5,8,1:2:0:0:
256,320,199023,5,8,1:2:0:0:
130,101,199543,1,8,1:2:0:0:
382,101,200063,1,8,1:2:0:0:
406,360,200410,5,0,1:2:0:0:
346,300,200584,1,8,1:2:0:0:
286,359,200757,1,0,1:2:0:0:
226,299,200931,1,8,1:2:0:0:
166,358,201104,1,0,1:2:0:0:
106,298,201277,2,0,P|76:239|96:169,1,140,8|0,1:2|0:2,0:0:0:0:
216,79,201798,6,0,P|257:71|377:87,1,140,4|8,1:0|1:2,0:0:0:0:
434,103,202318,2,0,L|469:122,2,35,0|0|0,0:2|0:2|0:2,0:0:0:0:
373,161,202665,1,0,1:2:0:0:
336,236,202838,2,0,P|328:275|336:311,1,70,8|0,1:2|0:0,0:0:0:0:
208,357,203185,6,0,P|167:365|47:349,1,140,0|8,1:0|1:2,0:0:0:0:
9,297,203705,1,0,0:2:0:0:
13,279,203792,1,0,0:2:0:0:
17,262,203878,1,0,0:2:0:0:
89,218,204052,1,0,1:2:0:0:
45,146,204225,2,0,P|80:134|124:141,1,70,8|0,1:2|0:0,0:0:0:0:
228,196,204572,6,0,L|232:347,1,140,0|8,1:0|1:2,0:0:0:0:
310,364,205092,2,0,P|357:365|371:271,1,140,0|0,0:2|1:2,0:0:0:0:
349,210,205613,2,0,P|343:175|352:134,1,70,8|0,1:2|0:0,0:0:0:0:
394,26,205959,5,0,1:2:0:0:
310,18,206133,1,2,0:2:0:0:
239,62,206306,2,0,P|201:77|145:82,1,70,8|2,1:2|0:2,0:0:0:0:
96,192,206653,5,0,0:2:0:0:
180,184,206827,1,2,1:2:0:0:
251,228,207000,2,0,P|289:243|345:248,1,70,8|10,1:2|1:2,0:0:0:0:
449,266,207347,6,0,P|495:228|464:137,1,140,0|8,1:0|1:2,0:0:0:0:
418,102,207867,1,0,0:2:0:0:
400,98,207954,1,0,0:2:0:0:
383,94,208040,1,0,0:2:0:0:
323,153,208214,1,0,1:2:0:0:
251,109,208387,2,0,P|239:144|246:188,1,70,8|0,1:2|0:0,0:0:0:0:
325,264,208734,6,0,P|278:255|183:279,1,140,0|8,1:0|1:2,0:0:0:0:
138,342,209254,2,0,P|71:361|3:353,1,140,0|0,0:2|1:2,0:0:0:0:
1,272,209774,1,8,1:2:0:0:
1,272,209948,1,0,0:0:0:0:
16,134,210121,5,8,1:2:0:0:
16,134,210295,2,0,L|21:48,1,70,0|0,1:2|0:0,0:0:0:0:
96,98,210642,1,8,1:2:0:0:
96,98,210816,2,0,L|101:12,1,70,0|0,1:2|0:0,0:0:0:0:
182,11,211162,1,0,1:0:0:0:
254,52,211335,1,8,1:2:0:0:
332,20,211509,6,0,L|424:16,1,70,0|0,1:2|1:2,0:0:0:0:
488,96,211855,1,0,0:0:0:0:
309,140,212029,1,0,1:2:0:0:
309,140,212376,1,0,1:2:0:0:
471,237,212896,5,4,1:0:0:0:
471,237,213242,2,0,P|458:291|474:357,2,112,0|8|0,0:2|1:2|0:2,0:0:0:0:
500,128,214283,1,0,0:2:0:0:
393,96,214630,2,0,L|330:100,1,56,0|0,1:2|0:2,0:0:0:0:
260,104,214977,2,0,P|249:155|264:235,1,112,8|0,1:2|0:2,0:0:0:0:
41,237,215670,5,0,1:2:0:0:
41,237,216017,2,0,P|49:269|40:309,1,56,0|0,0:2|1:2,0:0:0:0:
23,366,216364,1,8,1:2:0:0:
177,335,216711,2,0,L|185:262,1,56,0|0,0:2|1:2,0:0:0:0:
239,224,217057,1,0,0:2:0:0:
168,192,217231,1,0,1:2:0:0:
95,218,217404,2,0,P|90:189|101:153,1,56,0|0,1:2|0:2,0:0:0:0:
139,97,217751,1,8,1:2:0:0:
94,33,217924,1,0,1:2:0:0:
16,39,218098,1,8,1:2:0:0:
10,235,218445,6,0,P|42:251|137:248,1,112,0|0,1:2|0:2,0:0:0:0:
192,229,218965,1,0,1:2:0:0:
236,164,219138,1,8,1:2:0:0:
236,164,219312,2,0,L|244:99,1,56,0|0,0:2|0:0,0:0:0:0:
309,64,219659,1,0,1:2:0:0:
309,64,219746,1,0,1:2:0:0:
309,64,219832,6,0,L|393:53,1,70,8|8,1:2|1:2,0:0:0:0:
378,55,220699,1,0,1:2:0:0:
438,115,220873,2,0,P|445:148|433:201,1,70,8|0,1:2|0:0,0:0:0:0:
505,237,221220,6,0,P|458:228|363:252,1,140,4|8,1:0|1:2,0:0:0:0:
296,291,221740,2,0,P|229:310|160:302,1,140,0|0,0:2|1:2,0:0:0:0:
89,257,222260,2,0,L|72:164,1,70,8|0,1:2|0:0,0:0:0:0:
153,91,222607,6,0,P|222:83|289:101,1,140,0|8,1:0|1:2,0:0:0:0:
351,158,223127,1,0,0:2:0:0:
399,226,223300,2,0,P|403:260|398:294,1,70,0|0,0:0|1:2,0:0:0:0:
340,356,223647,1,8,1:2:0:0:
263,320,223821,1,0,0:0:0:0:
183,346,223994,6,0,P|148:318|158:217,1,140,0|8,1:0|1:2,0:0:0:0:
217,181,224514,2,0,P|227:114|181:64,1,140,0|0,0:2|1:2,0:0:0:0:
99,45,225035,2,0,L|25:39,1,70,8|0,1:2|0:0,0:0:0:0:
0,168,225381,5,0,1:2:0:0:
0,168,225555,2,0,L|74:162,1,70,8|0,1:2|0:2,0:0:0:0:
139,209,225902,2,0,L|213:203,1,70,8|0,1:2|0:2,0:0:0:0:
268,262,226248,1,0,1:2:0:0:
208,321,226422,1,8,1:2:0:0:
208,321,226595,1,8,1:2:0:0:
348,360,226769,6,0,P|394:363|470:304,1,140,0|8,1:0|1:2,0:0:0:0:
487,228,227289,2,0,L|486:86,1,140,0|0,0:2|1:2,0:0:0:0:
426,28,227809,1,8,1:2:0:0:
257,28,228156,6,0,P|211:25|135:84,1,140,0|8,1:0|1:2,0:0:0:0:
118,160,228676,2,0,L|119:302,1,140,0|0,0:2|1:2,0:0:0:0:
131,312,229110,1,0,1:0:0:0:
143,324,229196,1,8,1:2:0:0:
358,358,229543,5,0,1:2:0:0:
358,358,229630,1,0,1:2:0:0:
358,358,229717,2,0,P|426:354|477:308,1,140,8|8,1:2|1:2,0:0:0:0:
492,225,230237,1,0,1:2:0:0:
492,225,230410,1,8,1:2:0:0:
471,143,230584,1,8,1:2:0:0:
272,48,230931,5,8,1:2:0:0:
251,130,231105,1,8,1:2:0:0:
28,83,231451,1,8,1:2:0:0:
28,83,231798,2,0,P|41:123|40:160,2,70,0|0|0,1:2|1:2|1:2,0:0:0:0:
87,23,232318,6,0,P|136:22|182:106,1,140,6|2,1:2|1:2,0:0:0:0:
183,175,232838,1,8,1:2:0:0:
183,258,233011,2,0,P|213:318|279:326,1,140,2|10,1:2|1:2,0:0:0:0:
363,311,233532,1,0,0:2:0:0:
492,264,233705,6,0,L|497:178,1,70,10|0,1:2|0:0,0:0:0:0:
420,155,234052,1,2,1:2:0:0:
491,110,234225,1,8,1:2:0:0:
416,71,234399,2,0,P|349:62|272:117,1,140,2|2,1:2|1:2,0:0:0:0:
212,344,235092,6,0,P|163:345|117:261,1,140,2|2,1:2|1:2,0:0:0:0:
116,192,235612,1,8,1:2:0:0:
116,109,235786,2,0,P|86:49|20:41,1,140,2|10,1:2|1:2,0:0:0:0:
4,124,236306,1,0,0:2:0:0:
45,280,236479,6,0,L|115:276,1,70,2|8,1:2|1:2,0:0:0:0:
174,217,236826,1,2,1:2:0:0:
328,87,237173,6,0,L|397:91,1,70,2|8,1:2|1:2,0:0:0:0:
457,151,237520,1,2,1:2:0:0:
457,151,237694,1,8,1:2:0:0:
494,295,237867,6,0,P|452:305|397:292,1,70,2|0,1:2|0:0,0:0:0:0:
345,275,238214,1,2,1:2:0:0:
345,275,238387,1,8,1:2:0:0:
266,243,238561,2,0,P|199:234|122:289,1,140,2|2,1:2|1:2,0:0:0:0:
90,337,239081,1,0,0:0:0:0:
27,184,239254,5,10,1:2:0:0:
27,184,239601,1,2,1:2:0:0:
100,143,239774,1,8,1:2:0:0:
141,69,239948,2,0,P|160:34|273:47,1,140,2|2,1:2|1:2,0:0:0:0:
319,75,240468,1,8,1:2:0:0:
350,153,240642,6,0,L|358:231,1,70,0|0,0:2|1:2,0:0:0:0:
416,281,240988,1,0,1:2:0:0:
416,281,241162,2,0,P|349:253|273:264,1,140,8|0,1:2|1:2,0:0:0:0:
283,259,241595,1,0,1:2:0:0:
283,259,241682,1,0,1:2:0:0:
49,373,242029,6,0,L|34:304,1,70,8|8,1:2|1:2,0:0:0:0:
194,99,242550,1,0,1:2:0:0:
194,99,242636,1,0,1:2:0:0:
194,99,242723,2,0,L|179:167,1,70,8|8,1:2|1:2,0:0:0:0:
256,192,243416,12,0,246754,0:2:0:0:
