osu file format v14

[General]
AudioFilename: audio.mp3
AudioLeadIn: 0
PreviewTime: 63967
Countdown: 0
SampleSet: Soft
StackLeniency: 0.7
Mode: 0
LetterboxInBreaks: 0
WidescreenStoryboard: 0

[Editor]
Bookmarks: 121452,127201,138698,150015,152710,159536
DistanceSpacing: 0.2
BeatDivisor: 4
GridSize: 4
TimelineZoom: 1.8

[Metadata]
Title:Reason Why XXX
TitleUnicode:Reason Why XXX
Artist:Sayaka Sasaki
ArtistUnicode:Sayaka Sasaki
Creator:TheLordKiwi
Version:H
Source:だから僕は、Hができない。
Tags:dakara boku wa H ga dekinai zaq So, I Can't Play H! nyannyannya
BeatmapID:1396620
BeatmapSetID:659465

[Difficulty]
HPDrainRate:6
CircleSize:3.8
OverallDifficulty:9.2
ApproachRate:9.6
SliderMultiplier:1.4
SliderTickRate:1

[Events]
//Background and Video events
0,0,"6Y3wx4p.jpg",0,0
//Break Periods
//Storyboard Layer 0 (Background)
//Storyboard Layer 1 (Fail)
//Storyboard Layer 2 (Pass)
//Storyboard Layer 3 (Foreground)
//Storyboard Sound Samples

[TimingPoints]
734,359.281437125748,4,2,0,25,1,0
6482,-100,4,2,0,100,0,0
63967,-66.6666666666667,4,2,0,100,0,1
86961,-100,4,2,0,100,0,0
138698,-66.6666666666667,4,2,0,100,0,0
158638,-200,4,2,0,100,0,0
159536,-57.1428571428571,4,2,0,100,0,0
160973,-100,4,2,0,100,0,0
164566,-90.9090909090909,4,2,0,100,0,0
164925,-83.3333333333333,4,2,0,100,0,0
165284,-76.9230769230769,4,2,0,100,0,0
165644,-71.4285714285714,4,2,0,100,0,0
166003,-66.6666666666667,4,2,0,100,0,0
166542,-100,4,2,0,100,0,0
171033,-125,4,2,0,100,0,0
171751,-166.666666666667,4,2,0,100,0,0
172290,-100,4,2,0,100,0,0
193308,-66.6666666666667,4,2,0,100,0,1
204805,-50,4,2,0,100,0,1
216302,-100,4,2,0,100,0,0
219177,-66.6666666666667,4,2,0,100,0,0

[Colours]
Combo1 : 0,0,160
Combo2 : 164,32,240
Combo3 : 255,0,0
Combo4 : 255,0,128

[HitObjects]
58,76,734,5,2,2:0:0:0:
142,75,913,1,2,2:0:0:0:
227,75,1093,1,2,2:0:0:0:
322,79,1272,1,2,2:0:0:0:
410,78,1452,2,0,P|428:117|404:140,1,70,2|2,2:0|2:0,2:0:0:0:
319,197,1811,5,2,2:0:0:0:
235,196,1991,1,2,2:0:0:0:
143,196,2171,1,2,2:0:0:0:
56,193,2350,1,2,2:0:0:0:
58,97,2530,1,2,2:0:0:0:
139,97,2710,1,2,2:0:0:0:
232,96,2889,2,0,L|328:97,1,70,2|2,2:0|2:0,2:0:0:0:
376,143,3248,5,2,2:0:0:0:
412,249,3428,1,2,2:0:0:0:
311,188,3608,1,2,2:0:0:0:
335,287,3787,1,2,2:0:0:0:
246,225,3967,1,2,2:0:0:0:
257,309,4147,1,2,2:0:0:0:
169,250,4326,2,0,P|173:305|192:341,1,70,2|2,2:0|2:0,2:0:0:0:
256,192,4686,12,0,5763,0:0:0:0:
146,91,5943,5,2,2:0:0:0:
303,135,6123,1,2,2:0:0:0:
181,206,6302,1,2,2:0:0:0:
210,49,6482,1,8,2:0:0:0:
381,123,6662,1,0,2:0:0:0:
246,243,6841,1,0,2:0:0:0:
146,91,7021,2,0,P|119:139|126:172,1,70,0|0,2:0|2:0,2:0:0:0:
301,103,7380,6,0,P|309:152|283:176,1,70,0|0,2:0|2:0,2:0:0:0:
167,231,7739,1,0,0:0:0:0:
228,117,7919,1,0,0:0:0:0:
326,250,8099,1,0,0:0:0:0:
198,328,8278,1,0,0:0:0:0:
67,196,8458,2,0,P|98:166|138:146,1,70
323,129,8817,5,0,0:0:0:0:
227,35,8997,2,0,P|186:47|168:72,1,70
65,280,9356,2,0,L|156:279,1,70,8|2,3:0|3:0,0:0:0:0:
397,321,9716,5,8,3:0:0:0:
435,121,9895,1,2,3:0:0:0:
234,55,10075,2,0,L|157:55,1,70,8|2,3:0|3:0,0:0:0:0:
49,189,10434,1,8,3:0:0:0:
164,316,10614,1,2,3:0:0:0:
330,247,10793,5,8,3:0:0:0:
185,43,10973,1,2,3:0:0:0:
122,283,11153,1,8,3:0:0:0:
396,190,11332,2,8,P|393:147|371:102,1,70,8|8,3:0|3:0,3:0:0:0:
128,122,11692,2,8,P|99:180|138:241,1,140,8|8,3:0|3:0,3:0:0:0:
312,313,12231,5,8,3:0:0:0:
401,192,12410,1,8,3:0:0:0:
453,331,12590,1,8,3:0:0:0:
297,238,12769,1,8,3:0:0:0:
209,337,12949,1,8,3:0:0:0:
171,212,13129,1,8,3:0:0:0:
165,177,13219,1,8,3:0:0:0:
164,142,13308,1,8,3:0:0:0:
176,109,13398,1,8,3:0:0:0:
203,86,13488,1,8,3:0:0:0:
234,70,13578,1,8,3:0:0:0:
269,68,13668,1,4,1:0:0:0:
336,243,14117,6,0,L|353:276,2,35
69,313,14566,1,0,0:0:0:0:
69,290,14656,2,0,L|69:243,1,35
102,89,14925,2,0,L|138:143,1,35
151,151,15105,6,8,P|243:78|337:88,1,210,8|2,3:0|2:0,3:0:0:0:
436,203,15823,2,8,P|423:250|386:257,1,70,8|2,3:0|2:0,3:0:0:0:
259,199,16183,2,8,P|208:205|195:232,1,70,8|2,3:0|2:0,3:0:0:0:
114,335,16542,2,8,P|57:337|39:308,1,70,8|2,3:0|2:0,3:0:0:0:
94,159,16901,1,8,3:0:0:0:
246,51,17081,2,0,P|289:54|292:94,1,70,2|8,2:0|3:0,0:0:0:0:
459,33,17440,5,2,2:0:0:0:
449,34,17530,1,8,3:0:0:0:
442,34,17620,2,0,L|358:35,1,70
397,169,17979,6,0,L|431:231,1,70,8|2,3:0|2:0,0:0:0:0:
115,169,18338,2,0,L|81:231,1,70,8|2,3:0|2:0,0:0:0:0:
254,64,18698,1,8,3:0:0:0:
334,176,18877,1,8,3:0:0:0:
192,176,19057,1,8,3:0:0:0:
81,230,19236,1,2,2:0:0:0:
81,230,19326,1,2,2:0:0:0:
81,230,19416,5,8,3:0:0:0:
172,338,19596,1,8,3:0:0:0:
192,176,19775,1,8,3:0:0:0:
344,239,19955,1,8,3:0:0:0:
494,198,20135,1,8,3:0:0:0:
355,40,20404,5,8,3:0:0:0:
355,40,20494,1,8,3:0:0:0:
182,195,20674,1,8,3:0:0:0:
213,37,20853,1,8,3:0:0:0:
398,142,21033,1,8,3:0:0:0:
303,308,21213,1,8,3:0:0:0:
32,216,21482,1,8,3:0:0:0:
53,188,21572,1,8,3:0:0:0:
79,165,21662,1,8,3:0:0:0:
111,154,21751,1,8,3:0:0:0:
146,152,21841,1,8,3:0:0:0:
179,162,21931,1,4,1:0:0:0:
331,77,22290,6,0,P|383:73|403:102,1,70
321,240,22650,2,0,P|373:244|393:215,1,70
331,77,23009,2,0,P|383:73|403:102,1,70
385,235,23368,1,0,0:0:0:0:
331,77,23548,1,0,0:0:0:0:
321,240,23728,1,0,0:0:0:0:
268,71,23907,5,0,0:0:0:0:
252,246,24087,1,0,0:0:0:0:
197,74,24266,1,0,0:0:0:0:
134,200,24446,2,0,L|99:294,1,70
195,355,24805,1,0,0:0:0:0:
252,246,24985,5,0,0:0:0:0:
321,98,25165,1,0,0:0:0:0:
97,113,25344,1,0,0:0:0:0:
286,284,25524,1,0,0:0:0:0:
200,62,25704,1,0,0:0:0:0:
426,178,25883,1,0,0:0:0:0:
248,334,26063,1,0,0:0:0:0:
275,118,26242,1,0,0:0:0:0:
76,209,26422,1,0,0:0:0:0:
318,298,26602,6,0,L|369:243,1,70
387,115,26961,1,0,0:0:0:0:
251,151,27141,2,0,L|203:202,1,70
137,86,27500,1,0,0:0:0:0:
60,224,27680,2,0,P|74:269|115:284,1,70
332,228,28039,5,0,0:0:0:0:
216,56,28219,1,0,0:0:0:0:
20,112,28398,2,0,P|24:172|28:188,1,70
212,300,28757,1,0,0:0:0:0:
352,140,28937,1,0,0:0:0:0:
132,228,29117,1,0,0:0:0:0:
384,284,29296,1,0,0:0:0:0:
448,72,29476,1,0,0:0:0:0:
260,192,29656,2,0,P|224:176|212:132,1,70
72,168,30015,2,0,P|116:216|104:300,1,140
103,314,30464,1,0,0:0:0:0:
101,329,30554,1,0,0:0:0:0:
256,312,30733,5,0,0:0:0:0:
384,136,30913,1,0,0:0:0:0:
168,220,31093,1,0,0:0:0:0:
320,52,31272,1,0,0:0:0:0:
80,136,31452,1,0,0:0:0:0:
332,120,31632,1,0,0:0:0:0:
132,228,31811,1,0,0:0:0:0:
360,196,31991,1,0,0:0:0:0:
164,304,32171,2,0,P|100:300|80:288,1,70
72,120,32530,5,0,0:0:0:0:
168,112,32710,2,0,P|168:188|168:192,1,70
264,144,33069,2,0,P|264:220|264:224,1,70
368,176,33428,2,0,P|368:252|368:256,1,70
460,224,33787,5,0,0:0:0:0:
288,296,33967,1,0,0:0:0:0:
144,180,34147,1,0,0:0:0:0:
344,176,34326,1,0,0:0:0:0:
132,280,34506,1,0,0:0:0:0:
40,88,34686,1,0,0:0:0:0:
224,216,34865,1,0,0:0:0:0:
200,32,35045,1,0,0:0:0:0:
224,216,35225,1,0,0:0:0:0:
336,32,35404,1,0,0:0:0:0:
224,216,35584,1,0,0:0:0:0:
448,184,35763,2,0,L|364:228,1,70
152,272,36123,5,0,0:0:0:0:
148,64,36302,1,0,0:0:0:0:
356,60,36482,1,0,0:0:0:0:
360,268,36662,1,0,0:0:0:0:
125,209,36841,1,0,0:0:0:0:
226,27,37020,1,0,0:0:0:0:
408,127,37200,1,0,0:0:0:0:
308,309,37380,1,0,0:0:0:0:
125,209,37560,1,0,0:0:0:0:
279,116,37739,1,0,0:0:0:0:
308,309,37919,1,0,0:0:0:0:
460,202,38099,6,0,L|437:115,1,70
304,46,38458,1,0,0:0:0:0:
442,134,38638,2,0,L|460:202,1,70
300,312,38997,5,0,0:0:0:0:
152,155,39177,1,0,0:0:0:0:
366,155,39356,1,0,0:0:0:0:
137,258,39536,1,0,0:0:0:0:
229,49,39716,1,0,0:0:0:0:
432,153,39895,1,0,0:0:0:0:
296,305,40075,1,0,0:0:0:0:
281,49,40254,1,0,0:0:0:0:
107,183,40434,1,0,0:0:0:0:
243,345,40614,2,0,L|243:252,1,70
243,39,40973,6,0,L|243:132,1,70
146,241,41332,1,0,0:0:0:0:
243,109,41512,2,0,L|243:39,1,70
42,55,42051,6,0,L|43:152,1,70
157,290,42410,2,0,L|155:214,1,70
280,100,42769,2,0,L|282:240,1,140
377,232,43308,5,0,0:0:0:0:
430,146,43488,1,0,0:0:0:0:
357,74,43668,1,0,0:0:0:0:
241,75,43847,2,0,L|197:17,4,70
144,144,44745,1,0,0:0:0:0:
151,153,44835,1,0,0:0:0:0:
151,153,44925,1,0,0:0:0:0:
233,248,45105,1,0,0:0:0:0:
388,254,45284,5,0,0:0:0:0:
448,128,45464,1,0,0:0:0:0:
456,88,45554,1,0,0:0:0:0:
452,44,45644,1,0,0:0:0:0:
332,69,45823,2,0,L|257:113,1,70
168,163,46183,2,0,L|212:229,1,70
300,328,46542,5,0,0:0:0:0:
475,325,46722,1,0,0:0:0:0:
344,224,46901,1,0,0:0:0:0:
312,204,46991,1,0,0:0:0:0:
277,189,47081,1,0,0:0:0:0:
156,258,47260,2,0,L|114:186,1,70
80,94,47620,2,0,L|159:94,1,70
301,105,47979,1,0,0:0:0:0:
301,105,48069,1,0,0:0:0:0:
301,105,48159,5,0,0:0:0:0:
397,188,48338,1,0,0:0:0:0:
397,188,48428,1,0,0:0:0:0:
397,188,48518,1,0,0:0:0:0:
315,305,48698,2,0,L|242:275,1,70
140,225,49057,2,0,L|201:144,1,70
307,142,49416,1,0,0:0:0:0:
320,44,49596,5,0,0:0:0:0:
216,72,49775,1,0,0:0:0:0:
216,72,49865,1,0,0:0:0:0:
216,72,49955,1,0,0:0:0:0:
138,149,50135,2,0,L|201:221,1,70
285,267,50494,1,0,0:0:0:0:
369,248,50674,1,0,0:0:0:0:
401,167,50853,1,0,0:0:0:0:
319,66,51033,5,0,0:0:0:0:
118,200,51213,1,0,0:0:0:0:
297,300,51392,1,0,0:0:0:0:
270,66,51572,1,0,0:0:0:0:
111,236,51751,1,0,0:0:0:0:
342,271,51931,1,0,0:0:0:0:
214,62,52111,1,0,0:0:0:0:
138,284,52290,1,0,0:0:0:0:
138,284,52380,1,0,0:0:0:0:
138,284,52470,5,0,0:0:0:0:
377,231,52650,1,0,0:0:0:0:
375,224,52739,1,0,0:0:0:0:
373,217,52829,1,0,0:0:0:0:
316,113,53009,1,0,0:0:0:0:
195,108,53189,2,0,L|162:178,1,70
124,274,53548,1,0,0:0:0:0:
245,277,53728,1,0,0:0:0:0:
245,277,53817,1,0,0:0:0:0:
245,277,53907,5,0,0:0:0:0:
334,157,54087,1,0,0:0:0:0:
401,294,54266,1,0,0:0:0:0:
469,177,54446,1,0,0:0:0:0:
383,54,54626,2,0,L|297:57,1,70
159,60,54985,2,0,L|160:140,1,70
94,290,55344,2,0,L|177:251,1,70
279,187,55704,5,0,0:0:0:0:
346,308,55883,1,0,0:0:0:0:
439,213,56063,1,0,0:0:0:0:
450,179,56153,1,0,0:0:0:0:
454,144,56242,1,0,0:0:0:0:
450,109,56332,1,0,0:0:0:0:
437,76,56422,1,0,0:0:0:0:
297,61,56602,1,0,0:0:0:0:
124,100,56781,6,0,L|184:144,1,70
124,284,57141,2,0,L|184:240,1,70
297,61,57500,1,0,0:0:0:0:
439,213,57680,1,0,0:0:0:0:
133,193,57859,1,0,0:0:0:0:
277,302,58039,6,0,B|320:325|373:298|372:298,1,70
437,76,58398,1,0,0:0:0:0:
215,71,58578,1,0,0:0:0:0:
123,302,58757,1,0,0:0:0:0:
279,187,58937,1,0,0:0:0:0:
340,351,59117,1,0,0:0:0:0:
340,351,59207,1,0,0:0:0:0:
340,351,59296,1,0,0:0:0:0:
473,116,59476,5,0,0:0:0:0:
132,54,59835,1,0,0:0:0:0:
49,203,60015,1,0,0:0:0:0:
209,150,60195,1,0,0:0:0:0:
122,285,60374,1,0,0:0:0:0:
266,221,60554,1,0,0:0:0:0:
196,344,60733,1,0,0:0:0:0:
231,342,60823,1,0,0:0:0:0:
264,331,60913,1,0,0:0:0:0:
296,317,61003,1,0,0:0:0:0:
325,298,61093,1,0,0:0:0:0:
352,275,61183,1,0,0:0:0:0:
374,248,61272,1,0,0:0:0:0:
393,218,61362,1,0,0:0:0:0:
409,186,61452,1,0,0:0:0:0:
415,151,61542,1,0,0:0:0:0:
421,116,61632,1,0,0:0:0:0:
424,81,61722,1,0,0:0:0:0:
426,46,61811,1,0,0:0:0:0:
426,10,61901,1,0,0:0:0:0:
284,37,62081,5,0,0:0:0:0:
286,84,62171,1,0,0:0:0:0:
156,60,62350,1,0,0:0:0:0:
30,58,62530,1,0,0:0:0:0:
38,106,62620,1,0,0:0:0:0:
60,149,62710,1,0,0:0:0:0:
86,189,62799,1,0,0:0:0:0:
121,222,62889,1,0,0:0:0:0:
164,245,62979,1,0,0:0:0:0:
210,260,63069,1,0,0:0:0:0:
256,274,63159,1,0,0:0:0:0:
296,272,63248,2,0,L|316:256,8,17.5
256,36,63967,5,0,0:0:0:0:
72,132,64147,2,0,L|72:240,1,105.000004005432
256,348,64506,1,0,0:0:0:0:
488,192,64686,1,0,0:0:0:0:
308,48,64865,5,0,0:0:0:0:
156,304,65045,1,0,0:0:0:0:
72,132,65225,1,0,0:0:0:0:
256,192,65404,1,0,0:0:0:0:
420,60,65584,1,0,0:0:0:0:
440,80,65674,1,0,0:0:0:0:
464,104,65763,1,0,0:0:0:0:
256,236,65943,1,0,0:0:0:0:
256,28,66123,2,0,P|200:40|156:96,1,105.000004005432
48,336,66482,5,0,0:0:0:0:
252,192,66662,1,0,0:0:0:0:
3,192,66841,1,0,0:0:0:0:
207,339,67021,1,0,0:0:0:0:
159,60,67201,2,0,P|205:37|357:67,1,210.000008010865
306,124,67739,2,0,P|254:104|192:131,1,105.000004005432
104,180,68099,6,0,L|104:296,1,105.000004005432
408,180,68458,2,0,L|408:296,1,105.000004005432
104,180,68817,1,0,0:0:0:0:
116,230,68907,1,0,0:0:0:0:
142,275,68997,1,0,0:0:0:0:
186,303,69087,1,0,0:0:0:0:
236,316,69177,1,0,0:0:0:0:
287,319,69266,1,0,0:0:0:0:
338,306,69356,1,0,0:0:0:0:
335,147,69536,1,0,0:0:0:0:
466,157,69716,2,0,P|437:60|340:18,1,210.000008010865
104,180,70254,5,0,0:0:0:0:
323,287,70434,1,0,0:0:0:0:
247,111,70614,1,0,0:0:0:0:
49,234,70793,1,0,0:0:0:0:
311,357,70973,2,0,P|374:338|393:283,1,105.000004005432
389,61,71332,1,0,0:0:0:0:
196,272,71512,1,0,0:0:0:0:
49,32,71692,2,0,L|269:31,1,210.000008010865
443,35,72410,5,0,0:0:0:0:
459,207,72590,1,0,0:0:0:0:
342,126,72769,1,0,0:0:0:0:
276,320,72949,1,0,0:0:0:0:
43,217,73129,2,0,L|43:88,1,105.000004005432
244,101,73488,2,0,L|244:219,1,105.000004005432
429,317,73847,1,0,0:0:0:0:
342,126,74027,1,0,0:0:0:0:
166,296,74207,1,0,0:0:0:0:
163,277,74296,2,0,L|163:223,1,52.5000020027161
328,280,74566,1,0,0:0:0:0:
132,133,74745,1,0,0:0:0:0:
48,48,75105,5,0,0:0:0:0:
256,45,75284,1,0,0:0:0:0:
160,253,75464,1,0,0:0:0:0:
297,174,75644,1,0,0:0:0:0:
299,189,75733,2,0,L|300:244,1,52.5000020027161
403,106,76003,1,0,0:0:0:0:
429,317,76183,2,0,P|358:339|313:334,1,105.000004005432
156,222,76542,5,0,0:0:0:0:
51,311,76722,1,0,0:0:0:0:
48,56,76901,1,0,0:0:0:0:
156,162,77081,1,0,0:0:0:0:
176,147,77171,2,0,L|219:111,1,52.5000020027161
263,300,77440,1,0,0:0:0:0:
424,52,77620,2,0,P|457:129|457:174,1,105.000004005432
469,278,78159,5,0,0:0:0:0:
276,352,78338,1,0,0:0:0:0:
338,209,78518,2,0,L|224:210,1,105.000004005432
105,336,78877,1,0,0:0:0:0:
53,175,79057,1,0,0:0:0:0:
233,209,79236,1,0,0:0:0:0:
163,34,79416,1,0,0:0:0:0:
350,68,79596,1,0,0:0:0:0:
473,278,79775,6,0,B|400:344|356:278|276:355,1,210.000008010865
43,292,80314,1,0,0:0:0:0:
112,141,80494,1,0,0:0:0:0:
128,113,80584,1,0,0:0:0:0:
158,106,80674,1,0,0:0:0:0:
186,119,80763,1,0,0:0:0:0:
201,146,80853,1,0,0:0:0:0:
269,266,81033,6,0,L|246:314,2,52.5000020027161
425,222,81392,2,0,P|457:163|453:111,1,105.000004005432
329,135,81751,1,0,0:0:0:0:
232,50,81931,2,0,P|200:109|244:236,1,210.000008010865
190,332,82470,5,0,0:0:0:0:
344,336,82650,2,0,P|408:296|424:248,1,105.000004005432
428,128,83009,1,0,0:0:0:0:
340,240,83189,1,0,0:0:0:0:
320,88,83368,1,0,0:0:0:0:
184,48,83548,1,0,0:0:0:0:
136,48,83638,1,0,0:0:0:0:
128,96,83728,6,0,B|103:148|103:148|53:162,1,105.000004005432
72,300,84087,5,0,0:0:0:0:
200,184,84266,1,0,0:0:0:0:
248,344,84446,1,0,0:0:0:0:
332,216,84626,2,0,B|368:116|420:144|440:40,1,210.000008010865
439,40,85075,1,0,0:0:0:0:
439,40,85165,1,0,0:0:0:0:
308,32,85344,5,0,0:0:0:0:
172,36,85524,2,0,P|100:48|72:72,1,105.000004005432
212,120,85883,2,0,P|164:152|112:152,1,105.000004005432
60,256,86242,1,0,0:0:0:0:
81,291,86332,1,0,0:0:0:0:
115,315,86422,1,0,0:0:0:0:
156,321,86512,1,0,0:0:0:0:
198,321,86602,1,0,0:0:0:0:
239,313,86692,1,0,0:0:0:0:
278,300,86781,1,0,0:0:0:0:
304,267,86871,1,0,0:0:0:0:
345,290,86961,5,0,0:0:0:0:
184,170,87231,1,0,0:0:0:0:
184,170,87320,1,0,0:0:0:0:
58,57,87500,1,0,0:0:0:0:
369,56,87859,1,0,0:0:0:0:
60,256,88219,1,0,0:0:0:0:
308,239,88578,1,0,0:0:0:0:
463,88,88937,5,0,0:0:0:0:
463,88,89027,1,0,0:0:0:0:
463,88,89117,1,0,0:0:0:0:
444,326,89296,1,0,0:0:0:0:
308,239,89476,1,0,0:0:0:0:
208,348,89656,1,0,0:0:0:0:
77,233,89835,6,0,P|42:204|56:157,1,70
9,16,90195,1,0,0:0:0:0:
105,108,90374,1,0,0:0:0:0:
179,6,90554,1,0,0:0:0:0:
243,114,90733,1,0,0:0:0:0:
309,19,90913,1,0,0:0:0:0:
355,128,91093,2,0,B|411:97|421:64|420:67,1,70
486,185,91452,5,0,0:0:0:0:
450,300,91632,1,0,0:0:0:0:
371,223,91811,1,0,0:0:0:0:
345,330,91991,1,0,0:0:0:0:
267,230,92171,1,0,0:0:0:0:
211,331,92350,1,0,0:0:0:0:
145,234,92530,1,0,0:0:0:0:
22,355,92710,5,0,0:0:0:0:
138,313,92889,1,0,0:0:0:0:
23,243,93069,1,0,0:0:0:0:
132,161,93248,1,0,0:0:0:0:
25,121,93428,1,0,0:0:0:0:
127,78,93608,1,0,0:0:0:0:
47,37,93787,1,0,0:0:0:0:
192,28,93967,2,0,P|210:68|200:120,1,70
208,174,94326,5,0,0:0:0:0:
285,70,94506,1,0,0:0:0:0:
297,190,94686,2,0,L|352:126,1,70
468,112,95045,2,0,L|424:132,1,35
472,148,95225,2,0,L|424:144,1,35
472,184,95404,2,0,L|424:168,1,35
432,256,95584,5,0,0:0:0:0:
37,205,95853,1,0,0:0:0:0:
37,205,95943,1,0,0:0:0:0:
38,82,96123,1,0,0:0:0:0:
255,195,96482,1,0,0:0:0:0:
253,73,96662,1,0,0:0:0:0:
143,146,96841,1,0,0:0:0:0:
256,192,97021,12,0,98099,0:0:0:0:
223,228,98458,6,0,P|186:244|163:277,1,70
215,155,98817,2,0,P|201:111|164:94,1,70
292,153,99177,2,0,P|323:118|360:109,1,70
291,228,99536,1,0,0:0:0:0:
297,232,99716,2,0,P|337:252|360:294,1,70
495,363,100075,2,0,P|472:336|440:323,1,70
301,346,100434,2,0,B|211:312|211:351|144:336,1,140
5,371,100973,1,0,0:0:0:0:
83,272,101153,5,0,0:0:0:0:
83,103,101332,1,0,0:0:0:0:
203,192,101512,1,0,0:0:0:0:
203,22,101691,1,0,0:0:0:0:
323,103,101871,1,0,0:0:0:0:
469,27,102051,2,0,P|443:56|450:87,1,70
457,247,102410,1,0,0:0:0:0:
376,144,102590,1,0,0:0:0:0:
291,260,102769,6,0,P|265:215|233:198,1,70
186,291,103129,1,0,0:0:0:0:
79,321,103308,2,0,P|105:366|137:383,1,70
186,291,103668,1,0,0:0:0:0:
59,170,103847,2,0,L|59:97,1,70
256,35,104207,5,0,0:0:0:0:
360,217,104386,1,0,0:0:0:0:
401,68,104566,1,0,0:0:0:0:
215,184,104745,1,0,0:0:0:0:
395,288,104925,1,0,0:0:0:0:
419,141,105105,1,0,0:0:0:0:
240,251,105284,1,0,0:0:0:0:
425,357,105464,1,0,0:0:0:0:
426,215,105644,2,0,P|371:216|331:239,1,70
256,326,106003,1,0,0:0:0:0:
128,298,106183,2,0,B|72:249|72:249|120:184,1,140
108,92,106901,5,0,0:0:0:0:
256,40,107081,1,0,0:0:0:0:
256,192,107260,1,0,0:0:0:0:
408,120,107440,1,0,0:0:0:0:
400,272,107620,1,0,0:0:0:0:
312,112,107799,1,0,0:0:0:0:
264,336,107979,1,0,0:0:0:0:
348,200,108159,1,0,0:0:0:0:
132,268,108338,2,0,L|56:212,1,70
20,24,108698,5,0,0:0:0:0:
276,96,108877,2,0,L|408:36,2,140
380,308,109955,5,0,0:0:0:0:
131,308,110135,1,0,0:0:0:0:
380,228,110314,1,0,0:0:0:0:
131,228,110494,1,0,0:0:0:0:
380,152,110674,1,0,0:0:0:0:
131,152,110854,1,0,0:0:0:0:
380,76,111033,1,0,0:0:0:0:
131,76,111213,1,0,0:0:0:0:
211,274,111392,5,0,0:0:0:0:
211,75,111572,1,0,0:0:0:0:
299,274,111751,1,0,0:0:0:0:
299,75,111931,2,0,L|299:6,1,70
476,52,112290,5,0,0:0:0:0:
320,180,112470,1,0,0:0:0:0:
476,52,112650,1,0,0:0:0:0:
320,180,112829,1,0,0:0:0:0:
472,264,113009,1,0,0:0:0:0:
284,352,113189,1,0,0:0:0:0:
256,144,113368,1,0,0:0:0:0:
80,328,113548,1,0,0:0:0:0:
212,244,113728,1,0,0:0:0:0:
68,184,113907,1,0,0:0:0:0:
180,76,114087,1,0,0:0:0:0:
296,176,114266,5,0,0:0:0:0:
336,144,114446,1,0,0:0:0:0:
360,112,114626,2,0,B|367:48|367:48|442:66,1,140
468,132,115165,5,0,0:0:0:0:
424,300,115344,1,0,0:0:0:0:
264,236,115524,1,0,0:0:0:0:
148,340,115704,1,0,0:0:0:0:
24,192,115883,1,0,0:0:0:0:
8,380,116063,1,0,0:0:0:0:
144,224,116242,1,0,0:0:0:0:
16,112,116422,1,0,0:0:0:0:
192,124,116602,1,0,0:0:0:0:
200,280,116781,1,0,0:0:0:0:
296,136,116961,1,0,0:0:0:0:
104,112,117141,1,0,0:0:0:0:
296,48,117320,1,0,0:0:0:0:
332,204,117500,1,0,0:0:0:0:
456,40,117680,2,0,P|426:99|480:136,1,140
480,208,118219,6,0,L|444:280,1,70
216,332,118578,2,0,L|272:260,1,70
200,48,118937,2,0,L|112:160,1,140
48,344,119476,6,0,L|104:284,1,70
228,208,119835,1,0,0:0:0:0:
224,312,120015,2,0,L|172:360,2,70
340,280,120554,1,0,0:0:0:0:
356,264,120644,1,0,0:0:0:0:
372,248,120733,1,0,0:0:0:0:
388,228,120823,1,0,0:0:0:0:
396,204,120913,1,0,0:0:0:0:
404,180,121003,1,0,0:0:0:0:
408,156,121093,1,0,0:0:0:0:
404,52,121272,1,0,0:0:0:0:
247,41,121452,5,0,0:0:0:0:
45,157,121722,1,0,0:0:0:0:
52,176,121811,1,0,0:0:0:0:
117,312,121991,2,0,L|213:313,1,70
322,313,122350,2,0,L|373:226,1,70
441,97,122889,1,0,0:0:0:0:
317,121,123069,1,0,0:0:0:0:
316,132,123159,1,0,0:0:0:0:
317,143,123248,1,0,0:0:0:0:
205,90,123428,2,0,L|207:186,1,70
211,275,123787,2,0,L|134:275,1,70
39,216,124147,1,0,0:0:0:0:
39,181,124236,1,0,0:0:0:0:
40,145,124326,5,0,0:0:0:0:
256,148,124506,1,0,0:0:0:0:
256,183,124596,1,0,0:0:0:0:
256,218,124686,1,0,0:0:0:0:
257,324,124865,2,0,L|346:324,1,70
463,325,125225,2,0,L|463:244,1,70
462,37,125763,1,0,0:0:0:0:
305,38,125943,1,0,0:0:0:0:
306,73,126033,1,0,0:0:0:0:
307,107,126123,1,0,0:0:0:0:
142,108,126302,2,0,L|142:186,1,70
143,302,126662,2,0,L|229:302,1,70
358,160,127201,5,0,0:0:0:0:
154,157,127380,1,0,0:0:0:0:
317,279,127560,1,0,0:0:0:0:
257,84,127739,1,0,0:0:0:0:
191,277,127919,1,0,0:0:0:0:
403,199,128099,1,0,0:0:0:0:
141,99,128278,1,0,0:0:0:0:
294,334,128458,1,0,0:0:0:0:
296,308,128548,1,0,0:0:0:0:
296,279,128638,5,0,0:0:0:0:
301,40,128817,1,0,0:0:0:0:
287,58,128907,1,0,0:0:0:0:
274,78,128997,1,0,0:0:0:0:
146,249,129177,1,0,0:0:0:0:
47,42,129536,1,0,0:0:0:0:
160,124,129716,5,0,0:0:0:0:
46,245,129895,1,0,0:0:0:0:
158,360,130075,1,0,0:0:0:0:
259,249,130254,1,0,0:0:0:0:
361,347,130434,1,0,0:0:0:0:
382,337,130524,1,0,0:0:0:0:
404,322,130614,1,0,0:0:0:0:
451,182,130793,5,0,0:0:0:0:
372,56,130973,1,0,0:0:0:0:
339,43,131063,1,0,0:0:0:0:
304,38,131153,1,0,0:0:0:0:
269,39,131242,1,0,0:0:0:0:
234,46,131332,1,0,0:0:0:0:
200,56,131422,1,0,0:0:0:0:
174,80,131512,1,0,0:0:0:0:
148,104,131602,1,0,0:0:0:0:
124,130,131692,5,0,0:0:0:0:
39,268,131871,1,0,0:0:0:0:
185,219,132051,1,0,0:0:0:0:
40,52,132231,1,0,0:0:0:0:
74,53,132320,1,0,0:0:0:0:
108,58,132410,1,0,0:0:0:0:
139,73,132500,1,0,0:0:0:0:
168,92,132590,1,0,0:0:0:0:
316,225,132769,1,0,0:0:0:0:
206,334,132949,5,0,0:0:0:0:
356,334,133129,1,0,0:0:0:0:
452,205,133308,1,0,0:0:0:0:
316,225,133488,1,0,0:0:0:0:
395,107,133668,1,0,0:0:0:0:
250,151,133847,1,0,0:0:0:0:
315,29,134027,1,0,0:0:0:0:
168,84,134207,6,0,L|116:140,1,70
32,236,134566,1,0,0:0:0:0:
40,80,134745,1,0,0:0:0:0:
160,204,134925,1,0,0:0:0:0:
56,320,135105,1,0,0:0:0:0:
308,320,135374,1,0,0:0:0:0:
308,281,135464,1,0,0:0:0:0:
467,319,135644,5,0,0:0:0:0:
459,150,136003,1,0,0:0:0:0:
392,212,136183,1,0,0:0:0:0:
375,128,136362,1,0,0:0:0:0:
303,191,136542,1,0,0:0:0:0:
294,106,136722,1,0,0:0:0:0:
229,175,136901,5,0,0:0:0:0:
203,132,136991,1,0,0:0:0:0:
212,83,137081,1,0,0:0:0:0:
192,37,137171,1,0,0:0:0:0:
143,32,137260,1,0,0:0:0:0:
109,67,137350,1,0,0:0:0:0:
101,115,137440,1,0,0:0:0:0:
128,155,137530,1,0,0:0:0:0:
120,203,137620,1,0,0:0:0:0:
80,232,137710,1,0,0:0:0:0:
68,285,137799,1,0,0:0:0:0:
90,328,137889,1,0,0:0:0:0:
129,356,137979,1,0,0:0:0:0:
174,337,138069,1,0,0:0:0:0:
290,280,138248,1,0,0:0:0:0:
288,227,138338,1,0,0:0:0:0:
288,45,138518,1,0,0:0:0:0:
79,63,138698,5,0,0:0:0:0:
103,81,138787,1,0,0:0:0:0:
125,98,138877,1,0,0:0:0:0:
68,145,139057,5,0,0:0:0:0:
92,163,139146,1,0,0:0:0:0:
114,180,139236,1,0,0:0:0:0:
54,230,139416,5,0,0:0:0:0:
78,248,139505,1,0,0:0:0:0:
100,265,139595,1,0,0:0:0:0:
186,293,139775,6,0,L|186:347,2,52.5000020027161
257,292,140135,2,0,L|256:348,2,52.5000020027161
329,290,140494,2,0,L|330:346,2,52.5000020027161
443,316,140853,6,0,B|479:254|416:243|416:243|460:197|460:197|407:166|407:166|459:112|380:70,1,315.000012016297
311,31,141572,1,0,0:0:0:0:
205,34,141751,2,0,B|164:85|104:56,1,105.000004005432
8,17,142111,1,0,0:0:0:0:
0,134,142290,5,0,0:0:0:0:
3,160,142380,1,0,0:0:0:0:
12,184,142470,1,0,0:0:0:0:
24,206,142560,1,0,0:0:0:0:
44,222,142650,1,0,0:0:0:0:
68,231,142739,1,0,0:0:0:0:
94,233,142829,1,0,0:0:0:0:
119,226,142919,1,0,0:0:0:0:
141,213,143009,1,0,0:0:0:0:
160,195,143099,1,0,0:0:0:0:
172,171,143189,1,0,0:0:0:0:
175,145,143278,1,0,0:0:0:0:
174,118,143368,1,0,0:0:0:0:
192,99,143458,1,0,0:0:0:0:
218,95,143548,1,0,0:0:0:0:
243,101,143638,1,0,0:0:0:0:
265,114,143728,1,0,0:0:0:0:
277,136,143817,1,0,0:0:0:0:
281,161,143907,1,0,0:0:0:0:
281,187,143997,1,0,0:0:0:0:
268,238,144087,6,0,L|137:240,1,105.000004005432
31,149,144446,5,0,0:0:0:0:
43,200,144536,1,0,0:0:0:0:
71,243,144626,1,0,0:0:0:0:
120,261,144716,1,0,0:0:0:0:
171,253,144805,1,0,0:0:0:0:
215,224,144895,1,0,0:0:0:0:
245,181,144985,1,0,0:0:0:0:
246,128,145075,1,0,0:0:0:0:
210,89,145165,1,0,0:0:0:0:
163,112,145254,1,0,0:0:0:0:
168,164,145344,1,0,0:0:0:0:
192,210,145434,1,0,0:0:0:0:
233,242,145524,1,0,0:0:0:0:
283,257,145614,1,0,0:0:0:0:
335,260,145704,1,0,0:0:0:0:
386,255,145793,1,0,0:0:0:0:
435,238,145883,1,0,0:0:0:0:
465,195,145973,1,0,0:0:0:0:
465,142,146063,1,0,0:0:0:0:
441,106,146153,1,0,0:0:0:0:
416,72,146242,1,0,0:0:0:0:
375,61,146332,5,0,0:0:0:0:
332,61,146422,1,0,0:0:0:0:
289,59,146512,1,0,0:0:0:0:
247,61,146602,1,0,0:0:0:0:
204,63,146692,1,0,0:0:0:0:
162,62,146781,1,0,0:0:0:0:
120,64,146871,1,0,0:0:0:0:
79,75,146961,6,0,B|37:98|74:126|74:126|39:152|39:152|74:194|74:194|22:236|48:273,1,210.000008010865
127,341,147500,2,0,B|190:353|248:324,1,105.000004005432
340,295,147859,5,0,0:0:0:0:
408,294,147949,1,0,0:0:0:0:
471,269,148039,1,0,0:0:0:0:
492,204,148129,1,0,0:0:0:0:
476,137,148219,1,0,0:0:0:0:
429,87,148308,1,0,0:0:0:0:
362,70,148398,1,0,0:0:0:0:
295,84,148488,1,0,0:0:0:0:
245,130,148578,2,0,L|211:173,1,52.5000020027161
140,336,148757,5,0,0:0:0:0:
91,287,148847,1,0,0:0:0:0:
52,230,148937,1,0,0:0:0:0:
50,161,149027,1,0,0:0:0:0:
87,103,149117,1,0,0:0:0:0:
146,68,149207,1,0,0:0:0:0:
210,48,149296,1,0,0:0:0:0:
278,42,149386,1,0,0:0:0:0:
345,49,149476,6,0,B|407:84|358:125|358:125|419:143|419:143|388:196|388:196|460:217|413:293,1,315.000012016297
329,343,150195,5,0,0:0:0:0:
278,330,150284,1,0,0:0:0:0:
225,322,150374,1,0,0:0:0:0:
173,313,150464,1,0,0:0:0:0:
121,303,150554,1,0,0:0:0:0:
64,218,150733,6,0,P|45:164|74:126,1,105.000004005432
252,222,151093,2,0,P|271:168|242:130,1,105.000004005432
108,286,151452,2,0,P|162:305|200:276,1,105.000004005432
115,66,151811,2,0,P|169:47|207:76,1,105.000004005432
205,180,152171,2,0,L|350:180,2,105.000004005432
122,54,152710,6,0,L|162:88,3,52.5000020027161
194,108,153069,6,0,L|371:50,1,157.500006008148
411,87,153428,2,0,L|261:136,1,157.500006008148
212,174,153787,2,0,L|246:229,1,52.5000020027161
228,260,153967,2,0,L|200:215,1,52.5000020027161
145,197,154147,2,0,L|179:252,1,52.5000020027161
153,298,154326,6,0,P|91:261|55:180,1,157.500006008148
53,153,154686,2,0,L|111:153,1,52.5000020027161
151,115,154865,2,0,L|98:115,1,52.5000020027161
57,78,155045,2,0,P|127:39|224:47,1,157.500006008148
226,50,155404,1,0,0:0:0:0:
238,55,155494,1,0,0:0:0:0:
247,60,155584,1,0,0:0:0:0:
256,66,155674,1,0,0:0:0:0:
266,73,155763,1,0,0:0:0:0:
420,173,155943,6,0,L|466:203,1,52.5000020027161
471,252,156123,2,0,L|427:223,1,52.5000020027161
378,245,156302,2,0,B|525:332|474:355|474:355|352:322|280:361,1,367.500014019013
237,358,157021,2,0,L|235:287,1,52.5000020027161
202,272,157201,2,0,P|56:266|61:103,1,315.000012016297
354,44,158099,5,0,0:0:0:0:
316,40,158189,1,0,0:0:0:0:
280,45,158278,1,0,0:0:0:0:
249,55,158368,1,0,0:0:0:0:
214,69,158458,1,0,0:0:0:0:
189,88,158548,1,0,0:0:0:0:
158,111,158638,2,0,P|86:94|73:145,1,140
112,350,159536,6,0,L|112:275,1,61.2500005841255
155,199,159716,2,0,L|155:277,1,61.2500005841255
361,306,160075,2,0,P|432:232|448:146,1,183.750001752377
410,89,160434,2,0,L|370:144,1,61.2500005841255
289,184,160614,2,0,L|340:123,1,61.2500005841255
369,0,160793,2,0,L|292:97,1,122.500001168251
185,231,161153,5,0,0:0:0:0:
66,324,161332,1,0,0:0:0:0:
65,135,161512,1,0,0:0:0:0:
66,324,161692,1,0,0:0:0:0:
216,201,161871,1,0,0:0:0:0:
66,324,162051,1,0,0:0:0:0:
65,135,162231,2,0,P|109:101|147:105,1,70
253,34,162590,6,0,P|244:67|254:100,1,70
325,180,162949,1,0,0:0:0:0:
442,50,163129,1,0,0:0:0:0:
460,227,163308,1,0,0:0:0:0:
442,50,163488,1,0,0:0:0:0:
325,180,163668,2,0,P|305:208|304:242,1,70
113,329,164027,6,0,L|155:329,1,35
191,330,164207,2,0,P|260:333|282:282,1,105
264,253,164566,2,0,P|225:285|166:268,1,115.50000352478
170,215,164925,2,0,P|239:218|274:172,1,125.999996154785
248,136,165284,2,0,P|209:168|133:144,1,136.499993751526
148,100,165644,2,0,P|217:103|266:47,1,146.999995513916
227,36,166003,2,0,P|101:37|41:199,1,315.000012016297
131,340,166901,5,0,0:0:0:0:
238,338,167081,2,0,L|373:335,1,105
371,323,167440,2,0,B|450:215|358:217|422:71,1,245
421,61,168159,1,0,0:0:0:0:
267,56,168518,6,0,P|232:60|207:83,1,70
248,247,168877,2,0,P|282:242|307:219,1,70
356,159,169236,2,0,P|351:124|328:99,1,70
165,139,169595,2,0,P|169:173|192:198,1,70
27,148,169955,2,0,P|22:182|0:207,1,70
95,36,170314,6,0,B|102:300,1,245
151,379,171033,2,0,B|146:162,1,196
192,36,171751,2,0,B|194:170,1,125.999996154785
200,217,172380,1,0,0:0:0:0:
213,235,172470,1,0,0:0:0:0:
240,246,172560,1,0,0:0:0:0:
267,248,172650,1,0,0:0:0:0:
290,240,172739,1,0,0:0:0:0:
306,222,172829,1,0,0:0:0:0:
377,139,173009,1,0,0:0:0:0:
222,33,173189,6,0,P|174:46|153:74,1,70
230,136,173548,1,0,0:0:0:0:
200,224,173728,2,0,P|173:245|138:250,1,70
32,186,174087,5,0,0:0:0:0:
115,344,174266,1,0,0:0:0:0:
200,224,174446,1,0,0:0:0:0:
239,330,174626,2,0,L|323:330,1,70
454,269,174985,1,0,0:0:0:0:
326,222,175165,2,0,P|305:185|307:151,1,70
451,162,175524,5,0,0:0:0:0:
356,45,175704,1,0,0:0:0:0:
241,138,175883,1,0,0:0:0:0:
45,40,176063,6,0,P|29:81|30:124,1,70
103,243,176422,1,0,0:0:0:0:
162,38,176602,2,0,P|178:79|177:122,1,70
103,243,176961,6,0,P|82:275|88:318,1,70
186,299,177320,1,0,0:0:0:0:
294,320,177500,2,0,L|293:197,1,105
342,189,177859,2,0,L|342:293,1,105
393,316,178219,2,0,L|392:193,1,105
387,148,178578,5,0,0:0:0:0:
327,31,178757,1,0,0:0:0:0:
286,45,178847,1,0,0:0:0:0:
262,66,178937,1,0,0:0:0:0:
160,160,179117,1,0,0:0:0:0:
41,66,179296,1,0,0:0:0:0:
41,90,179386,1,0,0:0:0:0:
42,114,179476,1,0,0:0:0:0:
43,138,179566,1,0,0:0:0:0:
47,162,179656,6,0,L|50:195,8,17.5
80,320,180195,1,0,0:0:0:0:
209,319,180374,1,0,0:0:0:0:
249,308,180464,1,0,0:0:0:0:
286,288,180554,1,0,0:0:0:0:
319,262,180644,1,0,0:0:0:0:
345,230,180733,1,0,0:0:0:0:
364,192,180823,1,0,0:0:0:0:
375,151,180913,1,0,0:0:0:0:
378,109,181003,1,0,0:0:0:0:
376,66,181093,6,0,L|376:36,8,17.5
60,51,181811,5,0,0:0:0:0:
160,52,181991,2,0,L|136:148,1,70
64,192,182350,1,0,0:0:0:0:
184,188,182530,1,0,0:0:0:0:
96,280,182710,1,0,0:0:0:0:
144,356,182889,1,0,0:0:0:0:
184,280,183069,1,0,0:0:0:0:
300,324,183248,5,0,0:0:0:0:
365,233,183428,1,0,0:0:0:0:
365,213,183518,2,0,L|363:125,1,70
362,120,183787,1,0,0:0:0:0:
471,41,183967,2,0,L|472:132,1,70
359,32,184326,5,0,0:0:0:0:
260,96,184506,1,0,0:0:0:0:
260,96,184686,1,0,0:0:0:0:
177,30,184865,1,0,0:0:0:0:
112,96,185045,1,0,0:0:0:0:
32,33,185225,2,0,L|31:118,1,70
160,168,185584,2,0,L|105:253,1,70
48,284,185943,6,0,P|62:324|102:345,1,70
179,318,186302,2,0,P|219:332|240:372,1,70
276,241,186662,2,0,P|290:281|330:302,1,70
438,337,187021,1,0,0:0:0:0:
437,236,187201,2,0,L|436:159,1,70
494,46,187560,2,0,L|354:47,1,140
292,55,188099,5,0,0:0:0:0:
169,11,188278,1,0,0:0:0:0:
224,119,188458,1,0,0:0:0:0:
100,69,188638,1,0,0:0:0:0:
167,198,188817,2,0,L|74:176,1,70
31,106,189177,1,0,0:0:0:0:
35,233,189356,1,0,0:0:0:0:
131,319,189536,2,0,B|217:314|185:355|264:348,1,140
367,345,190254,5,0,0:0:0:0:
472,270,190434,1,0,0:0:0:0:
332,251,190614,1,0,0:0:0:0:
462,170,190793,1,0,0:0:0:0:
286,167,190973,2,0,L|372:125,1,70
431,61,191332,5,0,0:0:0:0:
199,61,191512,1,0,0:0:0:0:
268,280,191692,1,0,0:0:0:0:
5,15,191871,5,0,0:0:0:0:
127,195,192051,2,0,L|216:193,1,70
45,348,192410,1,0,0:0:0:0:
127,195,192590,2,0,L|57:196,1,70
170,321,192949,5,0,0:0:0:0:
352,319,193129,1,0,0:0:0:0:
476,48,193308,1,0,0:0:0:0:
272,48,193488,1,0,0:0:0:0:
254,57,193578,2,0,L|232:105,1,52.5000020027161
264,320,193847,1,0,0:0:0:0:
34,250,194027,2,0,L|35:140,1,105.000004005432
83,116,194296,6,0,P|137:159|137:159,1,52.5000020027161
153,321,194566,1,0,0:0:0:0:
296,28,194745,1,0,0:0:0:0:
464,80,194925,1,0,0:0:0:0:
464,112,195015,2,0,L|448:172,1,52.5000020027161
263,194,195284,1,0,0:0:0:0:
104,46,195464,2,0,P|32:101|24:216,1,210.000008010865
119,321,196003,5,0,0:0:0:0:
278,325,196183,2,0,B|337:300|326:334|409:312,1,105.000004005432
436,310,196452,2,0,B|411:251|445:262|423:179,1,105.000004005432
431,165,196722,1,0,0:0:0:0:
338,37,196901,1,0,0:0:0:0:
260,163,197081,1,0,0:0:0:0:
64,42,197260,5,0,0:0:0:0:
227,228,197440,1,0,0:0:0:0:
66,351,197620,2,0,B|115:296|65:241|65:241|65:146|65:153,1,210.000008010865
216,37,198159,1,0,0:0:0:0:
341,128,198338,1,0,0:0:0:0:
342,136,198428,1,0,0:0:0:0:
343,143,198518,1,0,0:0:0:0:
344,150,198608,1,0,0:0:0:0:
343,156,198698,1,0,0:0:0:0:
419,297,198877,5,0,0:0:0:0:
421,330,198967,2,0,L|363:331,1,52.5000020027161
221,333,199236,2,0,B|105:299|105:299|173:260,1,157.500006008148
168,260,199596,1,0,0:0:0:0:
47,260,199775,1,0,0:0:0:0:
43,127,199955,1,0,0:0:0:0:
77,100,200045,1,0,0:0:0:0:
111,134,200135,5,0,0:0:0:0:
248,37,200314,5,0,0:0:0:0:
279,38,200404,1,0,0:0:0:0:
310,38,200494,2,0,L|368:37,1,52.5000020027161
401,40,200674,1,0,0:0:0:0:
477,177,200853,1,0,0:0:0:0:
331,177,201033,1,0,0:0:0:0:
414,298,201213,1,0,0:0:0:0:
269,296,201392,1,0,0:0:0:0:
223,339,201482,1,0,0:0:0:0:
178,294,201572,5,0,0:0:0:0:
35,195,201931,5,0,0:0:0:0:
183,159,202111,1,0,0:0:0:0:
65,47,202290,1,0,0:0:0:0:
250,34,202470,5,0,0:0:0:0:
359,32,202650,1,0,0:0:0:0:
472,31,202829,1,0,0:0:0:0:
472,54,202919,1,0,0:0:0:0:
472,80,203009,1,0,0:0:0:0:
474,200,203189,5,0,0:0:0:0:
358,200,203368,1,0,0:0:0:0:
242,201,203548,1,0,0:0:0:0:
129,200,203728,1,0,0:0:0:0:
7,204,203907,1,0,0:0:0:0:
5,320,204087,5,0,0:0:0:0:
47,318,204177,1,0,0:0:0:0:
76,318,204266,1,0,0:0:0:0:
118,316,204356,1,0,0:0:0:0:
148,317,204446,1,0,0:0:0:0:
188,317,204536,1,0,0:0:0:0:
220,317,204626,1,0,0:0:0:0:
259,317,204716,1,0,0:0:0:0:
291,318,204805,5,0,0:0:0:0:
431,168,204985,2,0,P|462:89|395:69,1,140
220,317,205344,1,0,0:0:0:0:
49,63,205524,1,0,0:0:0:0:
43,314,205704,5,0,0:0:0:0:
213,70,205883,1,0,0:0:0:0:
375,325,206063,1,0,0:0:0:0:
21,170,206242,5,0,0:0:0:0:
435,91,206422,1,0,0:0:0:0:
435,109,206512,2,0,L|439:188,1,70
218,368,206781,1,0,0:0:0:0:
109,46,206961,2,0,B|270:29|194:96|395:19,1,280
463,201,207500,5,0,0:0:0:0:
346,333,207680,1,0,0:0:0:0:
375,139,207859,2,0,L|296:263,1,140
223,355,208219,1,0,0:0:0:0:
302,96,208398,1,0,0:0:0:0:
131,352,208578,1,0,0:0:0:0:
228,60,208757,1,0,0:0:0:0:
44,350,208937,1,0,0:0:0:0:
2,35,209117,6,0,B|28:90|130:72|130:72|86:160|235:208,1,280
502,366,209656,1,0,0:0:0:0:
496,17,209835,2,0,B|410:163|391:61|304:220,1,280
111,321,210374,5,0,0:0:0:0:
80,119,210554,2,0,B|85:43|85:43|154:90|154:89,1,140
182,114,210823,2,0,P|141:171|155:239,2,140
226,143,211272,2,0,P|291:246|390:312,1,210
355,57,211811,5,0,0:0:0:0:
368,222,211991,1,0,0:0:0:0:
172,63,212171,1,0,0:0:0:0:
175,212,212350,1,0,0:0:0:0:
355,57,212530,1,0,0:0:0:0:
368,222,212710,2,0,P|352:304|284:317,1,140
266,327,212979,1,0,0:0:0:0:
213,331,213069,5,0,0:0:0:0:
53,184,213428,5,0,0:0:0:0:
166,26,213608,1,0,0:0:0:0:
7,26,213787,1,0,0:0:0:0:
138,129,213967,2,0,P|218:119|278:11,1,210
303,14,214326,1,0,0:0:0:0:
333,15,214416,1,0,0:0:0:0:
357,15,214506,1,0,0:0:0:0:
506,9,214686,5,0,0:0:0:0:
506,156,214865,1,0,0:0:0:0:
355,110,215045,1,0,0:0:0:0:
376,262,215225,1,0,0:0:0:0:
231,193,215404,1,0,0:0:0:0:
212,349,215584,1,0,0:0:0:0:
61,260,215763,1,0,0:0:0:0:
106,78,215943,1,0,0:0:0:0:
165,52,216033,1,0,0:0:0:0:
229,51,216123,1,0,0:0:0:0:
289,80,216213,1,0,0:0:0:0:
337,121,216302,5,0,0:0:0:0:
430,311,216572,1,0,0:0:0:0:
383,282,216662,1,0,0:0:0:0:
255,341,216841,1,0,0:0:0:0:
231,331,217201,5,0,0:0:0:0:
199,316,217560,5,0,0:0:0:0:
168,306,217919,5,0,0:0:0:0:
160,201,218099,1,0,0:0:0:0:
79,277,218278,1,0,0:0:0:0:
87,152,218458,1,0,0:0:0:0:
6,232,218638,1,0,0:0:0:0:
6,103,218817,1,0,0:0:0:0:
152,103,218997,1,0,0:0:0:0:
336,31,219177,6,0,L|371:297,1,262.500010013581
312,363,219716,6,0,L|277:102,1,262.500010013581
265,40,220254,5,0,0:0:0:0:
256,192,220344,12,0,221871,0:0:0:0:
