osu file format v14

[General]
AudioFilename: audio.mp3
AudioLeadIn: 0
PreviewTime: 59117
Countdown: 0
SampleSet: Soft
StackLeniency: 0.7
Mode: 0
LetterboxInBreaks: 0
WidescreenStoryboard: 1

[Editor]
DistanceSpacing: 1.2
BeatDivisor: 4
GridSize: 4
TimelineZoom: 2.599999

[Metadata]
Title:Atlantico Blue
TitleUnicode:Atlantico Blue
Artist:Sayaka Sasaki
ArtistUnicode:佐咲紗花
Creator:_kotachi_
Version:Brilliant Sky
Source:
Tags:
BeatmapID:1701072
BeatmapSetID:810829

[Difficulty]
HPDrainRate:5
CircleSize:3.8
OverallDifficulty:8.7
ApproachRate:9.3
SliderMultiplier:1.76
SliderTickRate:1

[Events]
//Background and Video events
0,0,"BG.jpg",0,0
//Break Periods
//Storyboard Layer 0 (Background)
//Storyboard Layer 1 (Fail)
//Storyboard Layer 2 (Pass)
//Storyboard Layer 3 (Foreground)
//Storyboard Sound Samples

[TimingPoints]
3195,338.983050847458,4,2,1,70,1,0
3195,-133.333333333333,4,2,1,40,0,0
8618,-111.111111111111,4,2,1,50,0,0
10991,-111.111111111111,4,2,2,50,0,0
11161,-111.111111111111,4,2,1,50,0,0
11330,-111.111111111111,4,2,1,70,0,0
12686,-111.111111111111,4,2,1,30,0,0
13025,-111.111111111111,4,2,1,50,0,0
13364,-111.111111111111,4,2,1,55,0,0
13703,-111.111111111111,4,2,1,65,0,0
14042,-90.9090909090909,4,2,1,70,0,1
19466,-90.9090909090909,4,2,2,70,0,1
19635,-90.9090909090909,4,2,1,70,0,1
20822,-90.9090909090909,4,2,2,70,0,1
20991,-90.9090909090909,4,2,1,70,0,1
24889,-100,4,2,1,60,0,0
35059,-100,4,2,2,60,0,0
35228,-100,4,2,1,60,0,0
60144,-100,4,2,1,70,0,1
81500,-100,4,2,1,70,0,0
81839,-100,4,2,1,70,0,1
92686,-100,4,2,1,70,0,0
103533,-100,4,2,1,70,0,1
114381,-100,4,2,1,70,0,0
193025,-100,4,2,1,70,0,1
203872,-100,4,2,1,70,0,0
214720,-100,4,2,1,70,0,1
218788,-100,4,2,1,70,0,0
220144,-100,4,2,1,70,0,1
230991,-100,4,2,1,70,0,0

[HitObjects]
138,221,3195,5,4,0:0:0:0:
138,221,3364,1,0,0:0:0:0:
265,254,3533,1,2,0:0:0:0:
265,254,3703,1,0,0:0:0:0:
209,102,3872,2,0,L|216:167,1,66.0000025177003
358,239,4211,2,0,L|365:173,1,66.0000025177003,2|0,0:0|0:0,0:0:0:0:
296,30,4550,5,0,0:0:0:0:
294,140,4720,1,0,0:0:0:0:
404,86,4889,1,2,0:0:0:0:
287,122,5059,1,0,0:0:0:0:
198,17,5228,2,0,L|124:20,1,66.0000025177003
13,84,5567,2,0,P|11:123|21:162,1,66.0000025177003,2|0,0:0|0:0,0:0:0:0:
170,111,5906,6,0,L|96:114,1,66.0000025177003
190,223,6245,1,2,0:0:0:0:
269,150,6415,1,0,0:0:0:0:
293,252,6584,2,0,P|295:284|289:317,1,66.0000025177003
269,150,6923,2,0,P|263:117|265:84,1,66.0000025177003,2|0,0:0|0:0,0:0:0:0:
464,177,7262,5,0,0:0:0:0:
342,113,7432,1,0,0:0:0:0:
454,47,7601,1,2,0:0:0:0:
379,193,7771,1,0,0:0:0:0:
348,30,7940,2,0,L|353:98,1,66.0000025177003
207,30,8279,2,0,P|231:12|279:7,1,66.0000025177003,2|8,0:0|0:0,0:0:0:0:
265,84,8533,1,8,0:1:0:0:
265,84,8618,6,0,P|267:116|258:171,1,79.1999975830079,8|0,0:1|0:0,0:0:0:0:
163,242,8957,2,0,P|160:281|167:320,1,79.1999975830079,8|0,0:1|0:0,0:0:0:0:
371,234,9296,6,0,P|331:238|294:251,1,79.1999975830079,8|0,0:1|0:0,0:0:0:0:
86,224,9635,2,0,P|125:228|162:241,1,79.1999975830079,8|0,0:1|0:0,0:0:0:0:
145,23,9974,1,8,0:1:0:0:
180,141,10144,1,0,0:0:0:0:
261,51,10313,1,8,0:1:0:0:
145,23,10483,1,0,0:0:0:0:
258,167,10652,6,0,L|350:152,1,79.1999975830079,8|0,0:1|0:0,0:0:0:0:
512,54,10991,2,0,P|476:36|437:34,1,79.1999975830079,6|8,0:0|0:0,0:0:0:0:
453,120,11245,1,8,0:0:0:0:
453,120,11330,6,0,L|464:201,1,79.1999975830079,12|0,0:1|0:0,0:0:0:0:
274,264,11669,5,8,0:1:0:0:
448,303,11839,1,8,0:1:0:0:
205,84,12008,5,8,0:0:0:0:
360,327,12178,1,8,0:0:0:0:
344,50,12347,5,8,0:0:0:0:
192,275,12517,1,12,0:0:0:0:
370,183,12687,5,2,0:0:0:0:
366,191,12771,1,2,0:0:0:0:
361,199,12856,1,2,0:0:0:0:
357,208,12941,1,0,0:0:0:0:
354,218,13025,1,2,0:0:0:0:
352,228,13110,1,2,0:0:0:0:
350,237,13195,1,2,0:0:0:0:
348,246,13280,1,2,0:0:0:0:
345,255,13364,5,4,0:3:0:0:
310,221,13448,1,0,0:0:0:0:
262,213,13533,1,8,0:0:0:0:
217,233,13618,1,8,0:0:0:0:
192,275,13702,5,8,0:0:0:0:
167,315,13788,1,8,0:0:0:0:
123,336,13873,1,8,0:0:0:0:
75,328,13958,1,8,0:0:0:0:
39,294,14042,6,0,L|44:197,1,96.8000029541017,12|8,0:1|0:1,0:0:0:0:
140,28,14381,1,8,0:0:0:0:
262,213,14550,1,0,0:0:0:0:
262,213,14635,1,0,3:0:0:0:
262,213,14720,2,0,P|318:218|362:227,1,96.8000029541017,8|10,0:1|0:1,0:0:0:0:
440,325,14974,1,0,0:0:0:0:
459,328,15059,2,0,L|454:279,1,48.4000014770508,8|0,0:0|0:0,0:0:0:0:
429,165,15228,2,0,L|424:116,1,48.4000014770508,2|0,0:0|0:0,0:0:0:0:
283,98,15398,5,10,0:1:0:0:
425,117,15567,1,8,0:1:0:0:
234,22,15737,1,10,0:0:0:0:
251,249,15906,1,2,0:0:0:0:
251,249,15991,1,0,3:0:0:0:
251,249,16076,2,0,L|261:360,1,96.8000029541017,8|10,0:1|0:1,0:0:0:0:
101,117,16415,2,0,L|91:228,1,96.8000029541017,8|10,0:0|0:1,0:0:0:0:
180,165,16669,1,2,0:0:0:0:
180,165,16754,6,0,P|218:141|286:143,1,96.8000029541017,10|8,0:1|0:1,0:0:0:0:
386,321,17093,2,0,L|394:224,1,96.8000029541017,8|10,0:0|0:1,0:0:0:0:
471,42,17432,2,0,P|428:37|374:51,1,96.8000029541017,10|8,0:1|0:1,0:0:0:0:
331,129,17686,1,2,0:0:0:0:
331,129,17771,2,0,L|278:118,1,48.4000014770508,8|0,0:0|0:0,0:0:0:0:
158,50,17940,2,0,L|211:39,1,48.4000014770508,2|0,0:0|0:0,0:0:0:0:
176,233,18110,6,0,L|187:134,1,96.8000029541017,10|8,0:1|0:1,0:0:0:0:
186,136,18364,1,0,0:0:0:0:
186,136,18449,1,10,0:0:0:0:
366,291,18618,2,0,L|302:299,1,48.4000014770508,10|0,0:1|3:0,0:0:0:0:
284,214,18788,2,0,L|392:200,1,96.8000029541017,8|10,0:1|0:1,0:0:0:0:
224,47,19127,1,10,0:0:0:0:
176,42,19211,1,8,0:0:0:0:
131,60,19296,1,10,0:0:0:0:
100,97,19381,1,8,0:0:0:0:
90,143,19466,6,0,P|95:190|105:239,1,96.8000029541017,6|0,0:0|0:0,0:0:0:0:
342,23,19805,2,0,P|336:71|327:118,1,96.8000029541017,10|0,0:0|0:0,0:0:0:0:
284,214,20059,1,8,0:1:0:0:
284,214,20144,6,0,P|331:203|392:202,1,96.8000029541017,10|0,0:1|0:1,0:0:0:0:
131,60,20483,2,0,P|84:49|23:48,1,96.8000029541017,10|0,0:0|0:1,0:0:0:0:
69,148,20737,1,10,0:1:0:0:
69,148,20822,6,0,P|74:195|84:244,1,96.8000029541017,6|8,0:0|0:1,0:0:0:0:
131,321,21076,1,0,0:0:0:0:
131,321,21161,1,10,0:0:0:0:
206,142,21330,1,0,0:0:0:0:
204,158,21414,1,0,3:0:0:0:
202,175,21500,5,8,0:0:0:0:
228,215,21584,1,8,0:0:0:0:
271,235,21669,1,8,0:0:0:0:
318,230,21754,1,8,0:0:0:0:
356,201,21839,5,8,0:3:0:0:
352,153,21923,1,4,0:3:0:0:
348,105,22008,1,8,0:0:0:0:
344,57,22093,1,8,0:0:0:0:
340,9,22178,6,0,P|291:7|235:18,1,96.8000029541017,12|8,0:1|0:1,0:0:0:0:
202,175,22517,1,8,0:0:0:0:
442,240,22686,1,0,0:0:0:0:
442,240,22771,1,8,0:1:0:0:
442,239,22856,2,0,P|441:191|444:143,1,96.8000029541017,8|8,0:1|0:1,0:0:0:0:
202,175,23195,2,0,P|204:223|204:271,1,96.8000029541017,8|10,0:0|0:1,0:0:0:0:
131,81,23533,5,12,0:0:0:0:
267,119,23703,1,0,0:0:0:0:
54,102,23872,5,8,0:1:0:0:
342,87,24042,1,8,0:0:0:0:
92,265,24211,5,8,0:0:0:0:
200,10,24381,2,0,L|210:65,1,48.4000014770508,8|8,0:1|0:0,0:0:0:0:
270,291,24550,1,8,0:0:0:0:
234,290,24634,1,8,0:0:0:0:
203,271,24719,1,8,0:0:0:0:
188,239,24804,1,8,0:0:0:0:
192,204,24889,6,0,B|281:170|272:243|364:198,1,176,12|8,0:1|0:0,0:0:0:0:
433,133,25398,1,0,0:0:0:0:
448,316,25567,2,0,P|447:271|453:219,1,88,10|8,0:1|0:1,0:0:0:0:
351,88,25906,2,0,P|346:131|347:175,1,88,8|0,0:0|0:0,0:0:0:0:
234,290,26245,6,0,P|168:296|100:209,1,176,10|8,0:1|0:0,0:0:0:0:
119,131,26754,1,0,0:0:0:0:
192,204,26923,2,0,P|214:171|221:117,1,88,10|8,0:1|0:1,0:0:0:0:
92,19,27262,2,0,L|113:119,1,88,8|0,0:0|0:0,0:0:0:0:
318,116,27601,6,0,P|296:61|169:43,2,176,10|8|10,0:1|0:0|0:1,0:0:0:0:
192,204,28449,1,8,0:1:0:0:
221,123,28618,1,8,0:0:0:0:
250,268,28788,1,0,0:0:0:0:
100,218,28957,6,0,P|92:167|83:120,1,88,10|8,0:1|0:1,0:0:0:0:
250,268,29296,2,0,P|242:311|235:354,1,88,8|0,0:0|0:0,0:0:0:0:
235,354,29550,1,8,0:1:0:0:
235,354,29635,1,10,0:1:0:0:
278,188,29805,1,8,0:1:0:0:
122,315,29974,2,0,P|81:302|38:294,1,88,8|0,0:0|0:0,0:0:0:0:
250,268,30313,6,0,P|293:266|333:250,1,88,10|8,0:1|0:1,0:0:0:0:
218,123,30652,1,8,0:0:0:0:
278,188,30822,1,0,0:0:0:0:
306,106,30991,1,10,0:1:0:0:
186,204,31161,1,8,0:1:0:0:
364,172,31330,2,0,P|391:127|388:80,1,88,8|0,0:0|0:0,0:0:0:0:
509,261,31669,6,0,L|315:247,1,176,10|8,0:1|0:0,0:0:0:0:
186,204,32178,1,0,0:0:0:0:
254,355,32347,2,0,L|249:267,1,88,10|8,0:1|0:1,0:0:0:0:
101,154,32686,2,0,L|97:242,1,88,8|0,0:0|0:0,0:0:0:0:
312,49,33025,6,0,L|316:136,1,88,10|8,0:1|0:1,0:0:0:0:
249,267,33364,1,8,0:0:0:0:
173,123,33533,1,0,0:0:0:0:
316,218,33703,1,8,0:1:0:0:
183,314,33872,1,8,0:1:0:0:
244,172,34042,1,8,0:0:0:0:
322,304,34211,1,0,0:0:0:0:
171,219,34381,6,0,P|126:218|71:224,1,88,10|8,0:1|0:1,0:0:0:0:
316,136,34720,2,0,P|361:135|416:141,1,88,8|0,0:0|0:0,0:0:0:0:
165,88,35059,2,0,L|167:139,1,44,6|0,0:0|0:0,0:0:0:0:
183,314,35228,5,8,0:0:0:0:
219,338,35312,1,8,0:0:0:0:
262,339,35397,1,8,0:1:0:0:
299,316,35482,1,8,0:0:0:0:
335,294,35567,1,8,0:0:0:0:
378,294,35652,1,8,0:0:0:0:
414,318,35737,6,0,L|421:229,1,88,12|8,0:1|0:1,0:0:0:0:
309,48,36076,2,0,L|315:135,1,88,8|0,0:0|0:0,0:0:0:0:
