osu file format v14

[General]
AudioFilename: audio.mp3
AudioLeadIn: 0
PreviewTime: -1
Countdown: 0
SampleSet: None
StackLeniency: 0.7
Mode: 0
LetterboxInBreaks: 0
WidescreenStoryboard: 1

[Editor]
Bookmarks: 22752
DistanceSpacing: 0.3
BeatDivisor: 4
GridSize: 8
TimelineZoom: 2.2

[Metadata]
Title:The Girls Are Alright! ~TV size~
TitleUnicode:(TVアニメ「宇宙よりも遠い場所」OPテーマ
Artist:Saya
ArtistUnicode:Saya
Creator:Timpai
Version:adsf
Source:
Tags:
BeatmapID:1894275
BeatmapSetID:800168

[Difficulty]
HPDrainRate:8
CircleSize:3.8
OverallDifficulty:7.8
ApproachRate:8.5
SliderMultiplier:2
SliderTickRate:1

[Events]
//Background and Video events
0,0,"sora-yori-mo-tooi-basho-ep-13-1.png",0,0
//Break Periods
//Storyboard Layer 0 (Background)
//Storyboard Layer 1 (Fail)
//Storyboard Layer 2 (Pass)
//Storyboard Layer 3 (Foreground)
//Storyboard Sound Samples

[TimingPoints]
74,357.142857142857,4,2,0,50,1,0
80073,-66.6666666666667,4,2,0,50,0,0
84359,-28.5714285714286,4,2,0,50,0,0
85073,-25,4,2,0,50,0,0

[HitObjects]
168,67,22752,5,0,0:0:0:0:
302,120,22931,1,0,0:0:0:0:
182,245,23109,1,0,0:0:0:0:
188,91,23288,5,0,0:0:0:0:
308,281,23466,1,0,0:0:0:0:
410,126,23645,1,0,0:0:0:0:
405,101,23734,1,0,0:0:0:0:
400,76,23823,1,0,0:0:0:0:
111,166,24002,1,0,0:0:0:0:
437,221,24181,1,0,0:0:0:0:
437,221,24270,1,0,0:0:0:0:
437,221,24359,2,0,P|389:254|356:314,1,100
160,341,24716,1,0,0:0:0:0:
29,207,24895,2,0,P|5:274|17:330,1,100
179,250,25252,5,0,0:0:0:0:
144,125,25431,1,0,0:0:0:0:
89,270,25609,2,0,P|154:271|187:233,1,100
269,115,25966,5,0,0:0:0:0:
297,237,26145,1,0,0:0:0:0:
378,84,26323,1,0,0:0:0:0:
317,217,26502,5,0,0:0:0:0:
486,219,26681,1,0,0:0:0:0:
399,169,26859,1,0,0:0:0:0:
411,293,27038,1,0,0:0:0:0:
476,127,27216,6,0,P|441:92|357:93,1,100
240,183,27573,2,0,P|186:207|138:192,1,100
54,104,27841,1,0,0:0:0:0:
66,74,27931,2,0,P|126:58|168:85,1,100
343,28,28288,2,0,L|323:154,1,100
355,273,28556,1,0,0:0:0:0:
391,277,28645,1,0,0:0:0:0:
205,356,28823,1,0,0:0:0:0:
384,368,29002,5,0,0:0:0:0:
205,250,29181,1,0,0:0:0:0:
454,215,29359,2,0,P|479:286|460:331,1,100
181,244,29716,2,0,L|212:135,1,100
293,73,29984,1,0,0:0:0:0:
281,48,30073,1,0,0:0:0:0:
106,166,30252,1,0,0:0:0:0:
323,181,30431,5,0,0:0:0:0:
133,60,30609,1,0,0:0:0:0:
394,81,30788,5,0,0:0:0:0:
211,137,30966,1,0,0:0:0:0:
436,182,31145,1,0,0:0:0:0:
372,32,31323,1,0,0:0:0:0:
275,214,31502,2,0,P|281:270|337:329,1,100
107,360,31859,2,0,P|129:312|186:321,1,100
91,153,32216,2,0,P|37:170|-6:129,1,100
310,41,32573,5,0,0:0:0:0:
85,47,32752,1,0,0:0:0:0:
321,153,32931,5,0,0:0:0:0:
168,15,33109,1,0,0:0:0:0:
287,156,33288,1,0,0:0:0:0:
118,225,33466,2,0,P|147:286|210:303,1,100
148,131,33823,1,0,0:0:0:0:
235,371,34002,2,0,P|177:386|100:359,1,100
51,99,34359,5,0,0:0:0:0:
284,189,34538,1,0,0:0:0:0:
24,333,34716,2,0,P|25:297|47:264,1,50
213,94,34895,1,0,0:0:0:0:
221,126,34984,1,0,0:0:0:0:
229,158,35073,1,0,0:0:0:0:
501,244,35252,5,0,0:0:0:0:
471,204,35341,1,0,0:0:0:0:
428,179,35430,1,0,0:0:0:0:
378,174,35519,1,0,0:0:0:0:
331,190,35609,1,0,0:0:0:0:
295,223,35698,1,0,0:0:0:0:
275,269,35788,2,0,P|234:317|145:274,1,150
165,252,36145,5,0,0:0:0:0:
30,181,36323,1,0,0:0:0:0:
189,75,36502,5,0,0:0:0:0:
9,192,36681,1,0,0:0:0:0:
300,207,36859,2,0,P|279:142|332:78,1,150
362,152,37216,2,0,P|380:215|356:264,1,100
138,291,37573,5,0,0:0:0:0:
281,328,37752,1,0,0:0:0:0:
218,227,37931,5,0,0:0:0:0:
39,239,38109,1,0,0:0:0:0:
17,367,38288,5,0,0:0:0:0:
138,291,38466,1,0,0:0:0:0:
102,106,38645,2,0,P|56:170|46:230,1,100
336,86,39002,2,0,P|274:120|306:168,1,100
489,251,39359,2,0,P|472:245|482:298,1,100
280,345,39716,2,0,P|250:340|283:352,1,100
145,192,40073,5,0,0:0:0:0:
331,239,40252,1,0,0:0:0:0:
157,300,40431,1,0,0:0:0:0:
247,132,40610,1,0,0:0:0:0:
58,91,40788,1,0,0:0:0:0:
217,39,40967,1,0,0:0:0:0:
45,229,41146,5,0,0:0:0:0:
45,229,41234,2,0,P|83:212|95:189,1,50
320,56,41413,5,0,0:0:0:0:
320,56,41502,1,0,0:0:0:0:
268,209,41681,1,0,0:0:0:0:
448,158,41859,1,0,0:0:0:0:
246,119,42038,1,0,0:0:0:0:
159,279,42216,5,0,0:0:0:0:
330,306,42395,1,0,0:0:0:0:
165,184,42573,1,0,0:0:0:0:
253,362,42752,5,0,0:0:0:0:
253,362,42841,1,0,0:0:0:0:
253,362,42931,1,0,0:0:0:0:
73,174,43109,1,0,0:0:0:0:
39,347,43288,1,0,0:0:0:0:
149,100,43466,1,0,0:0:0:0:
171,331,43645,1,0,0:0:0:0:
57,63,43823,1,0,0:0:0:0:
97,270,44002,1,0,0:0:0:0:
279,68,44181,1,0,0:0:0:0:
395,306,44359,6,0,P|393:233|443:176,1,150
476,260,44716,2,0,P|405:257|323:199,1,150
279,119,45073,2,0,P|198:140|173:224,1,150
198,348,45431,2,0,P|105:344|25:251,1,200
63,86,45966,1,0,0:0:0:0:
166,223,46145,5,0,0:0:0:0:
187,61,46323,1,0,0:0:0:0:
187,61,46413,1,0,0:0:0:0:
187,61,46502,1,0,0:0:0:0:
292,309,46681,5,0,0:0:0:0:
406,35,46859,1,0,0:0:0:0:
452,358,47038,1,0,0:0:0:0:
187,61,47216,2,0,P|258:96|296:58,1,100
359,128,47573,5,0,0:0:0:0:
350,167,47663,1,0,0:0:0:0:
318,191,47752,1,0,0:0:0:0:
278,188,47841,1,0,0:0:0:0:
250,158,47931,5,0,0:0:0:0:
212,144,48020,1,0,0:0:0:0:
173,153,48109,1,0,0:0:0:0:
150,185,48198,1,0,0:0:0:0:
148,225,48288,5,0,0:0:0:0:
171,256,48377,1,0,0:0:0:0:
210,264,48466,1,0,0:0:0:0:
249,254,48556,1,0,0:0:0:0:
269,220,48645,5,0,0:0:0:0:
37,328,48823,1,0,0:0:0:0:
108,28,49002,1,0,0:0:0:0:
406,114,49359,5,0,0:0:0:0:
406,114,49448,1,0,0:0:0:0:
406,114,49538,1,0,0:0:0:0:
406,114,49627,1,0,0:0:0:0:
406,114,49716,5,0,0:0:0:0:
405,163,49805,1,0,0:0:0:0:
378,204,49894,1,0,0:0:0:0:
333,224,49983,1,0,0:0:0:0:
285,216,50073,2,0,P|217:207|173:289,1,150
153,277,50431,2,0,P|180:211|225:183,1,100
460,316,50788,5,0,0:0:0:0:
256,341,50966,1,0,0:0:0:0:
474,186,51145,2,0,P|412:157|336:171,1,100
142,135,51502,2,0,P|206:130|203:37,1,150
233,28,51859,2,0,P|250:91|230:130,1,100
34,221,52216,5,0,0:0:0:0:
284,238,52395,1,0,0:0:0:0:
107,333,52573,1,0,0:0:0:0:
157,138,52752,1,0,0:0:0:0:
157,138,52841,1,0,0:0:0:0:
157,138,52931,1,0,0:0:0:0:
265,352,53109,5,0,0:0:0:0:
264,79,53288,1,0,0:0:0:0:
178,235,53466,1,0,0:0:0:0:
416,141,53645,5,0,0:0:0:0:
273,176,53823,1,0,0:0:0:0:
494,271,54002,5,0,0:0:0:0:
351,234,54181,1,0,0:0:0:0:
498,116,54359,2,0,P|424:131|372:194,1,150
346,196,54716,2,0,P|373:148|415:115,1,100
314,28,55073,5,0,0:0:0:0:
160,98,55252,1,0,0:0:0:0:
152,251,55431,2,0,P|227:251|250:164,1,150
247,174,55788,2,0,P|233:225|236:287,1,100
432,318,56145,2,0,P|424:239|361:184,1,150
350,188,56502,1,0,0:0:0:0:
493,85,56681,1,0,0:0:0:0:
307,84,56859,6,0,P|240:82|177:29,1,150
151,33,57216,2,0,P|192:78|238:101,1,100
406,41,57573,1,0,0:0:0:0:
205,212,57752,1,0,0:0:0:0:
355,179,57931,5,0,0:0:0:0:
131,112,58109,1,0,0:0:0:0:
298,105,58288,1,0,0:0:0:0:
87,219,58466,1,0,0:0:0:0:
347,328,58645,5,0,0:0:0:0:
249,204,58823,1,0,0:0:0:0:
154,337,59002,1,0,0:0:0:0:
275,289,59181,1,0,0:0:0:0:
87,219,59359,5,0,0:0:0:0:
281,198,59538,1,0,0:0:0:0:
76,118,59716,1,0,0:0:0:0:
327,87,59895,1,0,0:0:0:0:
141,38,60073,5,0,0:0:0:0:
190,186,60252,1,0,0:0:0:0:
268,23,60431,1,0,0:0:0:0:
76,118,60609,1,0,0:0:0:0:
454,166,60788,5,0,0:0:0:0:
454,166,60877,1,0,0:0:0:0:
454,166,60966,1,0,0:0:0:0:
482,296,61145,1,0,0:0:0:0:
432,299,61234,1,0,0:0:0:0:
388,277,61323,1,0,0:0:0:0:
361,235,61412,1,0,0:0:0:0:
358,186,61502,6,0,P|329:135|223:180,1,150
207,233,61859,2,0,P|162:217|124:256,1,100
28,342,62216,1,0,0:0:0:0:
221,340,62395,1,0,0:0:0:0:
100,49,62573,2,0,P|62:116|95:174,1,150
196,167,62931,6,0,P|249:162|265:109,1,100
420,43,63288,2,0,L|440:189,1,100
344,244,63556,1,0,0:0:0:0:
370,278,63645,1,0,0:0:0:0:
167,309,63823,5,0,0:0:0:0:
452,354,64002,1,0,0:0:0:0:
272,183,64181,1,0,0:0:0:0:
264,338,64359,5,0,0:0:0:0:
384,96,64538,1,0,0:0:0:0:
370,278,64716,5,0,0:0:0:0:
268,39,64895,1,0,0:0:0:0:
142,245,65073,1,0,0:0:0:0:
161,47,65252,1,0,0:0:0:0:
23,315,65430,1,0,0:0:0:0:
59,111,65609,1,0,0:0:0:0:
237,181,65787,5,0,0:0:0:0:
14,218,65966,1,0,0:0:0:0:
294,279,66145,1,0,0:0:0:0:
117,183,66323,1,0,0:0:0:0:
382,177,66502,1,0,0:0:0:0:
197,335,66681,1,0,0:0:0:0:
424,346,66859,1,0,0:0:0:0:
303,115,67038,1,0,0:0:0:0:
303,115,67127,1,0,0:0:0:0:
303,115,67216,5,0,0:0:0:0:
174,224,67395,1,0,0:0:0:0:
407,101,67573,2,0,P|392:167|345:209,1,100
54,156,67931,2,0,P|128:135|169:197,1,150
54,156,68288,2,0,P|35:104|52:52,1,100
260,69,68645,1,0,0:0:0:0:
90,231,68823,1,0,0:0:0:0:
352,191,69002,6,0,P|350:267|271:292,1,150
352,191,69359,2,0,P|411:189|428:242,1,100
192,361,69716,2,0,P|190:291|229:245,1,100
220,144,69984,1,0,0:0:0:0:
184,117,70073,5,0,0:0:0:0:
401,84,70252,1,0,0:0:0:0:
218,38,70431,1,0,0:0:0:0:
470,19,70609,1,0,0:0:0:0:
201,242,70788,5,0,0:0:0:0:
315,24,70966,1,0,0:0:0:0:
106,145,71145,1,0,0:0:0:0:
326,143,71323,6,0,P|317:233|346:265,1,100
457,300,71681,5,0,0:0:0:0:
228,319,71859,2,0,P|204:307|129:338,1,100
20,314,72127,5,0,0:0:0:0:
2,307,72216,2,0,P|4:272|31:255,1,50
113,131,72395,2,0,P|115:166|142:183,1,50
287,217,72573,5,0,0:0:0:0:
329,212,72663,1,0,0:0:0:0:
369,188,72752,2,0,P|375:162|361:117,1,50
305,31,72931,5,0,0:0:0:0:
219,114,73109,1,0,0:0:0:0:
466,95,73288,6,0,P|439:94|372:171,1,100
499,224,73556,1,0,0:0:0:0:
498,245,73645,2,0,P|474:263|440:253,1,50
320,212,73823,1,0,0:0:0:0:
158,293,74002,5,0,0:0:0:0:
207,169,74181,1,0,0:0:0:0:
0,370,74359,6,0,P|29:316|23:233,1,100
116,43,74716,2,0,P|75:89|121:81,1,150
218,42,75073,2,0,P|275:34|350:69,1,100
396,133,75341,1,0,0:0:0:0:
433,108,75431,5,0,0:0:0:0:
247,199,75609,1,0,0:0:0:0:
455,267,75788,5,0,0:0:0:0:
272,202,75966,1,0,0:0:0:0:
214,363,76145,5,0,0:0:0:0:
178,262,76323,1,0,0:0:0:0:
108,364,76502,1,0,0:0:0:0:
116,278,76681,1,0,0:0:0:0:
24,324,76859,5,0,0:0:0:0:
74,279,77038,1,0,0:0:0:0:
46,265,77216,5,0,0:0:0:0:
188,165,77395,1,0,0:0:0:0:
226,343,77573,2,0,P|237:277|302:200,1,150
334,219,77931,2,0,P|363:161|287:133,1,150
277,103,78288,2,0,P|369:120|385:173,1,150
422,305,78645,6,0,P|453:256|501:249,1,100
226,335,79002,2,0,P|291:347|340:329,1,100
22,238,79359,2,0,P|79:247|112:294,1,100
40,28,79716,2,0,P|23:100|43:128,1,100
191,61,80073,6,0,P|265:69|332:38,1,150.000005722046
401,201,80341,2,0,P|357:260|351:334,1,150.000005722046
131,256,80609,2,0,P|114:223|84:203,1,75.0000028610231
256,192,80788,5,0,0:0:0:0:
121,83,81502,5,0,0:0:0:0:
219,67,81621,1,0,0:0:0:0:
317,51,81740,1,0,0:0:0:0:
415,35,81859,1,0,0:0:0:0:
379,330,82216,1,0,0:0:0:0:
266,330,82335,1,0,0:0:0:0:
153,330,82454,1,0,0:0:0:0:
40,330,82573,1,0,0:0:0:0:
126,24,82931,5,0,0:0:0:0:
219,67,83050,1,0,0:0:0:0:
312,110,83169,1,0,0:0:0:0:
405,153,83288,5,0,0:0:0:0:
321,212,83407,1,0,0:0:0:0:
237,271,83526,1,0,0:0:0:0:
153,330,83645,5,0,0:0:0:0:
143,227,83764,1,0,0:0:0:0:
134,125,83883,1,0,0:0:0:0:
125,23,84002,5,0,0:0:0:0:
493,235,84359,2,0,P|450:127|356:62,3,233.333335558573
85,329,85073,2,0,P|161:161|275:84,3,266.666666666667
505,372,85788,5,0,0:0:0:0:
452,227,85907,1,0,0:0:0:0:
363,100,86026,1,0,0:0:0:0:
244,0,86145,5,0,0:0:0:0:
217,153,86264,1,0,0:0:0:0:
139,299,86383,1,0,0:0:0:0:
0,384,86502,5,0,0:0:0:0:
73,209,86621,1,0,0:0:0:0:
306,196,86740,1,0,0:0:0:0:
424,384,86859,5,0,0:0:0:0:
