osu file format v14

[General]
AudioFilename: Toono gensou monogatari Mayohiga Spurt .mp3
AudioLeadIn: 0
PreviewTime: 47683
Countdown: 0
SampleSet: Normal
StackLeniency: 0.7
Mode: 1
LetterboxInBreaks: 0
WidescreenStoryboard: 1

[Editor]
DistanceSpacing: 1.2
BeatDivisor: 4
GridSize: 4
TimelineZoom: 1

[Metadata]
Title:Toono gensou monogatari ~Mayohiga Spurt~
TitleUnicode:遠野幻想物語 ~ Mayohiga Spurt ~
Artist:Sawawa
ArtistUnicode:さわわ
Creator:[Izayoi Sakura]
Version:Muzukashii
Source:東方Project
Tags:Touhou,Arctic
BeatmapID:649581
BeatmapSetID:287870

[Difficulty]
HPDrainRate:4
CircleSize:4
OverallDifficulty:5
ApproachRate:6
SliderMultiplier:1.4
SliderTickRate:2

[Events]
//Background and Video events
0,0,"psb.jpg",0,0
//Break Periods
//Storyboard Layer 0 (Background)
//Storyboard Layer 1 (Fail)
//Storyboard Layer 2 (Pass)
//Storyboard Layer 3 (Foreground)
//Storyboard Sound Samples

[TimingPoints]
315,315.789473684211,4,1,0,100,1,0
47683,-100,4,1,0,100,0,1
65999,-100,4,1,0,100,0,0
68525,-100,4,1,0,100,0,1
88420,-100,4,1,0,70,0,0

[Colours]
Combo1 : 255,192,0
Combo2 : 0,202,0
Combo3 : 18,124,255
Combo4 : 242,24,57

[HitObjects]
256,192,2841,5,0,0:0:0:0:
256,192,3157,1,8,0:0:0:0:
256,192,3472,1,0,0:0:0:0:
256,192,3630,1,0,0:0:0:0:
256,192,3788,1,8,0:0:0:0:
256,192,4104,1,8,0:0:0:0:
256,192,4578,1,8,0:0:0:0:
256,192,5051,1,4,0:0:0:0:
256,192,5367,1,4,0:0:0:0:
256,192,5683,1,8,0:0:0:0:
256,192,5841,1,0,0:0:0:0:
256,192,6157,1,0,0:0:0:0:
256,192,6315,1,8,0:0:0:0:
256,192,6630,1,4,0:0:0:0:
256,192,7104,1,4,0:0:0:0:
256,192,7578,1,4,0:0:0:0:
256,192,7893,1,4,0:0:0:0:
256,192,8367,1,8,0:0:0:0:
256,192,8525,1,8,0:0:0:0:
256,192,8683,1,0,0:0:0:0:
256,192,8841,1,0,0:0:0:0:
256,192,9157,1,12,0:0:0:0:
256,192,9315,1,8,0:0:0:0:
256,192,9472,1,0,0:0:0:0:
256,192,9788,1,8,0:0:0:0:
256,192,9946,1,8,0:0:0:0:
256,192,10104,1,8,0:0:0:0:
256,192,10420,1,0,0:0:0:0:
256,192,10736,1,8,0:0:0:0:
256,192,11051,1,0,0:0:0:0:
256,192,11367,1,8,0:0:0:0:
256,192,11683,1,0,0:0:0:0:
256,192,12157,1,0,0:0:0:0:
256,192,12630,1,12,0:0:0:0:
256,192,12946,1,4,0:0:0:0:
256,192,13420,1,0,0:0:0:0:
256,192,13893,1,8,0:0:0:0:
256,192,14209,1,4,0:0:0:0:
256,192,14683,1,4,0:0:0:0:
256,192,15157,1,8,0:0:0:0:
256,192,15472,1,0,0:0:0:0:
256,192,15709,1,0,0:0:0:0:
256,192,15946,1,8,0:0:0:0:
256,192,16104,1,0,0:0:0:0:
256,192,16341,1,0,0:0:0:0:
256,192,16578,1,8,0:0:0:0:
256,192,16736,1,0,0:0:0:0:
256,192,17051,1,0,0:0:0:0:
256,192,17367,1,8,0:0:0:0:
256,192,17999,1,0,0:0:0:0:
256,192,18315,1,8,0:0:0:0:
256,192,18630,1,0,0:0:0:0:
256,192,18788,1,0,0:0:0:0:
256,192,18946,1,8,0:0:0:0:
256,192,19262,1,0,0:0:0:0:
256,192,19578,1,8,0:0:0:0:
256,192,19736,1,0,0:0:0:0:
256,192,20051,1,0,0:0:0:0:
256,192,20209,1,8,0:0:0:0:
256,192,20367,1,0,0:0:0:0:
256,192,20683,1,0,0:0:0:0:
256,192,20841,1,8,0:0:0:0:
256,192,20999,1,0,0:0:0:0:
256,192,21157,1,0,0:0:0:0:
256,192,21472,1,8,0:0:0:0:
256,192,21788,1,0,0:0:0:0:
256,192,21946,1,0,0:0:0:0:
256,192,22104,1,8,0:0:0:0:
256,192,22262,1,0,0:0:0:0:
256,192,22578,1,0,0:0:0:0:
256,192,22736,1,8,0:0:0:0:
256,192,22893,1,8,0:0:0:0:
256,192,23051,1,0,0:0:0:0:
256,192,23367,1,8,0:0:0:0:
256,192,23683,1,0,0:0:0:0:
256,192,23999,1,8,0:0:0:0:
256,192,24315,1,0,0:0:0:0:
256,192,24472,1,0,0:0:0:0:
256,192,24630,1,8,0:0:0:0:
256,192,24788,1,0,0:0:0:0:
256,192,24946,1,8,0:0:0:0:
256,192,25262,1,8,0:0:0:0:
256,192,25420,1,0,0:0:0:0:
256,192,25578,1,0,0:0:0:0:
256,192,25736,1,8,0:0:0:0:
256,192,25893,1,8,0:0:0:0:
256,192,26209,1,0,0:0:0:0:
256,192,26367,1,0,0:0:0:0:
256,192,26525,1,8,0:0:0:0:
256,192,26683,1,0,0:0:0:0:
256,192,26999,1,8,0:0:0:0:
256,192,27157,1,8,0:0:0:0:
256,192,27472,1,0,0:0:0:0:
256,192,27630,1,0,0:0:0:0:
256,192,27788,1,8,0:0:0:0:
256,192,27946,1,0,0:0:0:0:
256,192,28104,1,0,0:0:0:0:
256,192,28420,1,8,0:0:0:0:
256,192,28736,1,0,0:0:0:0:
256,192,29051,1,8,0:0:0:0:
256,192,29367,1,0,0:0:0:0:
256,192,29683,1,8,0:0:0:0:
256,192,29999,1,0,0:0:0:0:
256,192,30315,1,8,0:0:0:0:
256,192,30630,1,0,0:0:0:0:
256,192,30946,1,8,0:0:0:0:
256,192,31104,1,0,0:0:0:0:
256,192,31262,1,0,0:0:0:0:
256,192,31578,1,8,0:0:0:0:
256,192,31736,1,0,0:0:0:0:
256,192,32051,1,0,0:0:0:0:
256,192,32209,1,8,0:0:0:0:
256,192,32525,1,0,0:0:0:0:
256,192,32841,1,8,0:0:0:0:
256,192,33157,1,8,0:0:0:0:
256,192,33630,1,0,0:0:0:0:
256,192,33788,1,8,0:0:0:0:
256,192,34262,1,0,0:0:0:0:
256,192,34420,1,8,0:0:0:0:
256,192,34736,1,8,0:0:0:0:
256,192,35051,1,8,0:0:0:0:
256,192,35367,1,8,0:0:0:0:
256,192,35683,1,0,0:0:0:0:
256,192,35999,1,0,0:0:0:0:
256,192,36157,1,8,0:0:0:0:
256,192,36315,1,8,0:0:0:0:
256,192,36630,1,0,0:0:0:0:
256,192,36788,1,8,0:0:0:0:
256,192,36946,1,0,0:0:0:0:
256,192,37262,1,4,0:0:0:0:
256,192,37578,1,4,0:0:0:0:
256,192,37893,1,8,0:0:0:0:
256,192,38209,1,0,0:0:0:0:
256,192,38683,1,0,0:0:0:0:
256,192,38841,1,8,0:0:0:0:
256,192,39315,1,8,0:0:0:0:
256,192,39472,1,0,0:0:0:0:
256,192,39788,1,8,0:0:0:0:
256,192,40104,1,0,0:0:0:0:
256,192,40420,1,8,0:0:0:0:
256,192,40736,1,0,0:0:0:0:
256,192,41051,1,8,0:0:0:0:
256,192,41209,1,0,0:0:0:0:
256,192,41367,1,8,0:0:0:0:
256,192,41683,1,8,0:0:0:0:
256,192,41841,1,0,0:0:0:0:
256,192,42315,1,8,0:0:0:0:
256,192,42630,1,0,0:0:0:0:
256,192,42946,1,8,0:0:0:0:
256,192,43262,1,0,0:0:0:0:
256,192,43578,1,0,0:0:0:0:
256,192,43736,1,8,0:0:0:0:
256,192,44209,1,0,0:0:0:0:
256,192,44367,1,8,0:0:0:0:
256,192,44841,1,8,0:0:0:0:
256,192,45157,1,0,0:0:0:0:
256,192,45472,1,8,0:0:0:0:
256,192,45788,1,0,0:0:0:0:
256,192,46104,1,8,0:0:0:0:
256,192,46262,1,0,0:0:0:0:
256,192,46420,1,8,0:0:0:0:
256,192,46657,1,0,0:0:0:0:
256,192,46893,1,0,0:0:0:0:
256,192,47051,1,8,0:0:0:0:
256,192,47683,1,8,0:0:0:0:
256,192,47999,1,0,0:0:0:0:
256,192,48315,1,8,0:0:0:0:
256,192,48472,1,8,0:0:0:0:
256,192,48630,1,0,0:0:0:0:
256,192,48946,1,0,0:0:0:0:
256,192,49104,1,0,0:0:0:0:
256,192,49262,1,8,0:0:0:0:
256,192,49578,1,0,0:0:0:0:
256,192,49736,1,8,0:0:0:0:
256,192,49893,1,8,0:0:0:0:
256,192,50051,1,0,0:0:0:0:
256,192,50130,1,0,0:0:0:0:
256,192,50209,1,0,0:0:0:0:
256,192,50525,1,8,0:0:0:0:
256,192,50683,1,0,0:0:0:0:
256,192,50841,1,8,0:0:0:0:
256,192,50999,1,0,0:0:0:0:
256,192,51157,1,8,0:0:0:0:
256,192,51315,1,8,0:0:0:0:
256,192,51472,1,0,0:0:0:0:
256,192,51630,1,0,0:0:0:0:
256,192,51788,1,8,0:0:0:0:
256,192,52104,1,0,0:0:0:0:
256,192,52262,1,8,0:0:0:0:
256,192,52420,1,0,0:0:0:0:
256,192,52578,1,8,0:0:0:0:
256,192,52736,1,0,0:0:0:0:
256,192,53051,1,8,0:0:0:0:
256,192,53367,1,0,0:0:0:0:
256,192,53525,1,8,0:0:0:0:
256,192,53683,1,0,0:0:0:0:
256,192,53841,1,8,0:0:0:0:
256,192,53999,1,8,0:0:0:0:
256,192,54315,1,0,0:0:0:0:
256,192,54472,1,8,0:0:0:0:
256,192,54630,1,0,0:0:0:0:
256,192,54788,1,8,0:0:0:0:
256,192,54946,1,8,0:0:0:0:
256,192,55262,1,8,0:0:0:0:
256,192,55420,1,0,0:0:0:0:
256,192,55578,1,0,0:0:0:0:
256,192,55736,1,0,0:0:0:0:
256,192,55893,1,8,0:0:0:0:
256,192,56367,1,0,0:0:0:0:
256,192,56525,1,8,0:0:0:0:
256,192,56683,1,0,0:0:0:0:
256,192,56841,1,0,0:0:0:0:
256,192,56999,1,0,0:0:0:0:
256,192,57157,1,8,0:0:0:0:
256,192,57472,1,8,0:0:0:0:
256,192,57788,1,0,0:0:0:0:
256,192,58104,1,8,0:0:0:0:
256,192,58420,1,0,0:0:0:0:
256,192,58578,1,0,0:0:0:0:
256,192,58736,1,8,0:0:0:0:
256,192,58893,1,0,0:0:0:0:
256,192,59051,1,8,0:0:0:0:
256,192,59209,1,8,0:0:0:0:
256,192,59367,1,8,0:0:0:0:
256,192,59683,1,0,0:0:0:0:
256,192,59841,1,8,0:0:0:0:
256,192,59999,1,8,0:0:0:0:
256,192,60157,1,8,0:0:0:0:
256,192,60315,1,0,0:0:0:0:
256,192,60472,1,0,0:0:0:0:
256,192,60630,1,8,0:0:0:0:
256,192,60946,1,0,0:0:0:0:
256,192,61104,1,0,0:0:0:0:
256,192,61262,1,8,0:0:0:0:
256,192,61420,1,0,0:0:0:0:
256,192,61578,1,8,0:0:0:0:
256,192,61893,1,0,0:0:0:0:
256,192,62051,1,8,0:0:0:0:
256,192,62209,1,8,0:0:0:0:
256,192,62367,1,0,0:0:0:0:
256,192,62525,1,0,0:0:0:0:
256,192,62683,1,8,0:0:0:0:
256,192,62841,1,0,0:0:0:0:
256,192,63157,1,8,0:0:0:0:
256,192,63472,1,0,0:0:0:0:
256,192,63630,1,8,0:0:0:0:
256,192,63788,1,8,0:0:0:0:
256,192,63946,1,8,0:0:0:0:
256,192,64104,1,0,0:0:0:0:
256,192,64420,1,8,0:0:0:0:
256,192,64736,1,0,0:0:0:0:
256,192,64893,1,8,0:0:0:0:
256,192,65051,1,0,0:0:0:0:
256,192,65209,1,0,0:0:0:0:
256,192,65367,1,8,0:0:0:0:
256,192,65525,1,0,0:0:0:0:
256,192,65683,1,0,0:0:0:0:
256,192,65999,1,8,0:0:0:0:
256,192,66157,1,0,0:0:0:0:
256,192,66315,1,0,0:0:0:0:
256,192,66630,1,8,0:0:0:0:
256,192,66788,1,0,0:0:0:0:
256,192,66946,1,0,0:0:0:0:
256,192,67104,1,0,0:0:0:0:
256,192,67262,1,0,0:0:0:0:
256,192,67578,1,8,0:0:0:0:
256,192,67893,1,8,0:0:0:0:
256,192,68051,1,8,0:0:0:0:
256,192,68209,1,8,0:0:0:0:
256,192,68525,1,0,0:0:0:0:
256,192,68683,1,0,0:0:0:0:
256,192,68841,1,8,0:0:0:0:
256,192,68999,1,0,0:0:0:0:
256,192,69157,1,0,0:0:0:0:
256,192,69315,1,8,0:0:0:0:
256,192,69472,1,8,0:0:0:0:
256,192,69788,1,0,0:0:0:0:
256,192,69946,1,8,0:0:0:0:
256,192,70104,1,8,0:0:0:0:
256,192,70262,1,8,0:0:0:0:
256,192,70420,1,0,0:0:0:0:
256,192,70736,1,8,0:0:0:0:
256,192,70893,1,8,0:0:0:0:
256,192,71209,1,8,0:0:0:0:
256,192,71367,1,8,0:0:0:0:
256,192,71525,1,0,0:0:0:0:
256,192,71683,1,8,0:0:0:0:
256,192,71999,1,8,0:0:0:0:
256,192,72157,1,0,0:0:0:0:
256,192,72315,1,8,0:0:0:0:
256,192,72472,1,0,0:0:0:0:
256,192,72630,1,8,0:0:0:0:
256,192,72788,1,0,0:0:0:0:
256,192,72946,1,0,0:0:0:0:
256,192,73262,1,8,0:0:0:0:
256,192,73420,1,8,0:0:0:0:
256,192,73578,1,0,0:0:0:0:
256,192,73736,1,0,0:0:0:0:
256,192,73893,1,8,0:0:0:0:
256,192,74051,1,8,0:0:0:0:
256,192,74209,1,0,0:0:0:0:
256,192,74525,1,8,0:0:0:0:
256,192,74841,1,0,0:0:0:0:
256,192,74999,1,8,0:0:0:0:
256,192,75078,1,8,0:0:0:0:
256,192,75157,1,8,0:0:0:0:
256,192,75315,1,0,0:0:0:0:
256,192,75472,1,8,0:0:0:0:
256,192,75788,1,8,0:0:0:0:
256,192,75946,1,0,0:0:0:0:
256,192,76104,1,0,0:0:0:0:
256,192,76578,1,0,0:0:0:0:
256,192,76736,1,8,0:0:0:0:
256,192,76893,1,0,0:0:0:0:
256,192,77051,1,0,0:0:0:0:
256,192,77209,1,0,0:0:0:0:
256,192,77367,1,8,0:0:0:0:
256,192,77683,1,8,0:0:0:0:
256,192,77999,1,8,0:0:0:0:
256,192,78315,1,8,0:0:0:0:
256,192,78630,1,0,0:0:0:0:
256,192,78788,1,0,0:0:0:0:
256,192,78946,1,8,0:0:0:0:
256,192,79262,1,8,0:0:0:0:
256,192,79420,1,8,0:0:0:0:
256,192,79578,1,8,0:0:0:0:
256,192,79893,1,0,0:0:0:0:
256,192,80051,1,0,0:0:0:0:
256,192,80209,1,8,0:0:0:0:
256,192,80525,1,8,0:0:0:0:
256,192,80683,1,0,0:0:0:0:
256,192,80841,1,8,0:0:0:0:
256,192,81157,1,0,0:0:0:0:
256,192,81315,1,0,0:0:0:0:
256,192,81472,1,8,0:0:0:0:
256,192,81630,1,0,0:0:0:0:
256,192,81788,1,8,0:0:0:0:
256,192,82104,1,0,0:0:0:0:
256,192,82262,1,0,0:0:0:0:
256,192,82420,1,8,0:0:0:0:
256,192,82578,1,0,0:0:0:0:
256,192,82736,1,8,0:0:0:0:
256,192,82893,1,0,0:0:0:0:
256,192,83051,1,0,0:0:0:0:
256,192,83367,1,8,0:0:0:0:
256,192,83683,1,0,0:0:0:0:
256,192,83841,1,0,0:0:0:0:
256,192,83999,1,8,0:0:0:0:
256,192,84157,1,0,0:0:0:0:
256,192,84315,1,0,0:0:0:0:
256,192,84630,1,8,0:0:0:0:
256,192,84788,1,0,0:0:0:0:
256,192,84946,1,0,0:0:0:0:
256,192,85262,1,8,0:0:0:0:
256,192,85420,1,0,0:0:0:0:
256,192,85578,1,8,0:0:0:0:
256,192,85736,1,0,0:0:0:0:
256,192,85815,1,0,0:0:0:0:
256,192,85893,1,0,0:0:0:0:
256,192,86051,1,0,0:0:0:0:
256,192,86209,1,8,0:0:0:0:
256,192,86525,1,8,0:0:0:0:
256,192,86683,1,0,0:0:0:0:
256,192,86841,1,0,0:0:0:0:
256,192,86999,1,8,0:0:0:0:
256,192,87157,1,0,0:0:0:0:
256,192,87315,1,0,0:0:0:0:
256,192,87472,1,8,0:0:0:0:
256,192,87788,1,8,0:0:0:0:
256,192,88104,1,0,0:0:0:0:
256,192,88262,1,8,0:0:0:0:
256,192,88341,1,8,0:0:0:0:
256,192,88420,1,8,0:0:0:0:
256,192,88736,1,0,0:0:0:0:
256,192,88893,1,0,0:0:0:0:
256,192,89051,1,8,0:0:0:0:
256,192,89130,1,8,0:0:0:0:
256,192,89209,1,8,0:0:0:0:
256,192,89367,1,0,0:0:0:0:
256,192,89683,1,8,0:0:0:0:
256,192,89999,1,0,0:0:0:0:
256,192,90315,1,8,0:0:0:0:
256,192,90472,1,0,0:0:0:0:
256,192,90630,1,0,0:0:0:0:
256,192,90946,1,8,0:0:0:0:
256,192,91104,1,0,0:0:0:0:
256,192,91262,1,8,0:0:0:0:
256,192,91420,1,8,0:0:0:0:
256,192,91499,1,8,0:0:0:0:
256,192,91578,1,8,0:0:0:0:
256,192,91736,1,8,0:0:0:0:
256,192,91893,1,0,0:0:0:0:
256,192,92209,1,8,0:0:0:0:
256,192,92525,1,8,0:0:0:0:
256,192,92683,1,0,0:0:0:0:
256,192,92841,1,8,0:0:0:0:
256,192,93157,1,0,0:0:0:0:
256,192,93315,1,8,0:0:0:0:
256,192,93472,1,8,0:0:0:0:
256,192,93630,1,8,0:0:0:0:
256,192,93788,1,4,0:0:0:0:
