osu file format v14

[General]
AudioFilename: audio.mp3
AudioLeadIn: 0
PreviewTime: 21010
Countdown: 0
SampleSet: Soft
StackLeniency: 0.7
Mode: 3
LetterboxInBreaks: 0
SpecialStyle: 0
WidescreenStoryboard: 0

[Editor]
DistanceSpacing: 1
BeatDivisor: 4
GridSize: 8
TimelineZoom: 3.199999

[Metadata]
Title:Satori Crisis
TitleUnicode:【疾走アレンジ】 少女さとり ~satori crisis
Artist:Sawawa
ArtistUnicode:さわわ
Creator:OrdLyn
Version:GRAVITY
Source:
Tags:
BeatmapID:1245122
BeatmapSetID:588089

[Difficulty]
HPDrainRate:8.3
CircleSize:4
OverallDifficulty:8.5
ApproachRate:5
SliderMultiplier:1.4
SliderTickRate:1

[Events]
//Background and Video events
0,0,"background.jpg",0,0
//Break Periods
//Storyboard Layer 0 (Background)
//Storyboard Layer 1 (Fail)
//Storyboard Layer 2 (Pass)
//Storyboard Layer 3 (Foreground)
//Storyboard Sound Samples

[TimingPoints]
800,315.789473684211,4,2,0,100,1,0
21010,-100,4,2,0,100,0,1
41221,-100,4,2,0,100,0,0
123326,-100,4,2,0,100,0,1
143536,-100,4,2,0,100,0,0
174168,-100,4,2,0,100,0,1
183957,-100,4,2,0,100,0,0

[HitObjects]
64,192,800,5,0,0:0:0:0:
448,192,800,1,0,0:0:0:0:
320,192,800,1,0,0:0:0:0:
192,192,1273,1,0,0:0:0:0:
320,192,1352,1,0,0:0:0:0:
448,192,1431,1,0,0:0:0:0:
64,192,1589,1,0,0:0:0:0:
320,192,1747,1,0,0:0:0:0:
320,192,1905,1,0,0:0:0:0:
192,192,2063,1,0,0:0:0:0:
448,192,2221,1,0,0:0:0:0:
448,192,2378,1,0,0:0:0:0:
64,192,2536,1,0,0:0:0:0:
320,192,2694,128,0,3168:0:0:0:0:
448,192,3168,1,0,0:0:0:0:
192,192,3326,1,0,0:0:0:0:
192,192,3484,1,0,0:0:0:0:
320,192,3642,1,0,0:0:0:0:
448,192,3800,1,0,0:0:0:0:
64,192,3957,1,0,0:0:0:0:
64,192,4194,1,0,0:0:0:0:
320,192,4431,1,0,0:0:0:0:
448,192,4589,128,0,5063:0:0:0:0:
64,192,4589,128,0,5063:0:0:0:0:
192,192,5063,1,0,0:0:0:0:
320,192,5142,1,0,0:0:0:0:
448,192,5221,1,0,0:0:0:0:
320,192,5378,1,0,0:0:0:0:
192,192,5457,1,0,0:0:0:0:
64,192,5536,128,0,5852:0:0:0:0:
320,192,5852,1,0,0:0:0:0:
64,192,6168,1,0,0:0:0:0:
192,192,6326,1,0,0:0:0:0:
320,192,6405,1,0,0:0:0:0:
448,192,6484,1,0,0:0:0:0:
192,192,6721,1,0,0:0:0:0:
192,192,6957,1,0,0:0:0:0:
64,192,7115,1,0,0:0:0:0:
192,192,7273,1,0,0:0:0:0:
448,192,7431,1,0,0:0:0:0:
320,192,7589,1,0,0:0:0:0:
192,192,7747,128,0,8221:0:0:0:0:
320,192,8221,1,0,0:0:0:0:
448,192,8221,1,0,0:0:0:0:
320,192,8378,1,0,0:0:0:0:
64,192,8378,1,0,0:0:0:0:
192,192,8536,1,0,0:0:0:0:
448,192,8536,1,0,0:0:0:0:
448,192,8694,1,0,0:0:0:0:
320,192,8694,1,0,0:0:0:0:
320,192,8852,1,0,0:0:0:0:
192,192,8852,1,0,0:0:0:0:
192,192,9010,1,0,0:0:0:0:
64,192,9010,1,0,0:0:0:0:
320,192,9168,1,0,0:0:0:0:
448,192,9168,1,0,0:0:0:0:
192,192,9247,1,0,0:0:0:0:
64,192,9326,1,0,0:0:0:0:
320,192,9326,1,0,0:0:0:0:
448,192,9405,1,0,0:0:0:0:
320,192,9484,1,0,0:0:0:0:
192,192,9563,1,0,0:0:0:0:
448,192,9563,1,0,0:0:0:0:
64,192,9642,128,0,10115:0:0:0:0:
192,192,10115,1,0,0:0:0:0:
320,192,10194,1,0,0:0:0:0:
448,192,10194,1,0,0:0:0:0:
192,192,10273,1,0,0:0:0:0:
64,192,10352,1,0,0:0:0:0:
448,192,10431,1,0,0:0:0:0:
192,192,10431,1,0,0:0:0:0:
320,192,10589,1,0,0:0:0:0:
192,192,10589,1,0,0:0:0:0:
192,192,10747,1,0,0:0:0:0:
320,192,10826,1,0,0:0:0:0:
448,192,10905,1,0,0:0:0:0:
192,192,10905,1,0,0:0:0:0:
64,192,10905,1,0,0:0:0:0:
320,192,11221,1,0,0:0:0:0:
64,192,11221,1,0,0:0:0:0:
192,192,11378,1,0,0:0:0:0:
320,192,11457,1,0,0:0:0:0:
448,192,11536,1,0,0:0:0:0:
64,192,11536,1,0,0:0:0:0:
192,192,11694,1,0,0:0:0:0:
320,192,11694,1,0,0:0:0:0:
320,192,11852,1,0,0:0:0:0:
64,192,11852,1,0,0:0:0:0:
192,192,12010,1,0,0:0:0:0:
448,192,12010,1,0,0:0:0:0:
320,192,12168,1,0,0:0:0:0:
448,192,12168,1,0,0:0:0:0:
320,192,12326,1,0,0:0:0:0:
64,192,12326,1,0,0:0:0:0:
64,192,12484,1,0,0:0:0:0:
192,192,12484,1,0,0:0:0:0:
192,192,12642,1,0,0:0:0:0:
320,192,12642,1,0,0:0:0:0:
64,192,12800,128,0,13431:0:0:0:0:
448,192,12800,128,0,13431:0:0:0:0:
192,192,13273,1,0,0:0:0:0:
320,192,13431,1,0,0:0:0:0:
192,192,13589,1,0,0:0:0:0:
320,192,13589,1,0,0:0:0:0:
64,192,13747,1,0,0:0:0:0:
448,192,13747,1,0,0:0:0:0:
320,192,13905,1,0,0:0:0:0:
64,192,13905,1,0,0:0:0:0:
192,192,14063,1,0,0:0:0:0:
448,192,14063,1,0,0:0:0:0:
64,192,14300,1,0,0:0:0:0:
448,192,14300,1,0,0:0:0:0:
448,192,14536,1,0,0:0:0:0:
320,192,14536,1,0,0:0:0:0:
64,192,14694,128,0,15010:0:0:0:0:
192,192,14694,128,0,15010:0:0:0:0:
320,192,15168,5,0,0:0:0:0:
448,192,15168,1,0,0:0:0:0:
64,192,15247,1,0,0:0:0:0:
192,192,15247,1,0,0:0:0:0:
320,192,15326,1,0,0:0:0:0:
448,192,15326,1,0,0:0:0:0:
64,192,15484,1,0,0:0:0:0:
448,192,15484,1,0,0:0:0:0:
192,192,15563,1,0,0:0:0:0:
320,192,15563,1,0,0:0:0:0:
64,192,15642,1,0,0:0:0:0:
448,192,15642,1,0,0:0:0:0:
320,192,15957,5,0,0:0:0:0:
192,192,15957,1,0,0:0:0:0:
448,192,15957,1,0,0:0:0:0:
64,192,16115,1,0,0:0:0:0:
64,192,16273,1,0,0:0:0:0:
192,192,16273,1,0,0:0:0:0:
448,192,16273,1,0,0:0:0:0:
320,192,16431,1,0,0:0:0:0:
64,192,16589,1,0,0:0:0:0:
320,192,16589,1,0,0:0:0:0:
448,192,16589,1,0,0:0:0:0:
448,192,16747,1,0,0:0:0:0:
320,192,16905,1,0,0:0:0:0:
192,192,16905,1,0,0:0:0:0:
64,192,16905,1,0,0:0:0:0:
320,192,17063,1,0,0:0:0:0:
192,192,17221,1,0,0:0:0:0:
64,192,17221,1,0,0:0:0:0:
448,192,17221,1,0,0:0:0:0:
192,192,17378,1,0,0:0:0:0:
320,192,17536,1,0,0:0:0:0:
448,192,17536,1,0,0:0:0:0:
64,192,17536,1,0,0:0:0:0:
64,192,17694,1,0,0:0:0:0:
320,192,17852,1,0,0:0:0:0:
192,192,17852,1,0,0:0:0:0:
448,192,17852,1,0,0:0:0:0:
320,192,18010,1,0,0:0:0:0:
192,192,18168,1,0,0:0:0:0:
64,192,18168,1,0,0:0:0:0:
448,192,18168,1,0,0:0:0:0:
320,192,18326,5,0,0:0:0:0:
448,192,18484,1,0,0:0:0:0:
192,192,18484,1,0,0:0:0:0:
64,192,18484,1,0,0:0:0:0:
448,192,18642,1,0,0:0:0:0:
64,192,18642,1,0,0:0:0:0:
192,192,18800,1,0,0:0:0:0:
64,192,18800,1,0,0:0:0:0:
192,192,18957,1,0,0:0:0:0:
448,192,18957,1,0,0:0:0:0:
64,192,19115,1,0,0:0:0:0:
192,192,19115,1,0,0:0:0:0:
320,192,19194,1,0,0:0:0:0:
448,192,19194,1,0,0:0:0:0:
64,192,19273,1,0,0:0:0:0:
192,192,19273,1,0,0:0:0:0:
320,192,19352,1,0,0:0:0:0:
448,192,19352,1,0,0:0:0:0:
192,192,19431,1,0,0:0:0:0:
64,192,19431,1,0,0:0:0:0:
320,192,19510,1,0,0:0:0:0:
448,192,19510,1,0,0:0:0:0:
192,192,19550,1,0,0:0:0:0:
64,192,19589,1,0,0:0:0:0:
448,192,19628,1,0,0:0:0:0:
320,192,19668,1,0,0:0:0:0:
192,192,19707,1,0,0:0:0:0:
64,192,19747,128,0,21010:0:0:0:0:
192,192,20221,1,0,0:0:0:0:
320,192,20300,1,0,0:0:0:0:
448,192,20378,1,0,0:0:0:0:
320,192,20457,1,0,0:0:0:0:
192,192,20536,1,0,0:0:0:0:
192,192,20694,1,0,0:0:0:0:
448,192,20694,1,0,0:0:0:0:
320,192,20852,1,0,0:0:0:0:
192,192,20931,1,0,0:0:0:0:
448,192,21010,1,0,0:0:0:0:
320,192,21010,128,0,21484:0:0:0:0:
64,192,21484,1,0,0:0:0:0:
192,192,21484,1,0,0:0:0:0:
320,192,21563,1,0,0:0:0:0:
192,192,21642,1,0,0:0:0:0:
448,192,21642,1,0,0:0:0:0:
320,192,21800,1,0,0:0:0:0:
448,192,21800,1,0,0:0:0:0:
448,192,21957,1,0,0:0:0:0:
320,192,21957,1,0,0:0:0:0:
64,192,21957,1,0,0:0:0:0:
192,192,22115,1,0,0:0:0:0:
64,192,22115,1,0,0:0:0:0:
320,192,22273,1,0,0:0:0:0:
192,192,22273,1,0,0:0:0:0:
448,192,22273,1,0,0:0:0:0:
192,192,22431,1,0,0:0:0:0:
320,192,22431,1,0,0:0:0:0:
320,192,22589,1,0,0:0:0:0:
64,192,22589,1,0,0:0:0:0:
448,192,22589,1,0,0:0:0:0:
64,192,22747,1,0,0:0:0:0:
192,192,22747,1,0,0:0:0:0:
448,192,22905,1,0,0:0:0:0:
320,192,22905,1,0,0:0:0:0:
192,192,22905,1,0,0:0:0:0:
192,192,23063,1,0,0:0:0:0:
320,192,23221,1,0,0:0:0:0:
192,192,23378,1,0,0:0:0:0:
448,192,23378,1,0,0:0:0:0:
320,192,23536,1,0,0:0:0:0:
64,192,23536,1,0,0:0:0:0:
448,192,23536,1,0,0:0:0:0:
192,192,23694,1,0,0:0:0:0:
320,192,23694,1,0,0:0:0:0:
320,192,23852,1,0,0:0:0:0:
448,192,23852,1,0,0:0:0:0:
64,192,23852,1,0,0:0:0:0:
64,192,24010,1,0,0:0:0:0:
192,192,24010,1,0,0:0:0:0:
192,192,24168,1,0,0:0:0:0:
320,192,24168,1,0,0:0:0:0:
448,192,24168,1,0,0:0:0:0:
192,192,24326,1,0,0:0:0:0:
320,192,24484,1,0,0:0:0:0:
448,192,24484,1,0,0:0:0:0:
64,192,24484,1,0,0:0:0:0:
320,192,24642,1,0,0:0:0:0:
64,192,24800,1,0,0:0:0:0:
192,192,24800,1,0,0:0:0:0:
448,192,24800,1,0,0:0:0:0:
64,192,24957,1,0,0:0:0:0:
192,192,25115,1,0,0:0:0:0:
320,192,25115,1,0,0:0:0:0:
448,192,25115,1,0,0:0:0:0:
320,192,25273,1,0,0:0:0:0:
64,192,25273,1,0,0:0:0:0:
448,192,25352,1,0,0:0:0:0:
192,192,25352,1,0,0:0:0:0:
320,192,25431,1,0,0:0:0:0:
64,192,25431,1,0,0:0:0:0:
192,192,25589,1,0,0:0:0:0:
448,192,25589,1,0,0:0:0:0:
320,192,25668,1,0,0:0:0:0:
64,192,25668,1,0,0:0:0:0:
192,192,25747,1,0,0:0:0:0:
448,192,25747,1,0,0:0:0:0:
448,192,25905,1,0,0:0:0:0:
192,192,25905,1,0,0:0:0:0:
64,192,25905,1,0,0:0:0:0:
320,192,26063,1,0,0:0:0:0:
448,192,26063,1,0,0:0:0:0:
64,192,26063,128,0,26378:0:0:0:0:
448,192,26378,1,0,0:0:0:0:
192,192,26378,1,0,0:0:0:0:
320,192,26536,1,0,0:0:0:0:
192,192,26615,1,0,0:0:0:0:
64,192,26694,1,0,0:0:0:0:
320,192,26694,1,0,0:0:0:0:
448,192,26694,1,0,0:0:0:0:
320,192,26852,1,0,0:0:0:0:
192,192,27010,1,0,0:0:0:0:
64,192,27010,1,0,0:0:0:0:
448,192,27010,1,0,0:0:0:0:
192,192,27168,1,0,0:0:0:0:
320,192,27168,1,0,0:0:0:0:
320,192,27326,1,0,0:0:0:0:
64,192,27326,1,0,0:0:0:0:
448,192,27326,1,0,0:0:0:0:
192,192,27484,1,0,0:0:0:0:
448,192,27484,1,0,0:0:0:0:
320,192,27642,1,0,0:0:0:0:
192,192,27642,1,0,0:0:0:0:
64,192,27642,1,0,0:0:0:0:
320,192,27800,1,0,0:0:0:0:
448,192,27800,1,0,0:0:0:0:
448,192,27957,1,0,0:0:0:0:
192,192,27957,1,0,0:0:0:0:
64,192,27957,1,0,0:0:0:0:
320,192,28115,1,0,0:0:0:0:
192,192,28273,1,0,0:0:0:0:
64,192,28273,1,0,0:0:0:0:
448,192,28273,1,0,0:0:0:0:
64,192,28431,1,0,0:0:0:0:
320,192,28589,1,0,0:0:0:0:
192,192,28589,1,0,0:0:0:0:
448,192,28589,1,0,0:0:0:0:
320,192,28747,1,0,0:0:0:0:
64,192,28905,1,0,0:0:0:0:
192,192,28905,1,0,0:0:0:0:
448,192,28905,1,0,0:0:0:0:
448,192,29063,1,0,0:0:0:0:
64,192,29221,1,0,0:0:0:0:
320,192,29221,1,0,0:0:0:0:
192,192,29221,1,0,0:0:0:0:
448,192,29378,1,0,0:0:0:0:
320,192,29378,1,0,0:0:0:0:
192,192,29457,1,0,0:0:0:0:
64,192,29457,1,0,0:0:0:0:
448,192,29536,1,0,0:0:0:0:
320,192,29536,1,0,0:0:0:0:
192,192,29615,1,0,0:0:0:0:
64,192,29615,1,0,0:0:0:0:
320,192,29694,1,0,0:0:0:0:
448,192,29694,1,0,0:0:0:0:
192,192,29773,1,0,0:0:0:0:
64,192,29773,1,0,0:0:0:0:
320,192,29852,1,0,0:0:0:0:
448,192,29852,1,0,0:0:0:0:
64,192,29852,1,0,0:0:0:0:
64,192,30168,1,0,0:0:0:0:
192,192,30168,1,0,0:0:0:0:
448,192,30168,1,0,0:0:0:0:
448,192,30326,1,0,0:0:0:0:
192,192,30326,1,0,0:0:0:0:
320,192,30405,1,0,0:0:0:0:
448,192,30484,1,0,0:0:0:0:
64,192,30484,1,0,0:0:0:0:
192,192,30484,1,0,0:0:0:0:
320,192,30563,1,0,0:0:0:0:
64,192,30642,1,0,0:0:0:0:
448,192,30642,1,0,0:0:0:0:
320,192,30800,1,0,0:0:0:0:
64,192,30800,1,0,0:0:0:0:
448,192,30800,1,0,0:0:0:0:
192,192,30957,1,0,0:0:0:0:
320,192,31036,1,0,0:0:0:0:
192,192,31115,1,0,0:0:0:0:
64,192,31115,1,0,0:0:0:0:
448,192,31115,1,0,0:0:0:0:
192,192,31273,1,0,0:0:0:0:
320,192,31273,1,0,0:0:0:0:
320,192,31431,1,0,0:0:0:0:
448,192,31431,1,0,0:0:0:0:
64,192,31431,1,0,0:0:0:0:
448,192,31589,1,0,0:0:0:0:
192,192,31589,1,0,0:0:0:0:
192,192,31747,1,0,0:0:0:0:
64,192,31747,1,0,0:0:0:0:
320,192,31747,1,0,0:0:0:0:
64,192,31905,1,0,0:0:0:0:
448,192,31905,1,0,0:0:0:0:
448,192,32063,1,0,0:0:0:0:
320,192,32063,1,0,0:0:0:0:
192,192,32063,1,0,0:0:0:0:
64,192,32221,1,0,0:0:0:0:
320,192,32221,1,0,0:0:0:0:
192,192,32378,1,0,0:0:0:0:
64,192,32378,1,0,0:0:0:0:
448,192,32378,1,0,0:0:0:0:
320,192,32536,1,0,0:0:0:0:
448,192,32536,1,0,0:0:0:0:
64,192,32694,1,0,0:0:0:0:
320,192,32694,1,0,0:0:0:0:
192,192,32694,1,0,0:0:0:0:
448,192,32852,1,0,0:0:0:0:
192,192,32852,1,0,0:0:0:0:
192,192,33010,1,0,0:0:0:0:
320,192,33010,1,0,0:0:0:0:
64,192,33010,1,0,0:0:0:0:
192,192,33168,1,0,0:0:0:0:
320,192,33326,1,0,0:0:0:0:
192,192,33484,1,0,0:0:0:0:
448,192,33484,1,0,0:0:0:0:
192,192,33642,1,0,0:0:0:0:
64,192,33642,1,0,0:0:0:0:
320,192,33642,1,0,0:0:0:0:
448,192,33800,1,0,0:0:0:0:
320,192,33800,1,0,0:0:0:0:
448,192,33957,1,0,0:0:0:0:
64,192,33957,1,0,0:0:0:0:
192,192,33957,1,0,0:0:0:0:
192,192,34115,1,0,0:0:0:0:
320,192,34115,1,0,0:0:0:0:
64,192,34273,1,0,0:0:0:0:
320,192,34273,1,0,0:0:0:0:
448,192,34273,1,0,0:0:0:0:
448,192,34431,1,0,0:0:0:0:
320,192,34589,1,0,0:0:0:0:
192,192,34589,1,0,0:0:0:0:
64,192,34589,1,0,0:0:0:0:
320,192,34747,1,0,0:0:0:0:
192,192,34905,1,0,0:0:0:0:
448,192,34905,1,0,0:0:0:0:
64,192,34905,1,0,0:0:0:0:
192,192,35063,1,0,0:0:0:0:
64,192,35221,1,0,0:0:0:0:
320,192,35221,1,0,0:0:0:0:
448,192,35221,1,0,0:0:0:0:
192,192,35378,1,0,0:0:0:0:
320,192,35378,1,0,0:0:0:0:
64,192,35457,1,0,0:0:0:0:
448,192,35457,1,0,0:0:0:0:
320,192,35536,1,0,0:0:0:0:
192,192,35536,1,0,0:0:0:0:
64,192,35694,1,0,0:0:0:0:
448,192,35694,1,0,0:0:0:0:
192,192,35773,1,0,0:0:0:0:
320,192,35773,1,0,0:0:0:0:
448,192,35852,1,0,0:0:0:0:
64,192,35852,1,0,0:0:0:0:
64,192,36010,1,0,0:0:0:0:
192,192,36010,1,0,0:0:0:0:
320,192,36010,1,0,0:0:0:0:
192,192,36168,1,0,0:0:0:0:
320,192,36168,1,0,0:0:0:0:
448,192,36168,128,0,36484:0:0:0:0:
64,192,36484,1,0,0:0:0:0:
192,192,36484,1,0,0:0:0:0:
320,192,36484,1,0,0:0:0:0:
448,192,36642,1,0,0:0:0:0:
320,192,36721,1,0,0:0:0:0:
192,192,36800,1,0,0:0:0:0:
448,192,36800,1,0,0:0:0:0:
64,192,36800,1,0,0:0:0:0:
192,192,36957,1,0,0:0:0:0:
320,192,37115,1,0,0:0:0:0:
448,192,37115,1,0,0:0:0:0:
64,192,37115,1,0,0:0:0:0:
320,192,37273,1,0,0:0:0:0:
448,192,37431,1,0,0:0:0:0:
192,192,37431,1,0,0:0:0:0:
64,192,37431,1,0,0:0:0:0:
448,192,37589,1,0,0:0:0:0:
192,192,37589,1,0,0:0:0:0:
320,192,37589,1,0,0:0:0:0:
64,192,37747,1,0,0:0:0:0:
448,192,37747,1,0,0:0:0:0:
320,192,37747,1,0,0:0:0:0:
192,192,37905,1,0,0:0:0:0:
64,192,37905,1,0,0:0:0:0:
320,192,37905,1,0,0:0:0:0:
192,192,38063,1,0,0:0:0:0:
448,192,38063,1,0,0:0:0:0:
64,192,38063,1,0,0:0:0:0:
64,192,38221,1,0,0:0:0:0:
448,192,38221,1,0,0:0:0:0:
192,192,38378,1,0,0:0:0:0:
320,192,38378,1,0,0:0:0:0:
320,192,38536,5,0,0:0:0:0:
64,192,38694,5,0,0:0:0:0:
192,192,38694,1,0,0:0:0:0:
448,192,38694,1,0,0:0:0:0:
192,192,38852,1,0,0:0:0:0:
320,192,38852,1,0,0:0:0:0:
448,192,38852,1,0,0:0:0:0:
320,192,39010,1,0,0:0:0:0:
448,192,39010,1,0,0:0:0:0:
64,192,39010,1,0,0:0:0:0:
448,192,39168,1,0,0:0:0:0:
64,192,39168,1,0,0:0:0:0:
192,192,39168,1,0,0:0:0:0:
192,192,39326,1,0,0:0:0:0:
320,192,39326,1,0,0:0:0:0:
64,192,39326,1,0,0:0:0:0:
448,192,39484,1,0,0:0:0:0:
320,192,39484,1,0,0:0:0:0:
192,192,39563,1,0,0:0:0:0:
64,192,39642,1,0,0:0:0:0:
320,192,39642,1,0,0:0:0:0:
448,192,39721,1,0,0:0:0:0:
192,192,39800,1,0,0:0:0:0:
320,192,39800,1,0,0:0:0:0:
64,192,39878,1,0,0:0:0:0:
192,192,39957,1,0,0:0:0:0:
448,192,39957,128,0,40431:0:0:0:0:
64,192,40431,1,0,0:0:0:0:
320,192,40431,1,0,0:0:0:0:
192,192,40510,1,0,0:0:0:0:
64,192,40589,1,0,0:0:0:0:
320,192,40589,1,0,0:0:0:0:
448,192,40668,1,0,0:0:0:0:
320,192,40747,1,0,0:0:0:0:
192,192,40747,1,0,0:0:0:0:
64,192,40905,1,0,0:0:0:0:
192,192,40905,1,0,0:0:0:0:
320,192,40905,1,0,0:0:0:0:
448,192,40905,1,0,0:0:0:0:
448,192,41221,5,0,0:0:0:0:
64,192,41221,1,0,0:0:0:0:
320,192,41300,1,0,0:0:0:0:
192,192,41378,1,0,0:0:0:0:
64,192,41457,1,0,0:0:0:0:
320,192,41536,1,0,0:0:0:0:
448,192,41536,1,0,0:0:0:0:
320,192,41694,1,0,0:0:0:0:
192,192,41773,1,0,0:0:0:0:
320,192,41852,1,0,0:0:0:0:
448,192,41931,1,0,0:0:0:0:
64,192,42010,1,0,0:0:0:0:
192,192,42089,1,0,0:0:0:0:
320,192,42168,1,0,0:0:0:0:
64,192,42168,1,0,0:0:0:0:
192,192,42326,1,0,0:0:0:0:
448,192,42326,1,0,0:0:0:0:
320,192,42405,1,0,0:0:0:0:
448,192,42484,1,0,0:0:0:0:
320,192,42642,1,0,0:0:0:0:
448,192,42721,1,0,0:0:0:0:
64,192,42800,1,0,0:0:0:0:
448,192,42957,1,0,0:0:0:0:
320,192,43036,1,0,0:0:0:0:
192,192,43115,1,0,0:0:0:0:
448,192,43115,1,0,0:0:0:0:
64,192,43194,1,0,0:0:0:0:
192,192,43273,1,0,0:0:0:0:
320,192,43352,1,0,0:0:0:0:
448,192,43431,1,0,0:0:0:0:
64,192,43431,1,0,0:0:0:0:
64,192,43589,1,0,0:0:0:0:
192,192,43668,1,0,0:0:0:0:
320,192,43747,1,0,0:0:0:0:
448,192,43747,1,0,0:0:0:0:
192,192,43905,1,0,0:0:0:0:
64,192,43984,1,0,0:0:0:0:
448,192,44063,1,0,0:0:0:0:
320,192,44221,1,0,0:0:0:0:
192,192,44221,1,0,0:0:0:0:
448,192,44300,1,0,0:0:0:0:
64,192,44378,1,0,0:0:0:0:
192,192,44457,1,0,0:0:0:0:
320,192,44536,1,0,0:0:0:0:
64,192,44615,1,0,0:0:0:0:
448,192,44694,1,0,0:0:0:0:
192,192,44694,1,0,0:0:0:0:
320,192,44773,1,0,0:0:0:0:
192,192,44852,1,0,0:0:0:0:
64,192,44931,1,0,0:0:0:0:
192,192,45010,1,0,0:0:0:0:
448,192,45010,1,0,0:0:0:0:
320,192,45168,1,0,0:0:0:0:
192,192,45247,1,0,0:0:0:0:
64,192,45326,1,0,0:0:0:0:
448,192,45326,1,0,0:0:0:0:
64,192,45484,1,0,0:0:0:0:
192,192,45563,1,0,0:0:0:0:
64,192,45642,1,0,0:0:0:0:
320,192,45642,1,0,0:0:0:0:
448,192,45721,1,0,0:0:0:0:
320,192,45800,1,0,0:0:0:0:
448,192,45957,1,0,0:0:0:0:
64,192,45957,1,0,0:0:0:0:
192,192,46036,1,0,0:0:0:0:
320,192,46115,1,0,0:0:0:0:
448,192,46273,1,0,0:0:0:0:
64,192,46273,1,0,0:0:0:0:
192,192,46273,1,0,0:0:0:0:
64,192,46378,1,0,0:0:0:0:
320,192,46378,1,0,0:0:0:0:
320,192,46484,1,0,0:0:0:0:
448,192,46484,1,0,0:0:0:0:
192,192,46589,1,0,0:0:0:0:
448,192,46589,1,0,0:0:0:0:
64,192,46694,1,0,0:0:0:0:
192,192,46694,1,0,0:0:0:0:
64,192,46800,1,0,0:0:0:0:
448,192,46800,1,0,0:0:0:0:
320,192,46905,1,0,0:0:0:0:
448,192,46905,1,0,0:0:0:0:
320,192,47010,1,0,0:0:0:0:
192,192,47010,1,0,0:0:0:0:
64,192,47115,1,0,0:0:0:0:
448,192,47115,1,0,0:0:0:0:
192,192,47221,1,0,0:0:0:0:
64,192,47221,1,0,0:0:0:0:
320,192,47300,1,0,0:0:0:0:
448,192,47378,1,0,0:0:0:0:
64,192,47457,1,0,0:0:0:0:
192,192,47536,1,0,0:0:0:0:
320,192,47536,1,0,0:0:0:0:
64,192,47615,1,0,0:0:0:0:
192,192,47694,1,0,0:0:0:0:
64,192,47773,1,0,0:0:0:0:
448,192,47852,1,0,0:0:0:0:
192,192,47852,1,0,0:0:0:0:
320,192,47931,1,0,0:0:0:0:
448,192,48010,1,0,0:0:0:0:
192,192,48089,1,0,0:0:0:0:
320,192,48168,1,0,0:0:0:0:
448,192,48168,1,0,0:0:0:0:
192,192,48247,1,0,0:0:0:0:
320,192,48326,1,0,0:0:0:0:
448,192,48405,1,0,0:0:0:0:
192,192,48484,1,0,0:0:0:0:
320,192,48484,1,0,0:0:0:0:
448,192,48563,1,0,0:0:0:0:
64,192,48642,1,0,0:0:0:0:
448,192,48721,1,0,0:0:0:0:
64,192,48800,1,0,0:0:0:0:
320,192,48800,1,0,0:0:0:0:
192,192,48878,1,0,0:0:0:0:
64,192,48957,1,0,0:0:0:0:
448,192,49036,1,0,0:0:0:0:
64,192,49115,1,0,0:0:0:0:
320,192,49115,1,0,0:0:0:0:
192,192,49194,1,0,0:0:0:0:
320,192,49273,1,0,0:0:0:0:
64,192,49352,1,0,0:0:0:0:
448,192,49431,1,0,0:0:0:0:
192,192,49431,1,0,0:0:0:0:
320,192,49510,1,0,0:0:0:0:
64,192,49589,1,0,0:0:0:0:
192,192,49668,1,0,0:0:0:0:
64,192,49747,1,0,0:0:0:0:
448,192,49747,1,0,0:0:0:0:
320,192,49826,1,0,0:0:0:0:
448,192,49905,1,0,0:0:0:0:
64,192,49984,1,0,0:0:0:0:
320,192,50063,1,0,0:0:0:0:
448,192,50063,1,0,0:0:0:0:
192,192,50142,1,0,0:0:0:0:
64,192,50221,1,0,0:0:0:0:
448,192,50339,1,0,0:0:0:0:
320,192,50378,1,0,0:0:0:0:
192,192,50418,1,0,0:0:0:0:
64,192,50457,1,0,0:0:0:0:
448,192,50497,1,0,0:0:0:0:
320,192,50536,1,0,0:0:0:0:
192,192,50576,1,0,0:0:0:0:
64,192,50615,1,0,0:0:0:0:
192,192,50694,1,0,0:0:0:0:
320,192,50694,1,0,0:0:0:0:
320,192,50773,1,0,0:0:0:0:
192,192,50773,1,0,0:0:0:0:
64,192,50852,1,0,0:0:0:0:
192,192,50892,1,0,0:0:0:0:
320,192,50931,1,0,0:0:0:0:
448,192,50971,1,0,0:0:0:0:
192,192,51050,128,0,51326:0:0:0:0:
320,192,51050,128,0,51326:0:0:0:0:
448,192,51326,1,0,0:0:0:0:
64,192,51326,1,0,0:0:0:0:
320,192,51484,1,0,0:0:0:0:
192,192,51563,1,0,0:0:0:0:
448,192,51642,1,0,0:0:0:0:
64,192,51642,1,0,0:0:0:0:
192,192,51800,1,0,0:0:0:0:
320,192,51878,1,0,0:0:0:0:
448,192,51957,1,0,0:0:0:0:
64,192,52036,1,0,0:0:0:0:
448,192,52115,1,0,0:0:0:0:
64,192,52194,1,0,0:0:0:0:
448,192,52273,1,0,0:0:0:0:
192,192,52273,1,0,0:0:0:0:
64,192,52431,1,0,0:0:0:0:
192,192,52510,1,0,0:0:0:0:
448,192,52589,1,0,0:0:0:0:
320,192,52589,1,0,0:0:0:0:
448,192,52747,1,0,0:0:0:0:
320,192,52826,1,0,0:0:0:0:
192,192,52905,1,0,0:0:0:0:
64,192,52905,1,0,0:0:0:0:
192,192,53063,1,0,0:0:0:0:
320,192,53142,1,0,0:0:0:0:
448,192,53221,1,0,0:0:0:0:
192,192,53221,1,0,0:0:0:0:
64,192,53300,1,0,0:0:0:0:
192,192,53378,1,0,0:0:0:0:
64,192,53457,1,0,0:0:0:0:
448,192,53536,1,0,0:0:0:0:
320,192,53536,1,0,0:0:0:0:
192,192,53615,1,0,0:0:0:0:
320,192,53694,1,0,0:0:0:0:
64,192,53773,1,0,0:0:0:0:
192,192,53852,1,0,0:0:0:0:
448,192,53852,1,0,0:0:0:0:
320,192,54010,1,0,0:0:0:0:
192,192,54089,1,0,0:0:0:0:
320,192,54168,1,0,0:0:0:0:
64,192,54168,1,0,0:0:0:0:
192,192,54326,1,0,0:0:0:0:
320,192,54405,1,0,0:0:0:0:
448,192,54484,1,0,0:0:0:0:
192,192,54484,1,0,0:0:0:0:
64,192,54484,1,0,0:0:0:0:
320,192,54563,1,0,0:0:0:0:
192,192,54642,1,0,0:0:0:0:
64,192,54721,1,0,0:0:0:0:
192,192,54800,1,0,0:0:0:0:
448,192,54800,1,0,0:0:0:0:
320,192,54800,1,0,0:0:0:0:
64,192,54878,1,0,0:0:0:0:
448,192,54957,1,0,0:0:0:0:
320,192,55036,1,0,0:0:0:0:
192,192,55115,1,0,0:0:0:0:
448,192,55115,1,0,0:0:0:0:
64,192,55115,1,0,0:0:0:0:
320,192,55273,5,0,0:0:0:0:
448,192,55273,1,0,0:0:0:0:
192,192,55352,1,0,0:0:0:0:
64,192,55352,1,0,0:0:0:0:
64,192,55431,1,0,0:0:0:0:
320,192,55431,1,0,0:0:0:0:
448,192,55431,1,0,0:0:0:0:
320,192,55589,1,0,0:0:0:0:
64,192,55589,1,0,0:0:0:0:
320,192,55668,1,0,0:0:0:0:
448,192,55668,1,0,0:0:0:0:
448,192,55747,1,0,0:0:0:0:
192,192,55747,1,0,0:0:0:0:
64,192,55747,1,0,0:0:0:0:
448,192,55905,1,0,0:0:0:0:
64,192,55905,1,0,0:0:0:0:
192,192,55984,1,0,0:0:0:0:
320,192,55984,1,0,0:0:0:0:
64,192,56063,128,0,56221:0:0:0:0:
192,192,56063,128,0,56221:0:0:0:0:
448,192,56063,128,0,56221:0:0:0:0:
320,192,56221,1,0,0:0:0:0:
64,192,56378,5,0,0:0:0:0:
320,192,56378,1,0,0:0:0:0:
320,192,56484,1,0,0:0:0:0:
192,192,56484,1,0,0:0:0:0:
64,192,56589,1,0,0:0:0:0:
448,192,56589,1,0,0:0:0:0:
192,192,56694,1,0,0:0:0:0:
448,192,56694,1,0,0:0:0:0:
320,192,56800,1,0,0:0:0:0:
192,192,56800,1,0,0:0:0:0:
64,192,56905,1,0,0:0:0:0:
192,192,56905,1,0,0:0:0:0:
192,192,57010,1,0,0:0:0:0:
448,192,57010,1,0,0:0:0:0:
320,192,57115,1,0,0:0:0:0:
448,192,57115,1,0,0:0:0:0:
192,192,57221,1,0,0:0:0:0:
64,192,57221,1,0,0:0:0:0:
64,192,57326,1,0,0:0:0:0:
448,192,57326,1,0,0:0:0:0:
64,192,57431,1,0,0:0:0:0:
192,192,57484,1,0,0:0:0:0:
320,192,57536,1,0,0:0:0:0:
448,192,57589,1,0,0:0:0:0:
192,192,57642,1,0,0:0:0:0:
64,192,57642,1,0,0:0:0:0:
320,192,57721,1,0,0:0:0:0:
448,192,57721,1,0,0:0:0:0:
64,192,57800,1,0,0:0:0:0:
192,192,57800,1,0,0:0:0:0:
320,192,57878,1,0,0:0:0:0:
448,192,57878,1,0,0:0:0:0:
64,192,57957,1,0,0:0:0:0:
192,192,57957,1,0,0:0:0:0:
320,192,58036,1,0,0:0:0:0:
448,192,58036,1,0,0:0:0:0:
192,192,58115,1,0,0:0:0:0:
64,192,58115,1,0,0:0:0:0:
320,192,58194,1,0,0:0:0:0:
448,192,58194,1,0,0:0:0:0:
192,192,58273,1,0,0:0:0:0:
64,192,58273,1,0,0:0:0:0:
320,192,58352,1,0,0:0:0:0:
448,192,58352,1,0,0:0:0:0:
192,192,58431,1,0,0:0:0:0:
64,192,58431,1,0,0:0:0:0:
320,192,58510,1,0,0:0:0:0:
448,192,58510,1,0,0:0:0:0:
192,192,58589,1,0,0:0:0:0:
64,192,58589,1,0,0:0:0:0:
320,192,58668,1,0,0:0:0:0:
448,192,58668,1,0,0:0:0:0:
64,192,58747,1,0,0:0:0:0:
192,192,58786,1,0,0:0:0:0:
320,192,58826,1,0,0:0:0:0:
448,192,58865,1,0,0:0:0:0:
64,192,58984,1,0,0:0:0:0:
448,192,58984,1,0,0:0:0:0:
320,192,59063,1,0,0:0:0:0:
192,192,59063,1,0,0:0:0:0:
448,192,59142,1,0,0:0:0:0:
320,192,59181,1,0,0:0:0:0:
192,192,59221,1,0,0:0:0:0:
64,192,59260,1,0,0:0:0:0:
192,192,59339,1,0,0:0:0:0:
448,192,59339,1,0,0:0:0:0:
64,192,59418,1,0,0:0:0:0:
320,192,59418,1,0,0:0:0:0:
448,192,59497,1,0,0:0:0:0:
320,192,59536,1,0,0:0:0:0:
64,192,59576,1,0,0:0:0:0:
192,192,59615,1,0,0:0:0:0:
320,192,59694,1,0,0:0:0:0:
448,192,59694,1,0,0:0:0:0:
64,192,59773,1,0,0:0:0:0:
192,192,59773,1,0,0:0:0:0:
448,192,59852,1,0,0:0:0:0:
320,192,59892,1,0,0:0:0:0:
192,192,59931,1,0,0:0:0:0:
64,192,59971,1,0,0:0:0:0:
448,192,60010,1,0,0:0:0:0:
320,192,60050,1,0,0:0:0:0:
192,192,60089,1,0,0:0:0:0:
64,192,60128,1,0,0:0:0:0:
448,192,60168,1,0,0:0:0:0:
320,192,60207,1,0,0:0:0:0:
64,192,60247,1,0,0:0:0:0:
192,192,60286,1,0,0:0:0:0:
448,192,60326,1,0,0:0:0:0:
320,192,60365,1,0,0:0:0:0:
64,192,60405,1,0,0:0:0:0:
192,192,60444,1,0,0:0:0:0:
448,192,60484,1,0,0:0:0:0:
320,192,60523,1,0,0:0:0:0:
64,192,60563,1,0,0:0:0:0:
192,192,60602,1,0,0:0:0:0:
448,192,60642,1,0,0:0:0:0:
320,192,60681,1,0,0:0:0:0:
64,192,60721,1,0,0:0:0:0:
192,192,60760,1,0,0:0:0:0:
448,192,60800,1,0,0:0:0:0:
320,192,60839,1,0,0:0:0:0:
64,192,60878,1,0,0:0:0:0:
192,192,60918,1,0,0:0:0:0:
448,192,60957,1,0,0:0:0:0:
320,192,60997,1,0,0:0:0:0:
64,192,61036,1,0,0:0:0:0:
192,192,61076,1,0,0:0:0:0:
448,192,61115,1,0,0:0:0:0:
320,192,61155,1,0,0:0:0:0:
64,192,61194,1,0,0:0:0:0:
192,192,61234,1,0,0:0:0:0:
448,192,61273,1,0,0:0:0:0:
320,192,61313,1,0,0:0:0:0:
64,192,61352,1,0,0:0:0:0:
192,192,61392,1,0,0:0:0:0:
448,192,61431,1,0,0:0:0:0:
320,192,61431,128,0,62063:0:0:0:0:
192,192,62063,128,0,62378:0:0:0:0:
64,192,62378,128,0,62694:0:0:0:0:
192,192,62694,1,0,0:0:0:0:
448,192,62694,128,0,63642:0:0:0:0:
320,192,63642,1,0,0:0:0:0:
192,192,63800,1,0,0:0:0:0:
64,192,63957,128,0,64273:0:0:0:0:
192,192,64273,1,0,0:0:0:0:
448,192,64431,1,0,0:0:0:0:
320,192,64589,1,0,0:0:0:0:
64,192,64905,1,0,0:0:0:0:
192,192,65221,128,0,66326:0:0:0:0:
320,192,65852,128,0,66326:0:0:0:0:
64,192,66326,1,0,0:0:0:0:
448,192,66326,1,0,0:0:0:0:
192,192,66484,1,0,0:0:0:0:
320,192,66484,1,0,0:0:0:0:
448,192,66800,1,0,0:0:0:0:
64,192,66800,1,0,0:0:0:0:
192,192,66957,128,0,67431:0:0:0:0:
320,192,66957,128,0,67431:0:0:0:0:
448,192,67431,1,0,0:0:0:0:
64,192,67747,1,0,0:0:0:0:
192,192,68063,1,0,0:0:0:0:
320,192,68221,128,0,68694:0:0:0:0:
448,192,68694,1,0,0:0:0:0:
192,192,69010,1,0,0:0:0:0:
320,192,69326,1,0,0:0:0:0:
448,192,69484,128,0,69957:0:0:0:0:
64,192,69957,128,0,70905:0:0:0:0:
192,192,70273,128,0,70905:0:0:0:0:
448,192,70273,1,0,0:0:0:0:
448,192,70905,1,0,0:0:0:0:
64,192,71536,1,0,0:0:0:0:
192,192,71536,1,0,0:0:0:0:
320,192,71536,1,0,0:0:0:0:
448,192,71536,1,0,0:0:0:0:
448,192,71694,1,0,0:0:0:0:
192,192,71694,1,0,0:0:0:0:
64,192,71694,1,0,0:0:0:0:
64,192,71852,1,0,0:0:0:0:
192,192,71852,1,0,0:0:0:0:
320,192,71852,1,0,0:0:0:0:
448,192,72010,1,0,0:0:0:0:
320,192,72010,1,0,0:0:0:0:
64,192,72010,1,0,0:0:0:0:
64,192,72168,1,0,0:0:0:0:
192,192,72168,1,0,0:0:0:0:
448,192,72168,1,0,0:0:0:0:
448,192,72326,1,0,0:0:0:0:
192,192,72326,1,0,0:0:0:0:
320,192,72326,1,0,0:0:0:0:
64,192,72484,1,0,0:0:0:0:
320,192,72484,1,0,0:0:0:0:
448,192,72484,1,0,0:0:0:0:
192,192,72642,1,0,0:0:0:0:
320,192,72642,1,0,0:0:0:0:
64,192,72642,1,0,0:0:0:0:
64,192,72800,1,0,0:0:0:0:
320,192,72800,1,0,0:0:0:0:
448,192,72800,1,0,0:0:0:0:
192,192,72957,1,0,0:0:0:0:
448,192,72957,1,0,0:0:0:0:
64,192,72957,1,0,0:0:0:0:
192,192,73115,1,0,0:0:0:0:
320,192,73115,1,0,0:0:0:0:
448,192,73115,1,0,0:0:0:0:
320,192,73273,1,0,0:0:0:0:
64,192,73273,1,0,0:0:0:0:
448,192,73273,1,0,0:0:0:0:
192,192,73431,1,0,0:0:0:0:
320,192,73431,1,0,0:0:0:0:
64,192,73431,1,0,0:0:0:0:
192,192,73589,1,0,0:0:0:0:
320,192,73589,1,0,0:0:0:0:
448,192,73589,1,0,0:0:0:0:
192,192,73747,1,0,0:0:0:0:
64,192,73747,1,0,0:0:0:0:
448,192,73747,1,0,0:0:0:0:
64,192,73905,1,0,0:0:0:0:
192,192,73905,1,0,0:0:0:0:
320,192,73984,1,0,0:0:0:0:
448,192,73984,1,0,0:0:0:0:
192,192,74063,1,0,0:0:0:0:
64,192,74063,1,0,0:0:0:0:
192,192,74221,1,0,0:0:0:0:
320,192,74221,1,0,0:0:0:0:
448,192,74221,1,0,0:0:0:0:
320,192,74378,1,0,0:0:0:0:
192,192,74378,1,0,0:0:0:0:
64,192,74378,1,0,0:0:0:0:
192,192,74536,1,0,0:0:0:0:
320,192,74536,1,0,0:0:0:0:
448,192,74536,1,0,0:0:0:0:
320,192,74694,1,0,0:0:0:0:
448,192,74694,1,0,0:0:0:0:
64,192,74694,1,0,0:0:0:0:
64,192,74852,1,0,0:0:0:0:
192,192,74852,1,0,0:0:0:0:
448,192,74852,1,0,0:0:0:0:
320,192,75010,1,0,0:0:0:0:
192,192,75010,1,0,0:0:0:0:
64,192,75010,1,0,0:0:0:0:
64,192,75168,1,0,0:0:0:0:
448,192,75168,1,0,0:0:0:0:
192,192,75247,1,0,0:0:0:0:
320,192,75247,1,0,0:0:0:0:
64,192,75326,1,0,0:0:0:0:
448,192,75326,1,0,0:0:0:0:
192,192,75484,1,0,0:0:0:0:
64,192,75484,1,0,0:0:0:0:
320,192,75484,1,0,0:0:0:0:
192,192,75642,1,0,0:0:0:0:
320,192,75642,1,0,0:0:0:0:
448,192,75642,1,0,0:0:0:0:
192,192,75800,1,0,0:0:0:0:
448,192,75800,1,0,0:0:0:0:
320,192,75878,1,0,0:0:0:0:
64,192,75878,1,0,0:0:0:0:
192,192,75957,1,0,0:0:0:0:
448,192,75957,1,0,0:0:0:0:
192,192,76115,1,0,0:0:0:0:
64,192,76115,1,0,0:0:0:0:
448,192,76115,1,0,0:0:0:0:
320,192,76273,1,0,0:0:0:0:
448,192,76273,1,0,0:0:0:0:
64,192,76273,1,0,0:0:0:0:
192,192,76431,1,0,0:0:0:0:
320,192,76431,1,0,0:0:0:0:
448,192,76431,1,0,0:0:0:0:
64,192,76589,1,0,0:0:0:0:
320,192,76589,1,0,0:0:0:0:
448,192,76589,1,0,0:0:0:0:
192,192,76668,1,0,0:0:0:0:
320,192,76747,1,0,0:0:0:0:
448,192,76826,1,0,0:0:0:0:
192,192,76905,1,0,0:0:0:0:
320,192,76984,1,0,0:0:0:0:
64,192,77063,1,0,0:0:0:0:
448,192,77142,1,0,0:0:0:0:
320,192,77221,1,0,0:0:0:0:
192,192,77300,1,0,0:0:0:0:
64,192,77378,1,0,0:0:0:0:
192,192,77457,1,0,0:0:0:0:
64,192,77536,1,0,0:0:0:0:
448,192,77615,1,0,0:0:0:0:
320,192,77694,1,0,0:0:0:0:
64,192,77773,1,0,0:0:0:0:
192,192,77852,1,0,0:0:0:0:
320,192,77852,1,0,0:0:0:0:
448,192,77852,1,0,0:0:0:0:
64,192,77931,1,0,0:0:0:0:
192,192,78010,1,0,0:0:0:0:
320,192,78089,1,0,0:0:0:0:
448,192,78168,1,0,0:0:0:0:
192,192,78247,1,0,0:0:0:0:
320,192,78326,1,0,0:0:0:0:
448,192,78405,1,0,0:0:0:0:
64,192,78484,1,0,0:0:0:0:
448,192,78563,1,0,0:0:0:0:
64,192,78642,1,0,0:0:0:0:
192,192,78721,1,0,0:0:0:0:
448,192,78800,1,0,0:0:0:0:
320,192,78878,1,0,0:0:0:0:
192,192,78957,1,0,0:0:0:0:
320,192,79036,1,0,0:0:0:0:
64,192,79115,1,0,0:0:0:0:
192,192,79115,1,0,0:0:0:0:
448,192,79115,1,0,0:0:0:0:
320,192,79194,1,0,0:0:0:0:
448,192,79194,1,0,0:0:0:0:
192,192,79273,1,0,0:0:0:0:
64,192,79273,1,0,0:0:0:0:
320,192,79352,1,0,0:0:0:0:
448,192,79352,1,0,0:0:0:0:
192,192,79431,1,0,0:0:0:0:
64,192,79431,1,0,0:0:0:0:
320,192,79510,1,0,0:0:0:0:
448,192,79510,1,0,0:0:0:0:
192,192,79589,1,0,0:0:0:0:
64,192,79589,1,0,0:0:0:0:
320,192,79668,1,0,0:0:0:0:
448,192,79668,1,0,0:0:0:0:
192,192,79747,1,0,0:0:0:0:
64,192,79747,1,0,0:0:0:0:
448,192,79747,1,0,0:0:0:0:
320,192,79826,1,0,0:0:0:0:
64,192,79905,1,0,0:0:0:0:
448,192,79905,1,0,0:0:0:0:
320,192,79984,1,0,0:0:0:0:
192,192,79984,1,0,0:0:0:0:
448,192,80063,1,0,0:0:0:0:
64,192,80063,1,0,0:0:0:0:
320,192,80142,1,0,0:0:0:0:
192,192,80142,1,0,0:0:0:0:
64,192,80221,1,0,0:0:0:0:
448,192,80221,1,0,0:0:0:0:
320,192,80300,1,0,0:0:0:0:
192,192,80300,1,0,0:0:0:0:
64,192,80378,1,0,0:0:0:0:
448,192,80378,1,0,0:0:0:0:
320,192,80457,1,0,0:0:0:0:
448,192,80497,1,0,0:0:0:0:
192,192,80536,1,0,0:0:0:0:
64,192,80576,1,0,0:0:0:0:
320,192,80615,1,0,0:0:0:0:
448,192,80655,1,0,0:0:0:0:
192,192,80694,1,0,0:0:0:0:
64,192,80734,1,0,0:0:0:0:
320,192,80773,1,0,0:0:0:0:
448,192,80813,1,0,0:0:0:0:
192,192,80852,1,0,0:0:0:0:
64,192,80892,1,0,0:0:0:0:
320,192,80931,1,0,0:0:0:0:
448,192,80971,1,0,0:0:0:0:
192,192,81010,1,0,0:0:0:0:
64,192,81050,1,0,0:0:0:0:
320,192,81089,1,0,0:0:0:0:
448,192,81128,1,0,0:0:0:0:
192,192,81168,1,0,0:0:0:0:
64,192,81207,1,0,0:0:0:0:
320,192,81247,1,0,0:0:0:0:
448,192,81286,1,0,0:0:0:0:
64,192,81326,1,0,0:0:0:0:
192,192,81326,1,0,0:0:0:0:
448,192,81484,1,0,0:0:0:0:
64,192,81484,1,0,0:0:0:0:
448,192,81563,1,0,0:0:0:0:
64,192,81563,1,0,0:0:0:0:
448,192,81957,1,0,0:0:0:0:
192,192,81957,1,0,0:0:0:0:
64,192,81957,1,0,0:0:0:0:
320,192,82036,1,0,0:0:0:0:
192,192,82115,1,0,0:0:0:0:
320,192,82194,1,0,0:0:0:0:
64,192,82273,1,0,0:0:0:0:
192,192,82273,1,0,0:0:0:0:
448,192,82273,1,0,0:0:0:0:
320,192,82352,1,0,0:0:0:0:
192,192,82431,1,0,0:0:0:0:
320,192,82510,1,0,0:0:0:0:
448,192,82589,1,0,0:0:0:0:
192,192,82589,1,0,0:0:0:0:
64,192,82589,1,0,0:0:0:0:
320,192,82668,1,0,0:0:0:0:
192,192,82747,1,0,0:0:0:0:
64,192,82826,1,0,0:0:0:0:
192,192,82905,1,0,0:0:0:0:
448,192,82905,1,0,0:0:0:0:
320,192,82905,1,0,0:0:0:0:
64,192,82984,1,0,0:0:0:0:
448,192,83063,1,0,0:0:0:0:
320,192,83142,1,0,0:0:0:0:
448,192,83221,1,0,0:0:0:0:
192,192,83221,1,0,0:0:0:0:
64,192,83221,1,0,0:0:0:0:
320,192,83300,1,0,0:0:0:0:
192,192,83378,1,0,0:0:0:0:
448,192,83457,1,0,0:0:0:0:
192,192,83536,1,0,0:0:0:0:
320,192,83536,1,0,0:0:0:0:
64,192,83536,1,0,0:0:0:0:
448,192,83615,1,0,0:0:0:0:
320,192,83694,1,0,0:0:0:0:
192,192,83773,1,0,0:0:0:0:
320,192,83852,1,0,0:0:0:0:
64,192,83852,1,0,0:0:0:0:
448,192,83852,1,0,0:0:0:0:
192,192,83931,1,0,0:0:0:0:
64,192,84010,1,0,0:0:0:0:
320,192,84089,1,0,0:0:0:0:
192,192,84168,1,0,0:0:0:0:
64,192,84168,1,0,0:0:0:0:
448,192,84168,1,0,0:0:0:0:
320,192,84247,1,0,0:0:0:0:
192,192,84326,1,0,0:0:0:0:
64,192,84405,1,0,0:0:0:0:
192,192,84484,1,0,0:0:0:0:
320,192,84484,1,0,0:0:0:0:
448,192,84484,1,0,0:0:0:0:
64,192,84563,1,0,0:0:0:0:
320,192,84642,1,0,0:0:0:0:
192,192,84721,1,0,0:0:0:0:
320,192,84800,1,0,0:0:0:0:
448,192,84800,1,0,0:0:0:0:
64,192,84800,1,0,0:0:0:0:
192,192,84878,1,0,0:0:0:0:
64,192,84957,1,0,0:0:0:0:
448,192,85036,1,0,0:0:0:0:
320,192,85115,1,0,0:0:0:0:
192,192,85115,1,0,0:0:0:0:
64,192,85115,1,0,0:0:0:0:
448,192,85194,1,0,0:0:0:0:
320,192,85273,1,0,0:0:0:0:
192,192,85352,1,0,0:0:0:0:
320,192,85431,1,0,0:0:0:0:
448,192,85431,1,0,0:0:0:0:
64,192,85431,1,0,0:0:0:0:
192,192,85510,1,0,0:0:0:0:
320,192,85589,1,0,0:0:0:0:
448,192,85668,1,0,0:0:0:0:
320,192,85747,1,0,0:0:0:0:
192,192,85747,1,0,0:0:0:0:
64,192,85747,1,0,0:0:0:0:
448,192,85826,1,0,0:0:0:0:
320,192,85905,1,0,0:0:0:0:
64,192,85984,1,0,0:0:0:0:
192,192,86063,1,0,0:0:0:0:
320,192,86063,1,0,0:0:0:0:
448,192,86063,1,0,0:0:0:0:
64,192,86142,1,0,0:0:0:0:
320,192,86221,1,0,0:0:0:0:
192,192,86300,1,0,0:0:0:0:
320,192,86378,1,0,0:0:0:0:
64,192,86378,1,0,0:0:0:0:
448,192,86378,1,0,0:0:0:0:
192,192,86457,1,0,0:0:0:0:
448,192,86536,1,0,0:0:0:0:
320,192,86615,1,0,0:0:0:0:
192,192,86694,1,0,0:0:0:0:
64,192,86694,1,0,0:0:0:0:
448,192,86694,1,0,0:0:0:0:
320,192,86773,1,0,0:0:0:0:
192,192,86852,1,0,0:0:0:0:
64,192,86931,1,0,0:0:0:0:
192,192,87010,1,0,0:0:0:0:
320,192,87010,1,0,0:0:0:0:
448,192,87010,1,0,0:0:0:0:
64,192,87089,1,0,0:0:0:0:
192,192,87168,1,0,0:0:0:0:
448,192,87247,1,0,0:0:0:0:
320,192,87326,1,0,0:0:0:0:
192,192,87326,1,0,0:0:0:0:
64,192,87326,1,0,0:0:0:0:
448,192,87405,1,0,0:0:0:0:
64,192,87484,1,0,0:0:0:0:
448,192,87563,1,0,0:0:0:0:
320,192,87642,1,0,0:0:0:0:
192,192,87642,1,0,0:0:0:0:
64,192,87642,1,0,0:0:0:0:
448,192,87721,1,0,0:0:0:0:
320,192,87800,1,0,0:0:0:0:
192,192,87878,1,0,0:0:0:0:
64,192,87957,1,0,0:0:0:0:
320,192,87957,1,0,0:0:0:0:
448,192,87957,1,0,0:0:0:0:
192,192,88036,1,0,0:0:0:0:
320,192,88115,1,0,0:0:0:0:
192,192,88194,1,0,0:0:0:0:
320,192,88273,1,0,0:0:0:0:
64,192,88273,1,0,0:0:0:0:
448,192,88273,1,0,0:0:0:0:
192,192,88352,1,0,0:0:0:0:
448,192,88431,1,0,0:0:0:0:
320,192,88510,1,0,0:0:0:0:
192,192,88589,1,0,0:0:0:0:
448,192,88589,1,0,0:0:0:0:
64,192,88589,1,0,0:0:0:0:
320,192,88668,1,0,0:0:0:0:
64,192,88747,1,0,0:0:0:0:
192,192,88826,1,0,0:0:0:0:
320,192,88905,1,0,0:0:0:0:
448,192,88905,1,0,0:0:0:0:
64,192,88905,1,0,0:0:0:0:
192,192,88984,1,0,0:0:0:0:
320,192,89063,1,0,0:0:0:0:
448,192,89142,1,0,0:0:0:0:
320,192,89221,1,0,0:0:0:0:
192,192,89221,1,0,0:0:0:0:
64,192,89221,1,0,0:0:0:0:
448,192,89300,1,0,0:0:0:0:
192,192,89378,1,0,0:0:0:0:
320,192,89457,1,0,0:0:0:0:
64,192,89536,1,0,0:0:0:0:
192,192,89536,1,0,0:0:0:0:
448,192,89536,1,0,0:0:0:0:
320,192,89615,1,0,0:0:0:0:
64,192,89694,1,0,0:0:0:0:
448,192,89773,1,0,0:0:0:0:
320,192,89852,1,0,0:0:0:0:
192,192,89852,1,0,0:0:0:0:
64,192,89852,1,0,0:0:0:0:
448,192,89931,1,0,0:0:0:0:
320,192,90010,1,0,0:0:0:0:
192,192,90089,1,0,0:0:0:0:
64,192,90168,1,0,0:0:0:0:
320,192,90168,1,0,0:0:0:0:
448,192,90168,1,0,0:0:0:0:
192,192,90247,1,0,0:0:0:0:
320,192,90326,1,0,0:0:0:0:
192,192,90405,1,0,0:0:0:0:
320,192,90484,1,0,0:0:0:0:
448,192,90484,1,0,0:0:0:0:
64,192,90484,128,0,91115:0:0:0:0:
192,192,90563,1,0,0:0:0:0:
320,192,90642,1,0,0:0:0:0:
448,192,90721,1,0,0:0:0:0:
320,192,90800,1,0,0:0:0:0:
192,192,90878,1,0,0:0:0:0:
320,192,90957,1,0,0:0:0:0:
448,192,91036,1,0,0:0:0:0:
320,192,91115,1,0,0:0:0:0:
192,192,91115,1,0,0:0:0:0:
192,192,91431,1,0,0:0:0:0:
320,192,91431,1,0,0:0:0:0:
448,192,91589,1,0,0:0:0:0:
192,192,91589,1,0,0:0:0:0:
320,192,91668,1,0,0:0:0:0:
64,192,91668,1,0,0:0:0:0:
192,192,91747,1,0,0:0:0:0:
448,192,91747,1,0,0:0:0:0:
320,192,91826,1,0,0:0:0:0:
192,192,91905,1,0,0:0:0:0:
64,192,91984,1,0,0:0:0:0:
192,192,92063,1,0,0:0:0:0:
320,192,92063,1,0,0:0:0:0:
448,192,92063,1,0,0:0:0:0:
64,192,92142,1,0,0:0:0:0:
448,192,92221,1,0,0:0:0:0:
320,192,92300,1,0,0:0:0:0:
192,192,92378,1,0,0:0:0:0:
448,192,92378,1,0,0:0:0:0:
64,192,92378,1,0,0:0:0:0:
320,192,92457,1,0,0:0:0:0:
192,192,92536,1,0,0:0:0:0:
448,192,92615,1,0,0:0:0:0:
320,192,92694,1,0,0:0:0:0:
192,192,92694,1,0,0:0:0:0:
64,192,92694,1,0,0:0:0:0:
448,192,92773,1,0,0:0:0:0:
64,192,92852,1,0,0:0:0:0:
192,192,92931,1,0,0:0:0:0:
320,192,93010,1,0,0:0:0:0:
64,192,93010,1,0,0:0:0:0:
448,192,93010,1,0,0:0:0:0:
192,192,93089,1,0,0:0:0:0:
320,192,93168,1,0,0:0:0:0:
64,192,93247,1,0,0:0:0:0:
192,192,93326,1,0,0:0:0:0:
320,192,93326,1,0,0:0:0:0:
448,192,93326,1,0,0:0:0:0:
64,192,93405,1,0,0:0:0:0:
320,192,93484,1,0,0:0:0:0:
192,192,93563,1,0,0:0:0:0:
320,192,93642,1,0,0:0:0:0:
64,192,93642,1,0,0:0:0:0:
448,192,93642,1,0,0:0:0:0:
192,192,93721,1,0,0:0:0:0:
64,192,93800,1,0,0:0:0:0:
448,192,93878,1,0,0:0:0:0:
320,192,93957,1,0,0:0:0:0:
192,192,93957,1,0,0:0:0:0:
64,192,93957,1,0,0:0:0:0:
448,192,94036,1,0,0:0:0:0:
192,192,94115,1,0,0:0:0:0:
320,192,94194,1,0,0:0:0:0:
192,192,94273,1,0,0:0:0:0:
448,192,94273,1,0,0:0:0:0:
64,192,94273,1,0,0:0:0:0:
320,192,94352,1,0,0:0:0:0:
448,192,94431,1,0,0:0:0:0:
64,192,94510,1,0,0:0:0:0:
192,192,94589,1,0,0:0:0:0:
320,192,94589,1,0,0:0:0:0:
448,192,94589,1,0,0:0:0:0:
64,192,94668,1,0,0:0:0:0:
448,192,94747,1,0,0:0:0:0:
64,192,94826,1,0,0:0:0:0:
192,192,94905,1,0,0:0:0:0:
320,192,94905,1,0,0:0:0:0:
448,192,94905,1,0,0:0:0:0:
64,192,94984,1,0,0:0:0:0:
320,192,95063,1,0,0:0:0:0:
192,192,95142,1,0,0:0:0:0:
320,192,95221,1,0,0:0:0:0:
64,192,95221,1,0,0:0:0:0:
448,192,95221,1,0,0:0:0:0:
192,192,95300,1,0,0:0:0:0:
320,192,95378,1,0,0:0:0:0:
64,192,95457,1,0,0:0:0:0:
192,192,95536,1,0,0:0:0:0:
320,192,95536,1,0,0:0:0:0:
448,192,95536,1,0,0:0:0:0:
64,192,95615,1,0,0:0:0:0:
448,192,95694,1,0,0:0:0:0:
320,192,95773,1,0,0:0:0:0:
192,192,95852,1,0,0:0:0:0:
64,192,95852,1,0,0:0:0:0:
448,192,95852,1,0,0:0:0:0:
320,192,95931,1,0,0:0:0:0:
192,192,96010,1,0,0:0:0:0:
320,192,96089,1,0,0:0:0:0:
192,192,96168,1,0,0:0:0:0:
64,192,96168,1,0,0:0:0:0:
448,192,96168,1,0,0:0:0:0:
320,192,96247,1,0,0:0:0:0:
448,192,96326,1,0,0:0:0:0:
192,192,96405,1,0,0:0:0:0:
320,192,96484,1,0,0:0:0:0:
64,192,96484,1,0,0:0:0:0:
448,192,96484,1,0,0:0:0:0:
192,192,96642,1,0,0:0:0:0:
320,192,96642,1,0,0:0:0:0:
64,192,96800,1,0,0:0:0:0:
448,192,96800,1,0,0:0:0:0:
192,192,96957,1,0,0:0:0:0:
64,192,96957,1,0,0:0:0:0:
448,192,96957,1,0,0:0:0:0:
320,192,97115,1,0,0:0:0:0:
192,192,97115,1,0,0:0:0:0:
448,192,97115,1,0,0:0:0:0:
64,192,97273,1,0,0:0:0:0:
320,192,97273,1,0,0:0:0:0:
448,192,97273,1,0,0:0:0:0:
320,192,97431,1,0,0:0:0:0:
192,192,97431,1,0,0:0:0:0:
64,192,97431,1,0,0:0:0:0:
64,192,97589,1,0,0:0:0:0:
192,192,97589,1,0,0:0:0:0:
448,192,97589,1,0,0:0:0:0:
192,192,97747,1,0,0:0:0:0:
320,192,97747,1,0,0:0:0:0:
448,192,97747,1,0,0:0:0:0:
192,192,97905,1,0,0:0:0:0:
64,192,97905,1,0,0:0:0:0:
320,192,97984,1,0,0:0:0:0:
448,192,97984,1,0,0:0:0:0:
192,192,98063,1,0,0:0:0:0:
64,192,98063,1,0,0:0:0:0:
192,192,98221,1,0,0:0:0:0:
448,192,98221,1,0,0:0:0:0:
320,192,98221,1,0,0:0:0:0:
320,192,98378,1,0,0:0:0:0:
64,192,98378,1,0,0:0:0:0:
448,192,98378,1,0,0:0:0:0:
320,192,98536,1,0,0:0:0:0:
192,192,98536,1,0,0:0:0:0:
64,192,98536,1,0,0:0:0:0:
192,192,98694,1,0,0:0:0:0:
448,192,98694,1,0,0:0:0:0:
64,192,98694,1,0,0:0:0:0:
192,192,98852,1,0,0:0:0:0:
320,192,98852,1,0,0:0:0:0:
448,192,98852,1,0,0:0:0:0:
320,192,99010,1,0,0:0:0:0:
448,192,99010,1,0,0:0:0:0:
64,192,99010,1,0,0:0:0:0:
320,192,99168,1,0,0:0:0:0:
192,192,99168,1,0,0:0:0:0:
64,192,99168,1,0,0:0:0:0:
64,192,99326,1,0,0:0:0:0:
192,192,99326,1,0,0:0:0:0:
320,192,99405,1,0,0:0:0:0:
448,192,99405,1,0,0:0:0:0:
192,192,99484,1,0,0:0:0:0:
64,192,99484,1,0,0:0:0:0:
320,192,99563,1,0,0:0:0:0:
448,192,99563,1,0,0:0:0:0:
192,192,99642,1,0,0:0:0:0:
64,192,99642,1,0,0:0:0:0:
320,192,99721,1,0,0:0:0:0:
448,192,99721,1,0,0:0:0:0:
192,192,99800,1,0,0:0:0:0:
64,192,99800,1,0,0:0:0:0:
320,192,99878,1,0,0:0:0:0:
448,192,99878,1,0,0:0:0:0:
192,192,99957,1,0,0:0:0:0:
64,192,99957,1,0,0:0:0:0:
320,192,100036,1,0,0:0:0:0:
448,192,100036,1,0,0:0:0:0:
64,192,100115,1,0,0:0:0:0:
192,192,100115,1,0,0:0:0:0:
320,192,100194,1,0,0:0:0:0:
448,192,100194,1,0,0:0:0:0:
192,192,100273,1,0,0:0:0:0:
64,192,100273,1,0,0:0:0:0:
320,192,100352,1,0,0:0:0:0:
448,192,100352,1,0,0:0:0:0:
192,192,100431,1,0,0:0:0:0:
64,192,100431,1,0,0:0:0:0:
320,192,100510,1,0,0:0:0:0:
448,192,100510,1,0,0:0:0:0:
64,192,100589,1,0,0:0:0:0:
192,192,100628,5,0,0:0:0:0:
448,192,100668,5,0,0:0:0:0:
320,192,100707,1,0,0:0:0:0:
64,192,100747,1,0,0:0:0:0:
192,192,100786,1,0,0:0:0:0:
448,192,100826,1,0,0:0:0:0:
320,192,100865,1,0,0:0:0:0:
64,192,100905,1,0,0:0:0:0:
192,192,100944,1,0,0:0:0:0:
448,192,100984,1,0,0:0:0:0:
320,192,101023,1,0,0:0:0:0:
64,192,101063,1,0,0:0:0:0:
192,192,101102,1,0,0:0:0:0:
448,192,101142,1,0,0:0:0:0:
320,192,101181,1,0,0:0:0:0:
64,192,101221,1,0,0:0:0:0:
192,192,101260,1,0,0:0:0:0:
448,192,101300,1,0,0:0:0:0:
320,192,101339,1,0,0:0:0:0:
64,192,101378,1,0,0:0:0:0:
192,192,101418,1,0,0:0:0:0:
448,192,101457,1,0,0:0:0:0:
320,192,101497,1,0,0:0:0:0:
192,192,101576,1,0,0:0:0:0:
64,192,101655,1,0,0:0:0:0:
448,192,101655,1,0,0:0:0:0:
320,192,101734,1,0,0:0:0:0:
192,192,101734,1,0,0:0:0:0:
64,192,101773,1,0,0:0:0:0:
448,192,101773,1,0,0:0:0:0:
192,192,101852,5,0,0:0:0:0:
320,192,101852,1,0,0:0:0:0:
320,192,102326,1,0,0:0:0:0:
192,192,102405,1,0,0:0:0:0:
64,192,102484,1,0,0:0:0:0:
192,192,102642,1,0,0:0:0:0:
320,192,102642,1,0,0:0:0:0:
192,192,102800,1,0,0:0:0:0:
320,192,102800,1,0,0:0:0:0:
448,192,102957,1,0,0:0:0:0:
192,192,103115,1,0,0:0:0:0:
64,192,103273,1,0,0:0:0:0:
448,192,103273,1,0,0:0:0:0:
64,192,103431,1,0,0:0:0:0:
448,192,103431,1,0,0:0:0:0:
192,192,103589,1,0,0:0:0:0:
320,192,103747,1,0,0:0:0:0:
64,192,103747,1,0,0:0:0:0:
192,192,104063,1,0,0:0:0:0:
320,192,104063,1,0,0:0:0:0:
192,192,104378,1,0,0:0:0:0:
320,192,104378,1,0,0:0:0:0:
64,192,104378,1,0,0:0:0:0:
192,192,104694,1,0,0:0:0:0:
448,192,104694,1,0,0:0:0:0:
192,192,105010,1,0,0:0:0:0:
64,192,105010,1,0,0:0:0:0:
448,192,105010,1,0,0:0:0:0:
192,192,105326,1,0,0:0:0:0:
320,192,105326,1,0,0:0:0:0:
64,192,105642,1,0,0:0:0:0:
320,192,105642,1,0,0:0:0:0:
448,192,105642,1,0,0:0:0:0:
64,192,105957,1,0,0:0:0:0:
448,192,105957,1,0,0:0:0:0:
192,192,106273,1,0,0:0:0:0:
320,192,106273,1,0,0:0:0:0:
448,192,106273,1,0,0:0:0:0:
192,192,106589,1,0,0:0:0:0:
64,192,106589,1,0,0:0:0:0:
64,192,106905,1,0,0:0:0:0:
448,192,106905,1,0,0:0:0:0:
64,192,107378,1,0,0:0:0:0:
192,192,107457,1,0,0:0:0:0:
320,192,107536,1,0,0:0:0:0:
64,192,107694,1,0,0:0:0:0:
448,192,107694,1,0,0:0:0:0:
448,192,107852,1,0,0:0:0:0:
64,192,107852,1,0,0:0:0:0:
192,192,108010,1,0,0:0:0:0:
448,192,108168,1,0,0:0:0:0:
320,192,108326,1,0,0:0:0:0:
192,192,108326,1,0,0:0:0:0:
192,192,108484,1,0,0:0:0:0:
320,192,108484,1,0,0:0:0:0:
64,192,108642,1,0,0:0:0:0:
192,192,108800,1,0,0:0:0:0:
448,192,108800,1,0,0:0:0:0:
320,192,109115,1,0,0:0:0:0:
64,192,109115,1,0,0:0:0:0:
192,192,109431,1,0,0:0:0:0:
320,192,109431,1,0,0:0:0:0:
64,192,109431,1,0,0:0:0:0:
320,192,109747,1,0,0:0:0:0:
448,192,109747,1,0,0:0:0:0:
320,192,110063,1,0,0:0:0:0:
192,192,110063,1,0,0:0:0:0:
448,192,110063,1,0,0:0:0:0:
64,192,110378,1,0,0:0:0:0:
448,192,110378,1,0,0:0:0:0:
320,192,110694,1,0,0:0:0:0:
64,192,110694,1,0,0:0:0:0:
448,192,110694,1,0,0:0:0:0:
320,192,111010,1,0,0:0:0:0:
192,192,111010,1,0,0:0:0:0:
64,192,111326,1,0,0:0:0:0:
448,192,111326,1,0,0:0:0:0:
320,192,111405,1,0,0:0:0:0:
192,192,111405,1,0,0:0:0:0:
64,192,111484,1,0,0:0:0:0:
448,192,111484,1,0,0:0:0:0:
192,192,111563,1,0,0:0:0:0:
320,192,111563,1,0,0:0:0:0:
64,192,111642,1,0,0:0:0:0:
448,192,111642,1,0,0:0:0:0:
64,192,111878,1,0,0:0:0:0:
448,192,111878,1,0,0:0:0:0:
64,192,111957,1,0,0:0:0:0:
448,192,111957,1,0,0:0:0:0:
192,192,112115,1,0,0:0:0:0:
320,192,112273,1,0,0:0:0:0:
64,192,112273,1,0,0:0:0:0:
192,192,112273,1,0,0:0:0:0:
448,192,112431,1,0,0:0:0:0:
192,192,112589,1,0,0:0:0:0:
64,192,112589,1,0,0:0:0:0:
320,192,112747,1,0,0:0:0:0:
192,192,112905,1,0,0:0:0:0:
64,192,112905,1,0,0:0:0:0:
448,192,112905,1,0,0:0:0:0:
320,192,113063,1,0,0:0:0:0:
320,192,113221,1,0,0:0:0:0:
192,192,113221,1,0,0:0:0:0:
192,192,113378,1,0,0:0:0:0:
320,192,113536,1,0,0:0:0:0:
64,192,113536,1,0,0:0:0:0:
448,192,113536,1,0,0:0:0:0:
192,192,113694,1,0,0:0:0:0:
320,192,113852,1,0,0:0:0:0:
448,192,113852,1,0,0:0:0:0:
64,192,114010,1,0,0:0:0:0:
192,192,114168,1,0,0:0:0:0:
320,192,114168,1,0,0:0:0:0:
448,192,114168,1,0,0:0:0:0:
64,192,114326,1,0,0:0:0:0:
192,192,114484,1,0,0:0:0:0:
448,192,114484,1,0,0:0:0:0:
320,192,114642,1,0,0:0:0:0:
192,192,114800,1,0,0:0:0:0:
448,192,114800,1,0,0:0:0:0:
64,192,114800,1,0,0:0:0:0:
320,192,114957,1,0,0:0:0:0:
192,192,115115,1,0,0:0:0:0:
64,192,115115,1,0,0:0:0:0:
64,192,115273,1,0,0:0:0:0:
192,192,115431,1,0,0:0:0:0:
320,192,115431,1,0,0:0:0:0:
448,192,115431,1,0,0:0:0:0:
64,192,115589,1,0,0:0:0:0:
192,192,115589,1,0,0:0:0:0:
320,192,115668,1,0,0:0:0:0:
448,192,115668,1,0,0:0:0:0:
192,192,115747,1,0,0:0:0:0:
64,192,115747,1,0,0:0:0:0:
320,192,115905,1,0,0:0:0:0:
192,192,116063,1,0,0:0:0:0:
64,192,116063,1,0,0:0:0:0:
448,192,116063,1,0,0:0:0:0:
320,192,116221,1,0,0:0:0:0:
192,192,116221,1,0,0:0:0:0:
64,192,116300,1,0,0:0:0:0:
448,192,116300,1,0,0:0:0:0:
192,192,116378,1,0,0:0:0:0:
320,192,116378,1,0,0:0:0:0:
320,192,116536,1,0,0:0:0:0:
448,192,116694,1,0,0:0:0:0:
192,192,116694,1,0,0:0:0:0:
64,192,116694,1,0,0:0:0:0:
448,192,116852,1,0,0:0:0:0:
192,192,117010,1,0,0:0:0:0:
320,192,117010,1,0,0:0:0:0:
448,192,117010,1,0,0:0:0:0:
64,192,117089,1,0,0:0:0:0:
192,192,117168,1,0,0:0:0:0:
448,192,117247,1,0,0:0:0:0:
64,192,117326,1,0,0:0:0:0:
192,192,117326,1,0,0:0:0:0:
320,192,117326,1,0,0:0:0:0:
448,192,117405,1,0,0:0:0:0:
320,192,117484,1,0,0:0:0:0:
192,192,117563,1,0,0:0:0:0:
64,192,117642,1,0,0:0:0:0:
320,192,117642,1,0,0:0:0:0:
448,192,117642,1,0,0:0:0:0:
192,192,117721,1,0,0:0:0:0:
320,192,117800,1,0,0:0:0:0:
64,192,117878,1,0,0:0:0:0:
448,192,117957,1,0,0:0:0:0:
192,192,117957,1,0,0:0:0:0:
320,192,117957,1,0,0:0:0:0:
64,192,118036,1,0,0:0:0:0:
192,192,118115,1,0,0:0:0:0:
320,192,118194,1,0,0:0:0:0:
64,192,118273,1,0,0:0:0:0:
192,192,118273,1,0,0:0:0:0:
448,192,118273,1,0,0:0:0:0:
320,192,118352,1,0,0:0:0:0:
192,192,118431,1,0,0:0:0:0:
64,192,118510,1,0,0:0:0:0:
192,192,118589,1,0,0:0:0:0:
448,192,118589,1,0,0:0:0:0:
320,192,118589,1,0,0:0:0:0:
64,192,118668,1,0,0:0:0:0:
192,192,118747,1,0,0:0:0:0:
448,192,118826,1,0,0:0:0:0:
64,192,118905,1,0,0:0:0:0:
320,192,118905,1,0,0:0:0:0:
192,192,118905,1,0,0:0:0:0:
448,192,118984,1,0,0:0:0:0:
320,192,119063,1,0,0:0:0:0:
64,192,119142,1,0,0:0:0:0:
192,192,119221,1,0,0:0:0:0:
320,192,119221,1,0,0:0:0:0:
448,192,119221,1,0,0:0:0:0:
64,192,119300,1,0,0:0:0:0:
448,192,119378,1,0,0:0:0:0:
64,192,119457,1,0,0:0:0:0:
320,192,119536,1,0,0:0:0:0:
192,192,119536,1,0,0:0:0:0:
448,192,119536,1,0,0:0:0:0:
192,192,119694,1,0,0:0:0:0:
64,192,119694,1,0,0:0:0:0:
448,192,119694,1,0,0:0:0:0:
320,192,119852,1,0,0:0:0:0:
192,192,119852,1,0,0:0:0:0:
64,192,119852,1,0,0:0:0:0:
192,192,120010,1,0,0:0:0:0:
320,192,120010,1,0,0:0:0:0:
448,192,120010,1,0,0:0:0:0:
320,192,120168,1,0,0:0:0:0:
448,192,120168,1,0,0:0:0:0:
64,192,120168,1,0,0:0:0:0:
192,192,120247,1,0,0:0:0:0:
320,192,120326,1,0,0:0:0:0:
448,192,120326,1,0,0:0:0:0:
192,192,120405,1,0,0:0:0:0:
64,192,120405,1,0,0:0:0:0:
320,192,120484,1,0,0:0:0:0:
448,192,120484,1,0,0:0:0:0:
192,192,120563,1,0,0:0:0:0:
64,192,120563,1,0,0:0:0:0:
320,192,120642,1,0,0:0:0:0:
448,192,120642,1,0,0:0:0:0:
192,192,120721,1,0,0:0:0:0:
64,192,120721,1,0,0:0:0:0:
320,192,120800,1,0,0:0:0:0:
64,192,120878,1,0,0:0:0:0:
448,192,120878,1,0,0:0:0:0:
320,192,120957,1,0,0:0:0:0:
192,192,120957,1,0,0:0:0:0:
64,192,121036,1,0,0:0:0:0:
448,192,121036,1,0,0:0:0:0:
320,192,121115,1,0,0:0:0:0:
192,192,121115,1,0,0:0:0:0:
64,192,121194,1,0,0:0:0:0:
448,192,121194,1,0,0:0:0:0:
192,192,121273,1,0,0:0:0:0:
320,192,121273,1,0,0:0:0:0:
448,192,121352,1,0,0:0:0:0:
64,192,121352,1,0,0:0:0:0:
192,192,121431,1,0,0:0:0:0:
320,192,121431,1,0,0:0:0:0:
448,192,121510,1,0,0:0:0:0:
64,192,121510,1,0,0:0:0:0:
320,192,121589,1,0,0:0:0:0:
192,192,121589,1,0,0:0:0:0:
448,192,121668,1,0,0:0:0:0:
64,192,121668,1,0,0:0:0:0:
192,192,121747,1,0,0:0:0:0:
320,192,121747,1,0,0:0:0:0:
64,192,121826,128,0,123326:0:0:0:0:
448,192,121826,128,0,123326:0:0:0:0:
192,192,123010,1,0,0:0:0:0:
320,192,123010,1,0,0:0:0:0:
192,192,123326,128,0,123800:0:0:0:0:
320,192,123326,128,0,123800:0:0:0:0:
448,192,123800,1,0,0:0:0:0:
64,192,123800,1,0,0:0:0:0:
320,192,123878,1,0,0:0:0:0:
192,192,123957,1,0,0:0:0:0:
448,192,123957,1,0,0:0:0:0:
192,192,124115,1,0,0:0:0:0:
320,192,124115,1,0,0:0:0:0:
192,192,124273,1,0,0:0:0:0:
320,192,124273,1,0,0:0:0:0:
64,192,124273,1,0,0:0:0:0:
320,192,124431,1,0,0:0:0:0:
448,192,124431,1,0,0:0:0:0:
192,192,124589,1,0,0:0:0:0:
64,192,124589,1,0,0:0:0:0:
448,192,124589,1,0,0:0:0:0:
320,192,124747,1,0,0:0:0:0:
192,192,124747,1,0,0:0:0:0:
64,192,124905,1,0,0:0:0:0:
320,192,124905,1,0,0:0:0:0:
448,192,124905,1,0,0:0:0:0:
192,192,125063,1,0,0:0:0:0:
448,192,125063,1,0,0:0:0:0:
64,192,125221,1,0,0:0:0:0:
192,192,125221,1,0,0:0:0:0:
320,192,125221,1,0,0:0:0:0:
448,192,125378,1,0,0:0:0:0:
320,192,125536,1,0,0:0:0:0:
192,192,125694,1,0,0:0:0:0:
64,192,125694,1,0,0:0:0:0:
192,192,125852,1,0,0:0:0:0:
320,192,125852,1,0,0:0:0:0:
448,192,125852,1,0,0:0:0:0:
192,192,126010,1,0,0:0:0:0:
448,192,126010,1,0,0:0:0:0:
448,192,126168,1,0,0:0:0:0:
320,192,126168,1,0,0:0:0:0:
64,192,126168,1,0,0:0:0:0:
192,192,126326,1,0,0:0:0:0:
64,192,126326,1,0,0:0:0:0:
192,192,126484,1,0,0:0:0:0:
320,192,126484,1,0,0:0:0:0:
448,192,126484,1,0,0:0:0:0:
448,192,126642,1,0,0:0:0:0:
64,192,126800,1,0,0:0:0:0:
320,192,126800,1,0,0:0:0:0:
448,192,126800,1,0,0:0:0:0:
320,192,126957,1,0,0:0:0:0:
320,192,127115,1,0,0:0:0:0:
192,192,127115,1,0,0:0:0:0:
64,192,127115,1,0,0:0:0:0:
192,192,127273,1,0,0:0:0:0:
64,192,127431,1,0,0:0:0:0:
320,192,127431,1,0,0:0:0:0:
448,192,127431,1,0,0:0:0:0:
64,192,127589,1,0,0:0:0:0:
320,192,127589,1,0,0:0:0:0:
192,192,127668,1,0,0:0:0:0:
448,192,127668,1,0,0:0:0:0:
320,192,127747,1,0,0:0:0:0:
64,192,127747,1,0,0:0:0:0:
192,192,127905,1,0,0:0:0:0:
448,192,127905,1,0,0:0:0:0:
320,192,127984,1,0,0:0:0:0:
64,192,127984,1,0,0:0:0:0:
192,192,128063,1,0,0:0:0:0:
448,192,128063,1,0,0:0:0:0:
192,192,128221,1,0,0:0:0:0:
448,192,128221,1,0,0:0:0:0:
64,192,128221,1,0,0:0:0:0:
448,192,128378,1,0,0:0:0:0:
320,192,128378,1,0,0:0:0:0:
64,192,128378,128,0,128694:0:0:0:0:
320,192,128694,1,0,0:0:0:0:
448,192,128694,1,0,0:0:0:0:
64,192,128852,1,0,0:0:0:0:
192,192,128931,1,0,0:0:0:0:
320,192,129010,1,0,0:0:0:0:
64,192,129010,1,0,0:0:0:0:
448,192,129010,1,0,0:0:0:0:
64,192,129247,1,0,0:0:0:0:
192,192,129247,1,0,0:0:0:0:
320,192,129247,1,0,0:0:0:0:
448,192,129484,1,0,0:0:0:0:
320,192,129484,1,0,0:0:0:0:
192,192,129484,1,0,0:0:0:0:
64,192,129642,1,0,0:0:0:0:
192,192,129642,1,0,0:0:0:0:
448,192,129642,1,0,0:0:0:0:
64,192,129800,1,0,0:0:0:0:
192,192,129800,1,0,0:0:0:0:
320,192,129800,1,0,0:0:0:0:
64,192,129957,1,0,0:0:0:0:
448,192,129957,1,0,0:0:0:0:
320,192,129957,1,0,0:0:0:0:
320,192,130115,1,0,0:0:0:0:
192,192,130115,1,0,0:0:0:0:
448,192,130115,1,0,0:0:0:0:
64,192,130273,1,0,0:0:0:0:
448,192,130273,1,0,0:0:0:0:
192,192,130273,1,0,0:0:0:0:
192,192,130431,1,0,0:0:0:0:
320,192,130431,1,0,0:0:0:0:
448,192,130589,1,0,0:0:0:0:
320,192,130747,1,0,0:0:0:0:
192,192,130747,1,0,0:0:0:0:
64,192,130747,1,0,0:0:0:0:
192,192,130905,1,0,0:0:0:0:
64,192,130905,1,0,0:0:0:0:
448,192,130905,1,0,0:0:0:0:
320,192,131063,1,0,0:0:0:0:
192,192,131063,1,0,0:0:0:0:
448,192,131063,1,0,0:0:0:0:
64,192,131221,1,0,0:0:0:0:
320,192,131221,1,0,0:0:0:0:
448,192,131221,1,0,0:0:0:0:
192,192,131378,1,0,0:0:0:0:
64,192,131378,1,0,0:0:0:0:
320,192,131378,1,0,0:0:0:0:
448,192,131536,1,0,0:0:0:0:
192,192,131536,1,0,0:0:0:0:
64,192,131536,1,0,0:0:0:0:
320,192,131694,1,0,0:0:0:0:
448,192,131694,1,0,0:0:0:0:
64,192,131773,1,0,0:0:0:0:
192,192,131852,1,0,0:0:0:0:
448,192,131852,1,0,0:0:0:0:
320,192,131931,1,0,0:0:0:0:
64,192,132010,1,0,0:0:0:0:
192,192,132010,1,0,0:0:0:0:
448,192,132089,1,0,0:0:0:0:
320,192,132168,1,0,0:0:0:0:
64,192,132168,128,0,132642:0:0:0:0:
448,192,132484,1,0,0:0:0:0:
320,192,132484,1,0,0:0:0:0:
192,192,132642,1,0,0:0:0:0:
320,192,132642,1,0,0:0:0:0:
448,192,132721,1,0,0:0:0:0:
64,192,132800,1,0,0:0:0:0:
320,192,132800,1,0,0:0:0:0:
192,192,132878,1,0,0:0:0:0:
320,192,132957,1,0,0:0:0:0:
448,192,132957,1,0,0:0:0:0:
64,192,133115,1,0,0:0:0:0:
192,192,133115,1,0,0:0:0:0:
320,192,133115,1,0,0:0:0:0:
448,192,133115,1,0,0:0:0:0:
64,192,133273,1,0,0:0:0:0:
192,192,133273,1,0,0:0:0:0:
192,192,133352,1,0,0:0:0:0:
320,192,133352,1,0,0:0:0:0:
320,192,133431,128,0,133747:0:0:0:0:
448,192,133431,128,0,133747:0:0:0:0:
192,192,133747,1,0,0:0:0:0:
64,192,133747,1,0,0:0:0:0:
192,192,133905,1,0,0:0:0:0:
320,192,133984,1,0,0:0:0:0:
192,192,134063,1,0,0:0:0:0:
448,192,134063,1,0,0:0:0:0:
64,192,134221,1,0,0:0:0:0:
320,192,134221,1,0,0:0:0:0:
192,192,134378,1,0,0:0:0:0:
320,192,134378,1,0,0:0:0:0:
448,192,134378,1,0,0:0:0:0:
192,192,134536,1,0,0:0:0:0:
64,192,134536,1,0,0:0:0:0:
192,192,134694,1,0,0:0:0:0:
320,192,134694,1,0,0:0:0:0:
448,192,134694,1,0,0:0:0:0:
64,192,134852,1,0,0:0:0:0:
448,192,134852,1,0,0:0:0:0:
192,192,135010,1,0,0:0:0:0:
64,192,135010,1,0,0:0:0:0:
448,192,135010,1,0,0:0:0:0:
320,192,135168,1,0,0:0:0:0:
192,192,135168,1,0,0:0:0:0:
64,192,135326,1,0,0:0:0:0:
320,192,135326,1,0,0:0:0:0:
448,192,135326,1,0,0:0:0:0:
448,192,135484,1,0,0:0:0:0:
192,192,135642,1,0,0:0:0:0:
320,192,135800,1,0,0:0:0:0:
448,192,135800,1,0,0:0:0:0:
192,192,135957,1,0,0:0:0:0:
64,192,135957,1,0,0:0:0:0:
320,192,135957,1,0,0:0:0:0:
448,192,136115,1,0,0:0:0:0:
64,192,136115,1,0,0:0:0:0:
192,192,136273,1,0,0:0:0:0:
448,192,136273,1,0,0:0:0:0:
320,192,136273,1,0,0:0:0:0:
192,192,136431,1,0,0:0:0:0:
64,192,136431,1,0,0:0:0:0:
64,192,136589,1,0,0:0:0:0:
320,192,136589,1,0,0:0:0:0:
448,192,136589,1,0,0:0:0:0:
64,192,136747,1,0,0:0:0:0:
192,192,136905,1,0,0:0:0:0:
320,192,136905,1,0,0:0:0:0:
448,192,136905,1,0,0:0:0:0:
192,192,137063,1,0,0:0:0:0:
64,192,137221,1,0,0:0:0:0:
320,192,137221,1,0,0:0:0:0:
448,192,137221,1,0,0:0:0:0:
320,192,137378,1,0,0:0:0:0:
448,192,137536,1,0,0:0:0:0:
192,192,137536,1,0,0:0:0:0:
64,192,137536,1,0,0:0:0:0:
192,192,137694,1,0,0:0:0:0:
320,192,137694,1,0,0:0:0:0:
64,192,137773,1,0,0:0:0:0:
448,192,137773,1,0,0:0:0:0:
320,192,137852,1,0,0:0:0:0:
192,192,137852,1,0,0:0:0:0:
64,192,138010,1,0,0:0:0:0:
448,192,138010,1,0,0:0:0:0:
320,192,138089,1,0,0:0:0:0:
192,192,138089,1,0,0:0:0:0:
64,192,138168,1,0,0:0:0:0:
448,192,138168,1,0,0:0:0:0:
320,192,138326,1,0,0:0:0:0:
192,192,138326,1,0,0:0:0:0:
64,192,138484,1,0,0:0:0:0:
448,192,138484,1,0,0:0:0:0:
192,192,138642,1,0,0:0:0:0:
64,192,138800,1,0,0:0:0:0:
448,192,138800,1,0,0:0:0:0:
448,192,138957,1,0,0:0:0:0:
64,192,138957,1,0,0:0:0:0:
320,192,139115,1,0,0:0:0:0:
320,192,139273,1,0,0:0:0:0:
192,192,139431,1,0,0:0:0:0:
64,192,139431,1,0,0:0:0:0:
448,192,139431,1,0,0:0:0:0:
64,192,139589,1,0,0:0:0:0:
192,192,139589,1,0,0:0:0:0:
448,192,139747,1,0,0:0:0:0:
192,192,139747,1,0,0:0:0:0:
320,192,139747,1,0,0:0:0:0:
448,192,139905,1,0,0:0:0:0:
64,192,140063,1,0,0:0:0:0:
320,192,140063,1,0,0:0:0:0:
320,192,140221,1,0,0:0:0:0:
64,192,140221,1,0,0:0:0:0:
192,192,140378,1,0,0:0:0:0:
320,192,140378,1,0,0:0:0:0:
448,192,140378,1,0,0:0:0:0:
64,192,140378,1,0,0:0:0:0:
192,192,140694,1,0,0:0:0:0:
320,192,140694,1,0,0:0:0:0:
448,192,140694,1,0,0:0:0:0:
64,192,140694,1,0,0:0:0:0:
64,192,140852,1,0,0:0:0:0:
192,192,140852,1,0,0:0:0:0:
320,192,140931,1,0,0:0:0:0:
448,192,140931,1,0,0:0:0:0:
192,192,141010,1,0,0:0:0:0:
64,192,141010,1,0,0:0:0:0:
320,192,141089,1,0,0:0:0:0:
448,192,141089,1,0,0:0:0:0:
192,192,141168,1,0,0:0:0:0:
64,192,141168,1,0,0:0:0:0:
320,192,141247,1,0,0:0:0:0:
448,192,141247,1,0,0:0:0:0:
192,192,141326,1,0,0:0:0:0:
64,192,141326,1,0,0:0:0:0:
320,192,141405,1,0,0:0:0:0:
448,192,141405,1,0,0:0:0:0:
192,192,141484,1,0,0:0:0:0:
64,192,141484,1,0,0:0:0:0:
320,192,141563,1,0,0:0:0:0:
448,192,141563,1,0,0:0:0:0:
192,192,141642,1,0,0:0:0:0:
64,192,141642,1,0,0:0:0:0:
320,192,141721,1,0,0:0:0:0:
448,192,141721,1,0,0:0:0:0:
192,192,141800,1,0,0:0:0:0:
64,192,141800,1,0,0:0:0:0:
448,192,141878,1,0,0:0:0:0:
320,192,141918,1,0,0:0:0:0:
192,192,141957,1,0,0:0:0:0:
64,192,141997,1,0,0:0:0:0:
320,192,142036,1,0,0:0:0:0:
448,192,142036,1,0,0:0:0:0:
192,192,142115,1,0,0:0:0:0:
64,192,142115,1,0,0:0:0:0:
320,192,142194,1,0,0:0:0:0:
448,192,142194,1,0,0:0:0:0:
64,192,142273,1,0,0:0:0:0:
192,192,142352,5,0,0:0:0:0:
320,192,142352,1,0,0:0:0:0:
64,192,142431,1,0,0:0:0:0:
448,192,142431,1,0,0:0:0:0:
320,192,142510,1,0,0:0:0:0:
192,192,142510,1,0,0:0:0:0:
64,192,142589,1,0,0:0:0:0:
448,192,142589,1,0,0:0:0:0:
320,192,142668,1,0,0:0:0:0:
192,192,142668,1,0,0:0:0:0:
64,192,142747,1,0,0:0:0:0:
448,192,142747,1,0,0:0:0:0:
320,192,142826,1,0,0:0:0:0:
192,192,142826,1,0,0:0:0:0:
64,192,142905,1,0,0:0:0:0:
448,192,142905,1,0,0:0:0:0:
320,192,142984,1,0,0:0:0:0:
192,192,142984,1,0,0:0:0:0:
64,192,143063,1,0,0:0:0:0:
448,192,143063,1,0,0:0:0:0:
192,192,143142,1,0,0:0:0:0:
320,192,143142,1,0,0:0:0:0:
64,192,143221,1,0,0:0:0:0:
448,192,143221,1,0,0:0:0:0:
320,192,143378,1,0,0:0:0:0:
192,192,143536,5,0,0:0:0:0:
320,192,143536,1,0,0:0:0:0:
448,192,143615,1,0,0:0:0:0:
320,192,143694,1,0,0:0:0:0:
64,192,143773,1,0,0:0:0:0:
192,192,143852,1,0,0:0:0:0:
320,192,143852,1,0,0:0:0:0:
448,192,143852,1,0,0:0:0:0:
64,192,143931,1,0,0:0:0:0:
320,192,144010,1,0,0:0:0:0:
192,192,144089,1,0,0:0:0:0:
320,192,144168,1,0,0:0:0:0:
64,192,144168,1,0,0:0:0:0:
448,192,144168,1,0,0:0:0:0:
192,192,144247,1,0,0:0:0:0:
320,192,144326,1,0,0:0:0:0:
64,192,144405,1,0,0:0:0:0:
192,192,144484,1,0,0:0:0:0:
320,192,144484,1,0,0:0:0:0:
448,192,144484,1,0,0:0:0:0:
64,192,144563,1,0,0:0:0:0:
192,192,144642,1,0,0:0:0:0:
320,192,144721,1,0,0:0:0:0:
448,192,144800,1,0,0:0:0:0:
192,192,144800,1,0,0:0:0:0:
64,192,144800,1,0,0:0:0:0:
320,192,144878,1,0,0:0:0:0:
448,192,144957,1,0,0:0:0:0:
320,192,145036,1,0,0:0:0:0:
192,192,145115,1,0,0:0:0:0:
64,192,145115,1,0,0:0:0:0:
448,192,145115,1,0,0:0:0:0:
320,192,145194,1,0,0:0:0:0:
192,192,145273,1,0,0:0:0:0:
320,192,145352,1,0,0:0:0:0:
192,192,145431,1,0,0:0:0:0:
64,192,145431,1,0,0:0:0:0:
448,192,145431,1,0,0:0:0:0:
320,192,145510,1,0,0:0:0:0:
192,192,145589,1,0,0:0:0:0:
64,192,145668,1,0,0:0:0:0:
192,192,145747,1,0,0:0:0:0:
320,192,145747,1,0,0:0:0:0:
448,192,145747,1,0,0:0:0:0:
64,192,145826,1,0,0:0:0:0:
192,192,145905,1,0,0:0:0:0:
448,192,145984,1,0,0:0:0:0:
320,192,146063,1,0,0:0:0:0:
192,192,146063,1,0,0:0:0:0:
64,192,146063,1,0,0:0:0:0:
448,192,146142,1,0,0:0:0:0:
320,192,146221,1,0,0:0:0:0:
192,192,146300,1,0,0:0:0:0:
64,192,146378,1,0,0:0:0:0:
320,192,146378,1,0,0:0:0:0:
448,192,146378,1,0,0:0:0:0:
192,192,146457,1,0,0:0:0:0:
64,192,146536,1,0,0:0:0:0:
448,192,146615,1,0,0:0:0:0:
320,192,146694,1,0,0:0:0:0:
192,192,146694,1,0,0:0:0:0:
64,192,146694,1,0,0:0:0:0:
448,192,146773,1,0,0:0:0:0:
320,192,146852,1,0,0:0:0:0:
192,192,146931,1,0,0:0:0:0:
64,192,147010,1,0,0:0:0:0:
320,192,147010,1,0,0:0:0:0:
448,192,147010,1,0,0:0:0:0:
192,192,147089,1,0,0:0:0:0:
320,192,147168,1,0,0:0:0:0:
448,192,147247,1,0,0:0:0:0:
320,192,147326,1,0,0:0:0:0:
192,192,147326,1,0,0:0:0:0:
64,192,147326,1,0,0:0:0:0:
448,192,147405,1,0,0:0:0:0:
320,192,147484,1,0,0:0:0:0:
192,192,147563,1,0,0:0:0:0:
64,192,147642,1,0,0:0:0:0:
320,192,147642,1,0,0:0:0:0:
448,192,147642,1,0,0:0:0:0:
192,192,147721,1,0,0:0:0:0:
448,192,147800,1,0,0:0:0:0:
64,192,147878,1,0,0:0:0:0:
192,192,147957,1,0,0:0:0:0:
320,192,147957,1,0,0:0:0:0:
448,192,147957,1,0,0:0:0:0:
64,192,148036,1,0,0:0:0:0:
320,192,148115,1,0,0:0:0:0:
192,192,148194,1,0,0:0:0:0:
320,192,148273,1,0,0:0:0:0:
64,192,148273,1,0,0:0:0:0:
448,192,148273,1,0,0:0:0:0:
192,192,148352,1,0,0:0:0:0:
64,192,148431,1,0,0:0:0:0:
448,192,148510,1,0,0:0:0:0:
320,192,148589,1,0,0:0:0:0:
192,192,148589,1,0,0:0:0:0:
64,192,148589,1,0,0:0:0:0:
448,192,148668,1,0,0:0:0:0:
320,192,148747,1,0,0:0:0:0:
192,192,148826,1,0,0:0:0:0:
64,192,148905,1,0,0:0:0:0:
448,192,148905,1,0,0:0:0:0:
320,192,148905,1,0,0:0:0:0:
192,192,148984,1,0,0:0:0:0:
320,192,149063,1,0,0:0:0:0:
448,192,149142,1,0,0:0:0:0:
320,192,149221,1,0,0:0:0:0:
192,192,149221,1,0,0:0:0:0:
64,192,149221,1,0,0:0:0:0:
448,192,149300,1,0,0:0:0:0:
320,192,149378,1,0,0:0:0:0:
192,192,149457,1,0,0:0:0:0:
64,192,149536,1,0,0:0:0:0:
320,192,149536,1,0,0:0:0:0:
448,192,149536,1,0,0:0:0:0:
192,192,149615,1,0,0:0:0:0:
448,192,149694,1,0,0:0:0:0:
320,192,149773,1,0,0:0:0:0:
64,192,149852,1,0,0:0:0:0:
192,192,149852,1,0,0:0:0:0:
448,192,149852,1,0,0:0:0:0:
320,192,149931,1,0,0:0:0:0:
192,192,150010,1,0,0:0:0:0:
64,192,150089,1,0,0:0:0:0:
192,192,150168,1,0,0:0:0:0:
320,192,150168,1,0,0:0:0:0:
448,192,150168,1,0,0:0:0:0:
64,192,150247,1,0,0:0:0:0:
320,192,150326,1,0,0:0:0:0:
192,192,150405,1,0,0:0:0:0:
320,192,150484,1,0,0:0:0:0:
64,192,150484,1,0,0:0:0:0:
448,192,150484,1,0,0:0:0:0:
192,192,150563,1,0,0:0:0:0:
448,192,150642,1,0,0:0:0:0:
64,192,150721,1,0,0:0:0:0:
192,192,150800,1,0,0:0:0:0:
320,192,150800,1,0,0:0:0:0:
448,192,150800,1,0,0:0:0:0:
64,192,150878,1,0,0:0:0:0:
192,192,150957,1,0,0:0:0:0:
320,192,151036,1,0,0:0:0:0:
448,192,151115,1,0,0:0:0:0:
192,192,151115,1,0,0:0:0:0:
64,192,151115,1,0,0:0:0:0:
320,192,151194,1,0,0:0:0:0:
192,192,151273,1,0,0:0:0:0:
320,192,151352,1,0,0:0:0:0:
192,192,151431,1,0,0:0:0:0:
64,192,151431,1,0,0:0:0:0:
448,192,151431,1,0,0:0:0:0:
320,192,151510,1,0,0:0:0:0:
448,192,151589,1,0,0:0:0:0:
64,192,151668,1,0,0:0:0:0:
192,192,151747,1,0,0:0:0:0:
320,192,151747,1,0,0:0:0:0:
448,192,151747,1,0,0:0:0:0:
64,192,151826,1,0,0:0:0:0:
192,192,151905,1,0,0:0:0:0:
320,192,151984,5,0,0:0:0:0:
448,192,152063,1,0,0:0:0:0:
192,192,152063,1,0,0:0:0:0:
64,192,152063,1,0,0:0:0:0:
320,192,152142,1,0,0:0:0:0:
192,192,152221,1,0,0:0:0:0:
64,192,152300,1,0,0:0:0:0:
192,192,152378,1,0,0:0:0:0:
320,192,152378,1,0,0:0:0:0:
448,192,152378,1,0,0:0:0:0:
64,192,152457,1,0,0:0:0:0:
448,192,152536,1,0,0:0:0:0:
320,192,152615,1,0,0:0:0:0:
192,192,152694,1,0,0:0:0:0:
64,192,152694,1,0,0:0:0:0:
448,192,152694,1,0,0:0:0:0:
64,192,153010,1,0,0:0:0:0:
320,192,153010,1,0,0:0:0:0:
448,192,153010,1,0,0:0:0:0:
192,192,153168,5,0,0:0:0:0:
64,192,153168,1,0,0:0:0:0:
320,192,153247,1,0,0:0:0:0:
448,192,153247,1,0,0:0:0:0:
64,192,153326,1,0,0:0:0:0:
192,192,153326,1,0,0:0:0:0:
64,192,153484,1,0,0:0:0:0:
448,192,153484,1,0,0:0:0:0:
320,192,153563,1,0,0:0:0:0:
192,192,153563,1,0,0:0:0:0:
64,192,153642,128,0,153957:0:0:0:0:
448,192,153642,128,0,153957:0:0:0:0:
192,192,153957,1,0,0:0:0:0:
320,192,153957,1,0,0:0:0:0:
448,192,154036,1,0,0:0:0:0:
64,192,154115,1,0,0:0:0:0:
192,192,154194,1,0,0:0:0:0:
64,192,154273,1,0,0:0:0:0:
320,192,154273,1,0,0:0:0:0:
448,192,154273,1,0,0:0:0:0:
192,192,154352,1,0,0:0:0:0:
320,192,154431,1,0,0:0:0:0:
448,192,154510,1,0,0:0:0:0:
320,192,154589,1,0,0:0:0:0:
192,192,154589,1,0,0:0:0:0:
64,192,154589,1,0,0:0:0:0:
448,192,154668,1,0,0:0:0:0:
192,192,154747,1,0,0:0:0:0:
320,192,154826,1,0,0:0:0:0:
192,192,154905,1,0,0:0:0:0:
64,192,154905,1,0,0:0:0:0:
448,192,154905,1,0,0:0:0:0:
320,192,154984,1,0,0:0:0:0:
64,192,155063,1,0,0:0:0:0:
192,192,155142,1,0,0:0:0:0:
320,192,155221,1,0,0:0:0:0:
64,192,155221,1,0,0:0:0:0:
448,192,155221,1,0,0:0:0:0:
192,192,155300,1,0,0:0:0:0:
448,192,155378,1,0,0:0:0:0:
64,192,155457,1,0,0:0:0:0:
192,192,155536,1,0,0:0:0:0:
320,192,155536,1,0,0:0:0:0:
448,192,155536,1,0,0:0:0:0:
64,192,155615,1,0,0:0:0:0:
192,192,155694,1,0,0:0:0:0:
448,192,155773,1,0,0:0:0:0:
320,192,155852,1,0,0:0:0:0:
192,192,155852,1,0,0:0:0:0:
64,192,155852,1,0,0:0:0:0:
448,192,155931,1,0,0:0:0:0:
320,192,156010,1,0,0:0:0:0:
192,192,156089,1,0,0:0:0:0:
64,192,156168,1,0,0:0:0:0:
320,192,156168,1,0,0:0:0:0:
448,192,156168,1,0,0:0:0:0:
192,192,156247,1,0,0:0:0:0:
448,192,156326,1,0,0:0:0:0:
320,192,156405,1,0,0:0:0:0:
192,192,156484,1,0,0:0:0:0:
64,192,156484,1,0,0:0:0:0:
448,192,156484,1,0,0:0:0:0:
320,192,156563,1,0,0:0:0:0:
64,192,156642,1,0,0:0:0:0:
192,192,156721,1,0,0:0:0:0:
320,192,156800,1,0,0:0:0:0:
448,192,156800,1,0,0:0:0:0:
64,192,156800,1,0,0:0:0:0:
192,192,156878,1,0,0:0:0:0:
320,192,156957,1,0,0:0:0:0:
448,192,157036,1,0,0:0:0:0:
320,192,157115,1,0,0:0:0:0:
192,192,157115,1,0,0:0:0:0:
64,192,157115,1,0,0:0:0:0:
448,192,157194,1,0,0:0:0:0:
192,192,157273,1,0,0:0:0:0:
320,192,157352,1,0,0:0:0:0:
64,192,157431,1,0,0:0:0:0:
448,192,157431,1,0,0:0:0:0:
192,192,157431,1,0,0:0:0:0:
320,192,157510,5,0,0:0:0:0:
192,192,157589,1,0,0:0:0:0:
64,192,157668,1,0,0:0:0:0:
192,192,157747,1,0,0:0:0:0:
320,192,157747,1,0,0:0:0:0:
448,192,157747,1,0,0:0:0:0:
64,192,157826,1,0,0:0:0:0:
448,192,157905,1,0,0:0:0:0:
320,192,157984,1,0,0:0:0:0:
192,192,158063,1,0,0:0:0:0:
64,192,158063,1,0,0:0:0:0:
448,192,158063,1,0,0:0:0:0:
320,192,158142,1,0,0:0:0:0:
192,192,158221,1,0,0:0:0:0:
448,192,158300,1,0,0:0:0:0:
64,192,158378,1,0,0:0:0:0:
192,192,158378,1,0,0:0:0:0:
320,192,158378,1,0,0:0:0:0:
192,192,158536,1,0,0:0:0:0:
320,192,158536,1,0,0:0:0:0:
448,192,158536,1,0,0:0:0:0:
64,192,158694,5,0,0:0:0:0:
320,192,158694,1,0,0:0:0:0:
448,192,158694,1,0,0:0:0:0:
192,192,158773,1,0,0:0:0:0:
64,192,158852,1,0,0:0:0:0:
448,192,158852,1,0,0:0:0:0:
192,192,158931,1,0,0:0:0:0:
320,192,159010,1,0,0:0:0:0:
448,192,159010,1,0,0:0:0:0:
64,192,159010,1,0,0:0:0:0:
192,192,159089,1,0,0:0:0:0:
448,192,159168,1,0,0:0:0:0:
320,192,159168,1,0,0:0:0:0:
192,192,159247,1,0,0:0:0:0:
64,192,159326,1,0,0:0:0:0:
320,192,159326,1,0,0:0:0:0:
448,192,159326,1,0,0:0:0:0:
192,192,159405,1,0,0:0:0:0:
64,192,159484,1,0,0:0:0:0:
320,192,159484,1,0,0:0:0:0:
448,192,159563,1,0,0:0:0:0:
320,192,159642,1,0,0:0:0:0:
192,192,159642,1,0,0:0:0:0:
64,192,159642,1,0,0:0:0:0:
448,192,159721,1,0,0:0:0:0:
192,192,159800,1,0,0:0:0:0:
320,192,159800,1,0,0:0:0:0:
64,192,159878,1,0,0:0:0:0:
448,192,159878,1,0,0:0:0:0:
192,192,159957,1,0,0:0:0:0:
320,192,159957,1,0,0:0:0:0:
64,192,160036,1,0,0:0:0:0:
320,192,160115,1,0,0:0:0:0:
448,192,160115,1,0,0:0:0:0:
192,192,160194,1,0,0:0:0:0:
320,192,160273,1,0,0:0:0:0:
64,192,160273,1,0,0:0:0:0:
448,192,160273,1,0,0:0:0:0:
192,192,160352,1,0,0:0:0:0:
320,192,160431,1,0,0:0:0:0:
448,192,160431,1,0,0:0:0:0:
64,192,160510,1,0,0:0:0:0:
192,192,160589,1,0,0:0:0:0:
320,192,160589,1,0,0:0:0:0:
448,192,160589,1,0,0:0:0:0:
64,192,160668,1,0,0:0:0:0:
320,192,160747,1,0,0:0:0:0:
192,192,160747,1,0,0:0:0:0:
448,192,160826,1,0,0:0:0:0:
192,192,160905,1,0,0:0:0:0:
64,192,160905,1,0,0:0:0:0:
320,192,160905,1,0,0:0:0:0:
448,192,160984,1,0,0:0:0:0:
320,192,161063,1,0,0:0:0:0:
64,192,161063,1,0,0:0:0:0:
448,192,161142,1,0,0:0:0:0:
192,192,161221,1,0,0:0:0:0:
64,192,161221,1,0,0:0:0:0:
320,192,161300,1,0,0:0:0:0:
448,192,161300,1,0,0:0:0:0:
192,192,161378,1,0,0:0:0:0:
64,192,161378,1,0,0:0:0:0:
320,192,161457,1,0,0:0:0:0:
448,192,161457,1,0,0:0:0:0:
64,192,161536,1,0,0:0:0:0:
192,192,161536,1,0,0:0:0:0:
320,192,161615,1,0,0:0:0:0:
448,192,161615,1,0,0:0:0:0:
192,192,161694,1,0,0:0:0:0:
64,192,161694,1,0,0:0:0:0:
320,192,161773,1,0,0:0:0:0:
448,192,161773,1,0,0:0:0:0:
192,192,161852,1,0,0:0:0:0:
64,192,161852,1,0,0:0:0:0:
320,192,161931,1,0,0:0:0:0:
448,192,161931,1,0,0:0:0:0:
192,192,162010,1,0,0:0:0:0:
64,192,162010,1,0,0:0:0:0:
448,192,162089,1,0,0:0:0:0:
320,192,162128,1,0,0:0:0:0:
192,192,162168,1,0,0:0:0:0:
64,192,162207,1,0,0:0:0:0:
320,192,162247,1,0,0:0:0:0:
448,192,162247,1,0,0:0:0:0:
64,192,162326,1,0,0:0:0:0:
192,192,162326,1,0,0:0:0:0:
320,192,162405,1,0,0:0:0:0:
448,192,162405,1,0,0:0:0:0:
192,192,162484,1,0,0:0:0:0:
64,192,162523,1,0,0:0:0:0:
320,192,162563,1,0,0:0:0:0:
448,192,162602,1,0,0:0:0:0:
192,192,162642,1,0,0:0:0:0:
64,192,162681,1,0,0:0:0:0:
320,192,162721,1,0,0:0:0:0:
448,192,162760,1,0,0:0:0:0:
192,192,162800,1,0,0:0:0:0:
64,192,162839,1,0,0:0:0:0:
320,192,162878,1,0,0:0:0:0:
448,192,162918,1,0,0:0:0:0:
192,192,162957,1,0,0:0:0:0:
64,192,162997,1,0,0:0:0:0:
320,192,163036,1,0,0:0:0:0:
448,192,163076,1,0,0:0:0:0:
192,192,163115,1,0,0:0:0:0:
64,192,163155,1,0,0:0:0:0:
320,192,163194,1,0,0:0:0:0:
448,192,163234,1,0,0:0:0:0:
192,192,163273,1,0,0:0:0:0:
64,192,163313,1,0,0:0:0:0:
320,192,163352,1,0,0:0:0:0:
448,192,163352,1,0,0:0:0:0:
192,192,163431,1,0,0:0:0:0:
64,192,163431,1,0,0:0:0:0:
320,192,163510,1,0,0:0:0:0:
448,192,163510,1,0,0:0:0:0:
192,192,163589,1,0,0:0:0:0:
64,192,163589,1,0,0:0:0:0:
448,192,163668,1,0,0:0:0:0:
320,192,163668,1,0,0:0:0:0:
192,192,163747,1,0,0:0:0:0:
64,192,163747,1,0,0:0:0:0:
448,192,163747,1,0,0:0:0:0:
320,192,163905,1,0,0:0:0:0:
64,192,164063,1,0,0:0:0:0:
448,192,164063,1,0,0:0:0:0:
192,192,164221,5,0,0:0:0:0:
320,192,164300,1,0,0:0:0:0:
448,192,164378,1,0,0:0:0:0:
192,192,164378,1,0,0:0:0:0:
64,192,164378,1,0,0:0:0:0:
192,192,164536,1,0,0:0:0:0:
320,192,164536,1,0,0:0:0:0:
192,192,164694,1,0,0:0:0:0:
320,192,164694,1,0,0:0:0:0:
192,192,164852,1,0,0:0:0:0:
320,192,165010,1,0,0:0:0:0:
64,192,165168,1,0,0:0:0:0:
448,192,165168,1,0,0:0:0:0:
448,192,165326,1,0,0:0:0:0:
64,192,165326,1,0,0:0:0:0:
64,192,165484,1,0,0:0:0:0:
320,192,165642,128,0,166273:0:0:0:0:
192,192,165957,1,0,0:0:0:0:
448,192,165957,1,0,0:0:0:0:
64,192,166115,1,0,0:0:0:0:
192,192,166273,1,0,0:0:0:0:
448,192,166431,1,0,0:0:0:0:
320,192,166589,1,0,0:0:0:0:
192,192,166589,1,0,0:0:0:0:
64,192,166589,1,0,0:0:0:0:
192,192,166747,1,0,0:0:0:0:
320,192,166905,1,0,0:0:0:0:
64,192,166905,1,0,0:0:0:0:
448,192,166905,1,0,0:0:0:0:
192,192,167142,1,0,0:0:0:0:
448,192,167142,1,0,0:0:0:0:
320,192,167378,1,0,0:0:0:0:
64,192,167378,1,0,0:0:0:0:
192,192,167536,1,0,0:0:0:0:
64,192,167536,1,0,0:0:0:0:
448,192,167536,1,0,0:0:0:0:
448,192,167694,1,0,0:0:0:0:
320,192,167852,1,0,0:0:0:0:
192,192,168010,1,0,0:0:0:0:
64,192,168010,1,0,0:0:0:0:
320,192,168089,1,0,0:0:0:0:
448,192,168089,1,0,0:0:0:0:
192,192,168168,1,0,0:0:0:0:
64,192,168168,1,0,0:0:0:0:
320,192,168326,1,0,0:0:0:0:
448,192,168326,1,0,0:0:0:0:
192,192,168405,1,0,0:0:0:0:
64,192,168405,1,0,0:0:0:0:
320,192,168484,1,0,0:0:0:0:
448,192,168484,1,0,0:0:0:0:
192,192,168642,1,0,0:0:0:0:
64,192,168800,1,0,0:0:0:0:
320,192,168800,1,0,0:0:0:0:
448,192,168800,1,0,0:0:0:0:
320,192,168957,1,0,0:0:0:0:
320,192,169115,1,0,0:0:0:0:
192,192,169115,1,0,0:0:0:0:
64,192,169115,1,0,0:0:0:0:
192,192,169273,1,0,0:0:0:0:
192,192,169431,1,0,0:0:0:0:
320,192,169431,1,0,0:0:0:0:
448,192,169431,1,0,0:0:0:0:
320,192,169589,1,0,0:0:0:0:
448,192,169747,1,0,0:0:0:0:
64,192,169747,1,0,0:0:0:0:
192,192,169747,1,0,0:0:0:0:
192,192,169905,1,0,0:0:0:0:
64,192,170063,1,0,0:0:0:0:
320,192,170063,1,0,0:0:0:0:
448,192,170063,1,0,0:0:0:0:
448,192,170221,1,0,0:0:0:0:
448,192,170378,1,0,0:0:0:0:
320,192,170378,1,0,0:0:0:0:
192,192,170378,1,0,0:0:0:0:
192,192,170536,1,0,0:0:0:0:
64,192,170694,1,0,0:0:0:0:
192,192,170694,1,0,0:0:0:0:
448,192,170694,1,0,0:0:0:0:
448,192,170852,1,0,0:0:0:0:
448,192,171010,1,0,0:0:0:0:
320,192,171010,1,0,0:0:0:0:
64,192,171010,1,0,0:0:0:0:
192,192,171168,1,0,0:0:0:0:
320,192,171326,1,0,0:0:0:0:
192,192,171326,1,0,0:0:0:0:
64,192,171326,1,0,0:0:0:0:
192,192,171484,1,0,0:0:0:0:
320,192,171484,1,0,0:0:0:0:
448,192,171484,1,0,0:0:0:0:
320,192,171642,1,0,0:0:0:0:
448,192,171642,1,0,0:0:0:0:
64,192,171642,1,0,0:0:0:0:
320,192,171800,1,0,0:0:0:0:
192,192,171800,1,0,0:0:0:0:
64,192,171800,1,0,0:0:0:0:
192,192,171957,1,0,0:0:0:0:
64,192,171957,1,0,0:0:0:0:
448,192,171957,1,0,0:0:0:0:
192,192,172115,1,0,0:0:0:0:
320,192,172115,1,0,0:0:0:0:
448,192,172115,1,0,0:0:0:0:
64,192,172194,1,0,0:0:0:0:
320,192,172273,1,0,0:0:0:0:
448,192,172273,1,0,0:0:0:0:
192,192,172352,1,0,0:0:0:0:
320,192,172431,1,0,0:0:0:0:
448,192,172510,1,0,0:0:0:0:
320,192,172589,1,0,0:0:0:0:
64,192,172589,128,0,173536:0:0:0:0:
192,192,173063,1,0,0:0:0:0:
320,192,173142,1,0,0:0:0:0:
448,192,173221,1,0,0:0:0:0:
192,192,173221,1,0,0:0:0:0:
320,192,173300,1,0,0:0:0:0:
192,192,173378,1,0,0:0:0:0:
320,192,173536,1,0,0:0:0:0:
448,192,173536,1,0,0:0:0:0:
192,192,173694,1,0,0:0:0:0:
320,192,173773,1,0,0:0:0:0:
64,192,173852,128,0,174168:0:0:0:0:
448,192,173852,128,0,174168:0:0:0:0:
192,192,174168,1,0,0:0:0:0:
320,192,174168,1,0,0:0:0:0:
64,192,174326,1,0,0:0:0:0:
192,192,174326,1,0,0:0:0:0:
192,192,174405,1,0,0:0:0:0:
320,192,174405,1,0,0:0:0:0:
320,192,174484,1,0,0:0:0:0:
448,192,174484,1,0,0:0:0:0:
448,192,174642,1,0,0:0:0:0:
64,192,174642,1,0,0:0:0:0:
448,192,174800,1,0,0:0:0:0:
192,192,174800,1,0,0:0:0:0:
192,192,174957,1,0,0:0:0:0:
64,192,174957,1,0,0:0:0:0:
64,192,175115,1,0,0:0:0:0:
320,192,175115,1,0,0:0:0:0:
320,192,175273,1,0,0:0:0:0:
192,192,175273,1,0,0:0:0:0:
192,192,175431,1,0,0:0:0:0:
448,192,175431,1,0,0:0:0:0:
320,192,175589,1,0,0:0:0:0:
448,192,175589,1,0,0:0:0:0:
64,192,175747,1,0,0:0:0:0:
448,192,175747,1,0,0:0:0:0:
192,192,175826,1,0,0:0:0:0:
320,192,175826,1,0,0:0:0:0:
64,192,175905,1,0,0:0:0:0:
192,192,175984,1,0,0:0:0:0:
320,192,176063,1,0,0:0:0:0:
448,192,176063,1,0,0:0:0:0:
192,192,176221,1,0,0:0:0:0:
64,192,176221,1,0,0:0:0:0:
448,192,176221,1,0,0:0:0:0:
320,192,176300,1,0,0:0:0:0:
192,192,176378,1,0,0:0:0:0:
64,192,176378,1,0,0:0:0:0:
320,192,176457,1,0,0:0:0:0:
448,192,176536,1,0,0:0:0:0:
192,192,176536,1,0,0:0:0:0:
64,192,176615,1,0,0:0:0:0:
192,192,176694,1,0,0:0:0:0:
320,192,176694,1,0,0:0:0:0:
192,192,176852,1,0,0:0:0:0:
320,192,176852,1,0,0:0:0:0:
448,192,176852,1,0,0:0:0:0:
64,192,177010,1,0,0:0:0:0:
320,192,177010,1,0,0:0:0:0:
448,192,177010,1,0,0:0:0:0:
64,192,177168,1,0,0:0:0:0:
192,192,177168,1,0,0:0:0:0:
320,192,177247,1,0,0:0:0:0:
448,192,177247,1,0,0:0:0:0:
192,192,177326,1,0,0:0:0:0:
64,192,177326,1,0,0:0:0:0:
320,192,177484,1,0,0:0:0:0:
192,192,177484,1,0,0:0:0:0:
448,192,177484,1,0,0:0:0:0:
64,192,177642,1,0,0:0:0:0:
448,192,177642,1,0,0:0:0:0:
192,192,177721,1,0,0:0:0:0:
320,192,177721,1,0,0:0:0:0:
64,192,177800,1,0,0:0:0:0:
448,192,177800,1,0,0:0:0:0:
192,192,177957,1,0,0:0:0:0:
64,192,177957,1,0,0:0:0:0:
320,192,177957,1,0,0:0:0:0:
192,192,178115,1,0,0:0:0:0:
320,192,178115,1,0,0:0:0:0:
448,192,178115,1,0,0:0:0:0:
64,192,178194,1,0,0:0:0:0:
192,192,178273,1,0,0:0:0:0:
448,192,178273,1,0,0:0:0:0:
320,192,178273,1,0,0:0:0:0:
320,192,178431,1,0,0:0:0:0:
64,192,178431,1,0,0:0:0:0:
192,192,178431,1,0,0:0:0:0:
448,192,178510,1,0,0:0:0:0:
320,192,178589,1,0,0:0:0:0:
192,192,178589,1,0,0:0:0:0:
64,192,178589,1,0,0:0:0:0:
192,192,178747,1,0,0:0:0:0:
320,192,178747,1,0,0:0:0:0:
448,192,178905,5,0,0:0:0:0:
192,192,178905,1,0,0:0:0:0:
64,192,178905,1,0,0:0:0:0:
320,192,178984,1,0,0:0:0:0:
192,192,179063,1,0,0:0:0:0:
64,192,179063,1,0,0:0:0:0:
320,192,179142,1,0,0:0:0:0:
448,192,179142,1,0,0:0:0:0:
192,192,179221,1,0,0:0:0:0:
64,192,179300,1,0,0:0:0:0:
192,192,179378,1,0,0:0:0:0:
320,192,179378,1,0,0:0:0:0:
448,192,179378,1,0,0:0:0:0:
64,192,179457,1,0,0:0:0:0:
192,192,179536,1,0,0:0:0:0:
448,192,179536,1,0,0:0:0:0:
64,192,179615,1,0,0:0:0:0:
320,192,179694,1,0,0:0:0:0:
448,192,179694,1,0,0:0:0:0:
192,192,179773,1,0,0:0:0:0:
64,192,179852,1,0,0:0:0:0:
320,192,179852,1,0,0:0:0:0:
448,192,179852,1,0,0:0:0:0:
192,192,179931,1,0,0:0:0:0:
320,192,180010,1,0,0:0:0:0:
64,192,180010,1,0,0:0:0:0:
448,192,180089,1,0,0:0:0:0:
320,192,180168,1,0,0:0:0:0:
64,192,180168,1,0,0:0:0:0:
192,192,180168,1,0,0:0:0:0:
448,192,180247,1,0,0:0:0:0:
64,192,180326,1,0,0:0:0:0:
320,192,180326,1,0,0:0:0:0:
448,192,180405,1,0,0:0:0:0:
320,192,180484,1,0,0:0:0:0:
192,192,180563,1,0,0:0:0:0:
64,192,180563,1,0,0:0:0:0:
320,192,180642,1,0,0:0:0:0:
448,192,180642,1,0,0:0:0:0:
192,192,180721,1,0,0:0:0:0:
64,192,180800,1,0,0:0:0:0:
320,192,180800,1,0,0:0:0:0:
448,192,180800,1,0,0:0:0:0:
192,192,180878,1,0,0:0:0:0:
320,192,180957,1,0,0:0:0:0:
64,192,180957,1,0,0:0:0:0:
448,192,181036,1,0,0:0:0:0:
192,192,181115,1,0,0:0:0:0:
320,192,181115,1,0,0:0:0:0:
64,192,181194,1,0,0:0:0:0:
448,192,181273,1,0,0:0:0:0:
320,192,181273,1,0,0:0:0:0:
192,192,181352,1,0,0:0:0:0:
64,192,181352,1,0,0:0:0:0:
320,192,181431,1,0,0:0:0:0:
448,192,181431,1,0,0:0:0:0:
192,192,181510,1,0,0:0:0:0:
64,192,181510,1,0,0:0:0:0:
320,192,181589,1,0,0:0:0:0:
448,192,181589,1,0,0:0:0:0:
192,192,181668,1,0,0:0:0:0:
64,192,181668,1,0,0:0:0:0:
320,192,181747,1,0,0:0:0:0:
448,192,181747,1,0,0:0:0:0:
192,192,181826,1,0,0:0:0:0:
64,192,181826,1,0,0:0:0:0:
320,192,181905,1,0,0:0:0:0:
448,192,181905,1,0,0:0:0:0:
192,192,181984,1,0,0:0:0:0:
64,192,181984,1,0,0:0:0:0:
320,192,182063,1,0,0:0:0:0:
448,192,182063,1,0,0:0:0:0:
192,192,182142,1,0,0:0:0:0:
64,192,182142,1,0,0:0:0:0:
64,192,182221,1,0,0:0:0:0:
192,192,182260,1,0,0:0:0:0:
320,192,182300,1,0,0:0:0:0:
448,192,182339,1,0,0:0:0:0:
64,192,182378,1,0,0:0:0:0:
320,192,182457,1,0,0:0:0:0:
448,192,182457,1,0,0:0:0:0:
192,192,182536,1,0,0:0:0:0:
64,192,182536,1,0,0:0:0:0:
320,192,182615,1,0,0:0:0:0:
448,192,182694,5,0,0:0:0:0:
320,192,182734,1,0,0:0:0:0:
192,192,182773,1,0,0:0:0:0:
64,192,182813,1,0,0:0:0:0:
448,192,182852,1,0,0:0:0:0:
320,192,182892,1,0,0:0:0:0:
192,192,182931,1,0,0:0:0:0:
64,192,182971,1,0,0:0:0:0:
448,192,183010,1,0,0:0:0:0:
320,192,183050,1,0,0:0:0:0:
192,192,183089,1,0,0:0:0:0:
64,192,183128,1,0,0:0:0:0:
448,192,183168,1,0,0:0:0:0:
320,192,183207,1,0,0:0:0:0:
192,192,183247,1,0,0:0:0:0:
64,192,183286,1,0,0:0:0:0:
448,192,183326,1,0,0:0:0:0:
320,192,183365,1,0,0:0:0:0:
192,192,183405,1,0,0:0:0:0:
64,192,183444,1,0,0:0:0:0:
448,192,183484,1,0,0:0:0:0:
320,192,183523,1,0,0:0:0:0:
192,192,183563,1,0,0:0:0:0:
64,192,183602,1,0,0:0:0:0:
448,192,183642,1,0,0:0:0:0:
320,192,183681,1,0,0:0:0:0:
192,192,183721,1,0,0:0:0:0:
64,192,183760,1,0,0:0:0:0:
448,192,183800,1,0,0:0:0:0:
192,192,183878,1,0,0:0:0:0:
448,192,183957,128,0,186484:0:0:0:0:
64,192,183957,128,0,186484:0:0:0:0:
