osu file format v14

[General]
AudioFilename: satori crisis.mp3
AudioLeadIn: 0
PreviewTime: -1
Countdown: 0
SampleSet: None
StackLeniency: 0.7
Mode: 1
LetterboxInBreaks: 0
WidescreenStoryboard: 0

[Editor]
DistanceSpacing: 0.9
BeatDivisor: 4
GridSize: 4
TimelineZoom: 1.2

[Metadata]
Title:Satori Crisis
TitleUnicode:Satori Crisis
Artist:Sawawa
ArtistUnicode:さわわ
Creator:[Izayoi Sakura]
Version:Inner Oni
Source:東方Project
Tags:
BeatmapID:846135
BeatmapSetID:387723

[Difficulty]
HPDrainRate:6
CircleSize:5
OverallDifficulty:5
ApproachRate:6
SliderMultiplier:1.4
SliderTickRate:1

[Events]
//Background and Video events
0,0,"BG.jpg",0,0
//Break Periods
//Storyboard Layer 0 (Background)
//Storyboard Layer 1 (Fail)
//Storyboard Layer 2 (Pass)
//Storyboard Layer 3 (Foreground)
//Storyboard Sound Samples

[TimingPoints]
765,315.789473684211,4,1,0,80,1,0
21028,-100,4,1,0,100,0,1
40922,-100,4,1,0,100,0,0
81975,-100,4,1,0,100,0,1
101870,-100,4,1,0,100,0,0
123343,-100,4,1,0,100,0,1
142449,-100,4,1,0,100,0,0
143501,-100,4,1,0,100,0,1
163712,-100,4,1,0,100,0,0
168765,-100,4,1,0,100,0,1
183975,-100,4,1,0,100,0,0

[HitObjects]
256,196,765,5,4,0:0:0:0:
256,196,1238,1,0,0:0:0:0:
256,196,1317,1,0,0:0:0:0:
256,196,1396,1,8,0:0:0:0:
256,196,1554,1,0,0:0:0:0:
256,196,1712,1,0,0:0:0:0:
256,196,1870,1,0,0:0:0:0:
256,196,2028,1,8,0:0:0:0:
256,196,2186,1,0,0:0:0:0:
256,196,2343,1,0,0:0:0:0:
256,196,2501,1,8,0:0:0:0:
256,196,2659,1,0,0:0:0:0:
256,196,3133,1,0,0:0:0:0:
256,196,3291,1,8,0:0:0:0:
256,196,3449,1,0,0:0:0:0:
256,196,3607,1,0,0:0:0:0:
256,196,3765,1,8,0:0:0:0:
256,196,3922,1,0,0:0:0:0:
256,196,4159,1,0,0:0:0:0:
256,196,4396,1,8,0:0:0:0:
256,196,4554,1,0,0:0:0:0:
256,196,5028,1,0,0:0:0:0:
256,196,5107,1,0,0:0:0:0:
256,196,5186,1,8,0:0:0:0:
256,196,5343,1,0,0:0:0:0:
256,196,5422,1,8,0:0:0:0:
256,196,5501,1,0,0:0:0:0:
256,196,5817,1,0,0:0:0:0:
256,196,6133,1,0,0:0:0:0:
256,196,6291,1,8,0:0:0:0:
256,196,6370,1,8,0:0:0:0:
256,196,6449,1,0,0:0:0:0:
256,196,6686,1,0,0:0:0:0:
256,196,6922,1,8,0:0:0:0:
256,196,7080,1,0,0:0:0:0:
256,196,7238,1,0,0:0:0:0:
256,196,7396,1,8,0:0:0:0:
256,196,7554,1,0,0:0:0:0:
256,196,7712,1,0,0:0:0:0:
256,196,8186,1,8,0:0:0:0:
256,196,8343,1,0,0:0:0:0:
256,196,8501,1,0,0:0:0:0:
256,196,8659,1,8,0:0:0:0:
256,196,8817,1,0,0:0:0:0:
256,196,8975,1,8,0:0:0:0:
256,196,9133,1,0,0:0:0:0:
256,196,9212,1,0,0:0:0:0:
256,196,9291,1,8,0:0:0:0:
256,196,9370,1,0,0:0:0:0:
256,196,9449,1,0,0:0:0:0:
256,196,9528,1,0,0:0:0:0:
256,196,9607,1,8,0:0:0:0:
256,196,9659,1,8,0:0:0:0:
256,196,9712,1,8,0:0:0:0:
256,196,9765,1,8,0:0:0:0:
256,196,9817,1,8,0:0:0:0:
256,196,9870,1,8,0:0:0:0:
256,196,9922,1,8,0:0:0:0:
256,196,10080,1,0,0:0:0:0:
256,196,10159,1,8,0:0:0:0:
256,196,10238,1,8,0:0:0:0:
256,196,10317,1,0,0:0:0:0:
256,196,10396,1,0,0:0:0:0:
256,196,10554,1,8,0:0:0:0:
256,196,10712,1,0,0:0:0:0:
256,196,10870,1,4,0:0:0:0:
256,196,11186,1,0,0:0:0:0:
256,196,11265,1,0,0:0:0:0:
256,196,11343,1,8,0:0:0:0:
256,196,11501,1,8,0:0:0:0:
256,196,11659,1,0,0:0:0:0:
256,196,11817,1,0,0:0:0:0:
256,196,11975,1,0,0:0:0:0:
256,196,12133,1,8,0:0:0:0:
256,196,12291,1,0,0:0:0:0:
256,196,12449,1,0,0:0:0:0:
256,196,12607,1,0,0:0:0:0:
256,196,12765,1,8,0:0:0:0:
256,196,12817,1,8,0:0:0:0:
256,196,12870,1,8,0:0:0:0:
256,196,12922,1,8,0:0:0:0:
256,196,12975,1,8,0:0:0:0:
256,196,13028,1,8,0:0:0:0:
256,196,13080,1,8,0:0:0:0:
256,196,13238,1,8,0:0:0:0:
256,196,13317,1,0,0:0:0:0:
256,196,13396,1,8,0:0:0:0:
256,196,13475,1,0,0:0:0:0:
256,196,13554,1,8,0:0:0:0:
256,196,13633,1,0,0:0:0:0:
256,196,13712,1,8,0:0:0:0:
256,196,13870,1,8,0:0:0:0:
256,196,13949,1,8,0:0:0:0:
256,196,14028,1,0,0:0:0:0:
256,196,14265,1,0,0:0:0:0:
256,196,14501,1,0,0:0:0:0:
256,196,14580,1,0,0:0:0:0:
256,196,14659,1,8,0:0:0:0:
256,196,14738,1,0,0:0:0:0:
256,196,14817,1,0,0:0:0:0:
256,196,14896,1,0,0:0:0:0:
256,196,14975,1,0,0:0:0:0:
256,196,15133,1,8,0:0:0:0:
256,196,15212,1,8,0:0:0:0:
256,196,15291,1,0,0:0:0:0:
256,196,15449,1,8,0:0:0:0:
256,196,15528,1,8,0:0:0:0:
256,196,15607,1,0,0:0:0:0:
256,196,15765,1,8,0:0:0:0:
256,196,15843,1,8,0:0:0:0:
256,196,15922,1,0,0:0:0:0:
256,196,16080,1,0,0:0:0:0:
256,196,16159,1,0,0:0:0:0:
256,196,16238,1,8,0:0:0:0:
256,196,16396,1,8,0:0:0:0:
256,196,16475,1,8,0:0:0:0:
256,196,16554,1,0,0:0:0:0:
256,196,16791,1,8,0:0:0:0:
256,196,16870,1,0,0:0:0:0:
256,196,17028,1,8,0:0:0:0:
256,196,17107,1,8,0:0:0:0:
256,196,17186,1,4,0:0:0:0:
256,196,17343,1,8,0:0:0:0:
256,196,17501,1,0,0:0:0:0:
256,196,17659,1,8,0:0:0:0:
256,196,17817,1,0,0:0:0:0:
256,196,17896,1,8,0:0:0:0:
256,196,17975,1,8,0:0:0:0:
256,196,18054,1,8,0:0:0:0:
256,196,18133,1,0,0:0:0:0:
256,196,18291,1,0,0:0:0:0:
256,196,18449,1,0,0:0:0:0:
256,200,18607,1,0,0:0:0:0:
256,200,18765,1,0,0:0:0:0:
256,200,18922,1,0,0:0:0:0:
256,200,19080,1,0,0:0:0:0:
256,200,19159,1,0,0:0:0:0:
256,200,19238,1,0,0:0:0:0:
256,200,19291,1,0,0:0:0:0:
256,200,19343,1,0,0:0:0:0:
256,200,19396,1,0,0:0:0:0:
256,200,19449,1,0,0:0:0:0:
256,200,19501,1,0,0:0:0:0:
256,196,19554,1,0,0:0:0:0:
256,196,19607,1,0,0:0:0:0:
256,196,19659,1,0,0:0:0:0:
256,196,19712,1,0,0:0:0:0:
240,96,20186,1,8,0:0:0:0:
240,96,20265,1,8,0:0:0:0:
240,96,20343,1,8,0:0:0:0:
240,96,20422,1,8,0:0:0:0:
240,96,20501,1,0,0:0:0:0:
240,96,20580,1,0,0:0:0:0:
240,96,20659,1,8,0:0:0:0:
240,96,20817,1,0,0:0:0:0:
240,96,20896,1,0,0:0:0:0:
240,96,20975,1,0,0:0:0:0:
240,96,21291,1,8,0:0:0:0:
240,96,21449,1,8,0:0:0:0:
240,96,21528,1,8,0:0:0:0:
240,96,21607,1,0,0:0:0:0:
240,96,21765,1,0,0:0:0:0:
240,96,21922,1,8,0:0:0:0:
240,96,22080,1,0,0:0:0:0:
240,96,22238,1,8,0:0:0:0:
240,96,22396,1,0,0:0:0:0:
240,96,22554,1,0,0:0:0:0:
240,96,22712,1,8,0:0:0:0:
240,96,22870,1,0,0:0:0:0:
309,93,23028,1,8,0:0:0:0:
309,93,23107,1,8,0:0:0:0:
309,93,23186,1,8,0:0:0:0:
309,93,23343,1,8,0:0:0:0:
309,93,23501,1,0,0:0:0:0:
309,93,23659,1,8,0:0:0:0:
309,93,23738,1,0,0:0:0:0:
309,93,23817,1,8,0:0:0:0:
309,93,23975,1,8,0:0:0:0:
309,93,24133,1,0,0:0:0:0:
309,93,24370,1,0,0:0:0:0:
309,93,24449,1,8,0:0:0:0:
309,93,24607,1,8,0:0:0:0:
309,93,24765,1,0,0:0:0:0:
309,93,25080,1,8,0:0:0:0:
309,93,25238,1,0,0:0:0:0:
309,93,25317,1,8,0:0:0:0:
309,93,25396,1,8,0:0:0:0:
309,93,25554,1,8,0:0:0:0:
309,93,25633,1,8,0:0:0:0:
309,93,25712,1,0,0:0:0:0:
309,93,25791,1,0,0:0:0:0:
309,93,25870,1,0,0:0:0:0:
309,93,25949,1,0,0:0:0:0:
309,93,26028,1,8,0:0:0:0:
309,93,26107,1,0,0:0:0:0:
309,93,26186,1,0,0:0:0:0:
309,93,26343,1,8,0:0:0:0:
309,93,26501,1,8,0:0:0:0:
309,93,26554,1,8,0:0:0:0:
309,93,26607,1,8,0:0:0:0:
309,93,26659,1,0,0:0:0:0:
309,93,26817,1,0,0:0:0:0:
309,93,26975,1,8,0:0:0:0:
309,93,27133,1,0,0:0:0:0:
309,93,27291,1,0,0:0:0:0:
309,93,27449,1,8,0:0:0:0:
309,93,27607,1,8,0:0:0:0:
309,93,27765,1,0,0:0:0:0:
309,93,27922,1,8,0:0:0:0:
309,93,27975,1,8,0:0:0:0:
309,93,28028,1,8,0:0:0:0:
309,93,28080,1,8,0:0:0:0:
309,93,28133,1,8,0:0:0:0:
309,93,28186,1,8,0:0:0:0:
309,93,28238,1,8,0:0:0:0:
309,93,28396,1,0,0:0:0:0:
309,93,28554,1,0,0:0:0:0:
309,93,28712,1,0,0:0:0:0:
309,93,28870,1,8,0:0:0:0:
309,93,28949,1,0,0:0:0:0:
309,93,29028,1,0,0:0:0:0:
309,93,29186,1,0,0:0:0:0:
309,93,29343,1,8,0:0:0:0:
309,93,29501,1,8,0:0:0:0:
309,93,29580,1,8,0:0:0:0:
309,93,29659,1,0,0:0:0:0:
309,93,29738,1,0,0:0:0:0:
309,93,29817,1,8,0:0:0:0:
309,93,29975,1,0,0:0:0:0:
309,93,30133,1,8,0:0:0:0:
309,93,30291,1,0,0:0:0:0:
309,93,30370,1,8,0:0:0:0:
309,93,30449,1,8,0:0:0:0:
309,93,30528,1,0,0:0:0:0:
309,93,30607,1,0,0:0:0:0:
309,93,30765,1,12,0:0:0:0:
309,93,30922,1,0,0:0:0:0:
309,93,31001,1,0,0:0:0:0:
309,93,31080,1,0,0:0:0:0:
309,93,31238,1,0,0:0:0:0:
309,93,31396,1,8,0:0:0:0:
309,93,31554,1,0,0:0:0:0:
309,93,31633,1,0,0:0:0:0:
309,93,31712,1,8,0:0:0:0:
309,93,31870,1,0,0:0:0:0:
309,93,32028,1,8,0:0:0:0:
309,93,32186,1,0,0:0:0:0:
309,93,32343,1,8,0:0:0:0:
309,93,32422,1,8,0:0:0:0:
309,93,32501,1,8,0:0:0:0:
309,93,32659,1,8,0:0:0:0:
309,93,32817,1,8,0:0:0:0:
309,93,32975,1,0,0:0:0:0:
309,93,33054,1,0,0:0:0:0:
309,93,33133,1,0,0:0:0:0:
309,93,33212,1,0,0:0:0:0:
309,93,33291,1,8,0:0:0:0:
309,93,33449,1,8,0:0:0:0:
309,93,33607,1,8,0:0:0:0:
309,93,33765,1,0,0:0:0:0:
309,93,33922,1,0,0:0:0:0:
309,93,34080,1,8,0:0:0:0:
309,93,34238,1,0,0:0:0:0:
309,93,34475,1,0,0:0:0:0:
309,93,34554,1,8,0:0:0:0:
309,93,34712,1,8,0:0:0:0:
309,93,34870,1,4,0:0:0:0:
309,93,35186,1,4,0:0:0:0:
309,93,35343,1,0,0:0:0:0:
309,93,35422,1,0,0:0:0:0:
309,93,35501,1,8,0:0:0:0:
309,93,35659,1,0,0:0:0:0:
309,93,35738,1,8,0:0:0:0:
309,93,35817,1,0,0:0:0:0:
309,93,35975,1,0,0:0:0:0:
309,93,36133,1,0,0:0:0:0:
309,93,36450,1,8,0:0:0:0:
309,93,36607,1,0,0:0:0:0:
309,93,36659,1,8,0:0:0:0:
309,93,36712,1,8,0:0:0:0:
309,93,36765,1,0,0:0:0:0:
309,93,37001,1,0,0:0:0:0:
309,93,37080,1,8,0:0:0:0:
309,93,37238,1,0,0:0:0:0:
309,93,37396,1,8,0:0:0:0:
309,93,37554,1,8,0:0:0:0:
309,93,37712,1,0,0:0:0:0:
309,93,37870,1,0,0:0:0:0:
309,93,38028,1,8,0:0:0:0:
309,93,38080,1,8,0:0:0:0:
309,93,38133,1,8,0:0:0:0:
309,93,38186,1,8,0:0:0:0:
309,93,38343,1,0,0:0:0:0:
309,93,38501,1,0,0:0:0:0:
309,93,38659,1,8,0:0:0:0:
309,93,38817,1,0,0:0:0:0:
309,93,38975,1,0,0:0:0:0:
309,93,39133,1,0,0:0:0:0:
309,93,39291,1,8,0:0:0:0:
309,93,39449,1,0,0:0:0:0:
309,93,39607,1,0,0:0:0:0:
309,93,39686,1,8,0:0:0:0:
309,93,39765,1,0,0:0:0:0:
309,93,39843,1,8,0:0:0:0:
309,93,39922,1,8,0:0:0:0:
309,93,40001,1,8,0:0:0:0:
309,93,40080,1,8,0:0:0:0:
309,93,40159,1,8,0:0:0:0:
309,93,40238,1,8,0:0:0:0:
309,93,40396,1,8,0:0:0:0:
309,93,40475,1,8,0:0:0:0:
309,93,40554,1,8,0:0:0:0:
309,93,40633,1,8,0:0:0:0:
309,93,40712,1,0,0:0:0:0:
309,93,40870,1,12,0:0:0:0:
309,93,41186,1,0,0:0:0:0:
309,93,41343,1,0,0:0:0:0:
309,93,41422,1,0,0:0:0:0:
309,93,41501,1,8,0:0:0:0:
309,93,41659,1,8,0:0:0:0:
309,93,41738,1,0,0:0:0:0:
309,93,41817,1,0,0:0:0:0:
309,93,41896,1,8,0:0:0:0:
309,93,41975,1,8,0:0:0:0:
309,93,42133,1,8,0:0:0:0:
309,93,42291,1,0,0:0:0:0:
309,93,42370,1,8,0:0:0:0:
309,93,42449,1,8,0:0:0:0:
309,93,42607,1,8,0:0:0:0:
309,93,42686,1,8,0:0:0:0:
309,93,42765,1,8,0:0:0:0:
309,93,42922,1,8,0:0:0:0:
309,93,43001,1,8,0:0:0:0:
309,93,43080,1,8,0:0:0:0:
309,93,43159,1,8,0:0:0:0:
309,93,43238,1,8,0:0:0:0:
309,93,43317,1,8,0:0:0:0:
309,93,43396,1,0,0:0:0:0:
309,93,43554,1,8,0:0:0:0:
309,93,43712,1,0,0:0:0:0:
309,93,43949,1,8,0:0:0:0:
309,93,44028,1,0,0:0:0:0:
309,93,44186,1,0,0:0:0:0:
309,93,44265,1,8,0:0:0:0:
309,93,44343,1,0,0:0:0:0:
309,93,44422,1,0,0:0:0:0:
309,93,44501,1,8,0:0:0:0:
309,93,44580,1,8,0:0:0:0:
309,93,44659,1,0,0:0:0:0:
309,93,44738,1,0,0:0:0:0:
309,93,44817,1,8,0:0:0:0:
309,93,44975,1,4,0:0:0:0:
309,93,45133,1,0,0:0:0:0:
309,93,45212,1,8,0:0:0:0:
309,93,45370,1,0,0:0:0:0:
309,93,45449,1,8,0:0:0:0:
309,93,45528,1,0,0:0:0:0:
309,93,45607,1,8,0:0:0:0:
309,93,45765,1,8,0:0:0:0:
309,93,45922,1,0,0:0:0:0:
309,93,46001,1,0,0:0:0:0:
309,93,46080,1,8,0:0:0:0:
309,93,46238,1,4,0:0:0:0:
309,93,46343,1,0,0:0:0:0:
309,93,46449,1,0,0:0:0:0:
309,93,46554,1,0,0:0:0:0:
309,93,46659,1,8,0:0:0:0:
309,93,46765,1,8,0:0:0:0:
309,93,46870,1,8,0:0:0:0:
309,93,46975,1,8,0:0:0:0:
309,93,47080,1,0,0:0:0:0:
309,93,47186,1,0,0:0:0:0:
309,93,47291,1,0,0:0:0:0:
309,93,47396,1,0,0:0:0:0:
309,93,47501,1,8,0:0:0:0:
309,93,47607,1,0,0:0:0:0:
309,93,47712,1,0,0:0:0:0:
309,93,47817,1,0,0:0:0:0:
309,93,47975,1,0,0:0:0:0:
309,93,48133,1,8,0:0:0:0:
309,93,48212,1,8,0:0:0:0:
309,93,48291,1,8,0:0:0:0:
309,93,48449,1,0,0:0:0:0:
309,93,48607,1,0,0:0:0:0:
309,93,48686,1,0,0:0:0:0:
309,93,48765,1,8,0:0:0:0:
309,93,48843,1,0,0:0:0:0:
309,93,48922,1,8,0:0:0:0:
309,93,49001,1,8,0:0:0:0:
309,93,49080,1,0,0:0:0:0:
309,93,49159,1,8,0:0:0:0:
309,93,49238,1,0,0:0:0:0:
309,93,49317,1,8,0:0:0:0:
309,93,49396,1,0,0:0:0:0:
309,93,49475,1,0,0:0:0:0:
309,93,49554,1,8,0:0:0:0:
309,93,49633,1,8,0:0:0:0:
309,93,49712,1,0,0:0:0:0:
309,93,49791,1,8,0:0:0:0:
309,93,49870,1,8,0:0:0:0:
309,93,49949,1,8,0:0:0:0:
309,93,50028,1,0,0:0:0:0:
309,93,50107,1,0,0:0:0:0:
309,93,50186,1,0,0:0:0:0:
309,93,50265,1,0,0:0:0:0:
309,93,50343,1,0,0:0:0:0:
309,93,50396,1,0,0:0:0:0:
309,93,50449,1,0,0:0:0:0:
309,93,50501,1,0,0:0:0:0:
309,93,50659,1,8,0:0:0:0:
309,93,50817,1,8,0:0:0:0:
309,93,50870,1,8,0:0:0:0:
309,93,50922,1,8,0:0:0:0:
309,93,50975,1,8,0:0:0:0:
309,93,51133,1,8,0:0:0:0:
309,93,51291,1,0,0:0:0:0:
256,192,51528,1,0,0:0:0:0:
256,192,51607,1,8,0:0:0:0:
256,192,51765,1,8,0:0:0:0:
256,192,51843,1,0,0:0:0:0:
256,192,52001,1,0,0:0:0:0:
256,192,52080,1,0,0:0:0:0:
256,192,52159,1,0,0:0:0:0:
256,192,52238,1,8,0:0:0:0:
256,192,52396,1,8,0:0:0:0:
256,192,52475,1,8,0:0:0:0:
256,192,52554,1,0,0:0:0:0:
256,192,52712,1,0,0:0:0:0:
256,192,52791,1,8,0:0:0:0:
256,192,52870,1,8,0:0:0:0:
256,192,53028,1,8,0:0:0:0:
256,192,53107,1,0,0:0:0:0:
256,192,53265,1,0,0:0:0:0:
256,192,53343,1,8,0:0:0:0:
256,192,53422,1,0,0:0:0:0:
256,192,53501,1,8,0:0:0:0:
256,192,53659,1,8,0:0:0:0:
256,192,53738,1,0,0:0:0:0:
256,192,53896,1,0,0:0:0:0:
256,192,53975,1,8,0:0:0:0:
256,192,54054,1,8,0:0:0:0:
256,192,54133,1,0,0:0:0:0:
256,192,54291,1,8,0:0:0:0:
256,192,54370,1,0,0:0:0:0:
256,192,54449,1,0,0:0:0:0:
256,192,54528,1,0,0:0:0:0:
256,192,54607,1,8,0:0:0:0:
256,192,54765,1,8,0:0:0:0:
256,192,54843,1,8,0:0:0:0:
256,192,54923,1,0,0:0:0:0:
256,192,55080,1,0,0:0:0:0:
256,192,55317,1,8,0:0:0:0:
256,192,55396,1,0,0:0:0:0:
256,192,55633,1,8,0:0:0:0:
256,192,55712,1,0,0:0:0:0:
256,192,55870,1,0,0:0:0:0:
256,192,55949,1,0,0:0:0:0:
256,192,56028,1,8,0:0:0:0:
256,192,56238,1,0,0:0:0:0:
256,192,56343,1,0,0:0:0:0:
256,192,56449,1,0,0:0:0:0:
256,192,56554,1,0,0:0:0:0:
256,192,56659,1,8,0:0:0:0:
256,192,56765,1,8,0:0:0:0:
256,192,56870,1,8,0:0:0:0:
256,192,56975,1,8,0:0:0:0:
256,192,57080,1,0,0:0:0:0:
256,192,57186,1,0,0:0:0:0:
256,192,57291,1,0,0:0:0:0:
256,192,57396,1,0,0:0:0:0:
256,192,57501,1,0,0:0:0:0:
256,192,57607,1,8,0:0:0:0:
256,192,57686,1,8,0:0:0:0:
256,192,57765,1,8,0:0:0:0:
256,192,57843,1,8,0:0:0:0:
256,192,57922,1,8,0:0:0:0:
256,192,58001,1,0,0:0:0:0:
256,192,58080,1,0,0:0:0:0:
256,192,58159,1,0,0:0:0:0:
256,192,58238,1,8,0:0:0:0:
256,192,58396,1,0,0:0:0:0:
256,192,58475,1,8,0:0:0:0:
256,192,58554,1,8,0:0:0:0:
256,192,58633,1,8,0:0:0:0:
256,192,58712,1,8,0:0:0:0:
256,192,58791,1,0,0:0:0:0:
256,192,58870,1,0,0:0:0:0:
256,192,58949,1,8,0:0:0:0:
256,192,59028,1,8,0:0:0:0:
256,192,59107,1,8,0:0:0:0:
256,192,59186,1,0,0:0:0:0:
256,192,59265,1,0,0:0:0:0:
256,192,59343,1,0,0:0:0:0:
256,192,59501,1,0,0:0:0:0:
256,192,59580,1,0,0:0:0:0:
256,192,59659,1,8,0:0:0:0:
256,192,59738,1,0,0:0:0:0:
256,192,59817,1,8,0:0:0:0:
256,192,59896,1,8,0:0:0:0:
256,192,59975,1,8,0:0:0:0:
256,192,60133,12,0,61238,0:0:0:0:
256,192,61396,5,12,0:0:0:0:
256,192,62028,1,0,0:0:0:0:
256,192,62343,1,8,0:0:0:0:
256,192,62659,1,0,0:0:0:0:
256,192,63607,1,0,0:0:0:0:
256,192,63765,1,0,0:0:0:0:
256,192,63922,1,8,0:0:0:0:
256,192,64238,1,0,0:0:0:0:
256,192,64396,1,8,0:0:0:0:
256,192,64554,1,0,0:0:0:0:
256,192,64870,1,0,0:0:0:0:
256,192,65186,1,8,0:0:0:0:
256,192,65817,1,0,0:0:0:0:
256,192,66291,1,0,0:0:0:0:
256,192,66449,1,0,0:0:0:0:
256,192,66765,1,0,0:0:0:0:
256,192,66922,1,8,0:0:0:0:
256,192,67396,1,8,0:0:0:0:
256,192,67712,1,0,0:0:0:0:
256,192,68028,1,0,0:0:0:0:
256,192,68186,1,8,0:0:0:0:
256,192,68659,1,0,0:0:0:0:
256,192,68975,1,0,0:0:0:0:
256,192,69291,1,0,0:0:0:0:
256,192,69449,1,8,0:0:0:0:
256,192,69922,1,0,0:0:0:0:
256,192,70238,1,8,0:0:0:0:
256,192,70870,1,0,0:0:0:0:
256,192,71501,1,4,0:0:0:0:
256,192,71817,1,0,0:0:0:0:
256,192,71975,1,0,0:0:0:0:
256,192,72133,1,8,0:0:0:0:
256,192,72291,1,0,0:0:0:0:
256,192,72449,1,0,0:0:0:0:
256,192,72607,1,0,0:0:0:0:
256,192,72765,1,0,0:0:0:0:
256,192,72922,1,0,0:0:0:0:
256,192,73001,1,0,0:0:0:0:
256,192,73080,1,8,0:0:0:0:
256,192,73238,1,0,0:0:0:0:
256,192,73396,1,0,0:0:0:0:
256,192,73475,1,0,0:0:0:0:
256,192,73554,1,0,0:0:0:0:
256,192,73633,1,0,0:0:0:0:
256,192,73712,1,8,0:0:0:0:
256,192,73870,1,0,0:0:0:0:
256,192,74028,1,0,0:0:0:0:
256,192,74186,1,0,0:0:0:0:
256,192,74343,1,8,0:0:0:0:
256,192,74501,1,0,0:0:0:0:
256,192,74659,1,0,0:0:0:0:
256,192,74817,1,8,0:0:0:0:
256,192,74896,1,0,0:0:0:0:
256,192,74975,1,8,0:0:0:0:
256,192,75133,1,0,0:0:0:0:
256,192,75291,1,0,0:0:0:0:
256,192,75449,1,0,0:0:0:0:
256,192,75607,1,0,0:0:0:0:
256,192,75686,1,0,0:0:0:0:
256,192,75765,1,8,0:0:0:0:
256,192,75922,1,0,0:0:0:0:
256,192,76080,1,8,0:0:0:0:
256,192,76238,1,0,0:0:0:0:
256,192,76396,1,8,0:0:0:0:
256,192,76554,1,0,0:0:0:0:
256,192,76870,1,0,0:0:0:0:
256,192,77028,1,0,0:0:0:0:
256,192,77501,1,8,0:0:0:0:
256,192,77659,1,0,0:0:0:0:
256,192,77817,1,4,0:0:0:0:
256,192,78133,1,0,0:0:0:0:
256,192,78212,1,0,0:0:0:0:
256,192,78291,1,8,0:0:0:0:
256,192,78449,1,8,0:0:0:0:
256,192,78607,1,8,0:0:0:0:
256,192,78765,1,0,0:0:0:0:
256,192,78922,1,8,0:0:0:0:
256,192,79080,1,8,0:0:0:0:
256,192,79238,1,0,0:0:0:0:
256,192,79317,1,0,0:0:0:0:
256,192,79396,1,8,0:0:0:0:
256,192,79475,1,0,0:0:0:0:
256,192,79554,1,8,0:0:0:0:
256,192,79633,1,0,0:0:0:0:
256,192,79712,1,0,0:0:0:0:
256,192,79791,1,0,0:0:0:0:
256,192,79870,1,0,0:0:0:0:
256,192,79949,1,0,0:0:0:0:
256,192,80028,1,8,0:0:0:0:
256,192,80107,1,0,0:0:0:0:
256,192,80186,1,0,0:0:0:0:
256,192,80265,1,0,0:0:0:0:
256,192,80343,1,8,0:0:0:0:
24,228,80501,2,0,L|148:128,1,140
256,192,80975,12,0,81449,0:0:0:0:
256,192,81607,5,8,0:0:0:0:
88,108,81922,1,0,0:0:0:0:
88,108,82159,1,0,0:0:0:0:
88,108,82238,1,8,0:0:0:0:
88,108,82396,1,8,0:0:0:0:
88,108,82554,1,0,0:0:0:0:
88,108,82870,1,8,0:0:0:0:
88,108,83186,1,0,0:0:0:0:
0,128,83343,1,8,0:0:0:0:
88,108,83501,1,0,0:0:0:0:
88,108,83817,1,0,0:0:0:0:
0,128,83975,1,0,0:0:0:0:
88,108,84133,1,8,0:0:0:0:
88,108,84449,1,0,0:0:0:0:
0,128,84607,1,8,0:0:0:0:
88,108,84765,1,0,0:0:0:0:
88,108,85080,1,0,0:0:0:0:
88,108,85396,1,8,0:0:0:0:
0,128,85475,1,0,0:0:0:0:
0,128,85633,1,0,0:0:0:0:
88,108,85712,1,0,0:0:0:0:
0,128,85870,1,8,0:0:0:0:
88,108,85949,1,8,0:0:0:0:
88,108,86028,1,0,0:0:0:0:
0,128,86186,1,8,0:0:0:0:
88,108,86343,1,0,0:0:0:0:
0,128,86501,1,8,0:0:0:0:
88,108,86659,1,0,0:0:0:0:
0,128,86738,1,0,0:0:0:0:
0,128,86896,1,8,0:0:0:0:
88,108,86975,1,8,0:0:0:0:
0,128,87133,1,8,0:0:0:0:
88,108,87291,1,0,0:0:0:0:
0,128,87528,1,0,0:0:0:0:
88,108,87607,1,8,0:0:0:0:
0,128,87765,1,0,0:0:0:0:
88,108,87922,1,0,0:0:0:0:
0,128,88001,1,8,0:0:0:0:
0,128,88159,1,8,0:0:0:0:
88,108,88238,1,0,0:0:0:0:
0,128,88396,1,8,0:0:0:0:
88,108,88554,1,8,0:0:0:0:
0,128,88633,1,8,0:0:0:0:
0,128,88712,1,8,0:0:0:0:
88,108,88870,1,0,0:0:0:0:
88,108,89186,1,0,0:0:0:0:
0,128,89343,1,0,0:0:0:0:
88,108,89501,1,0,0:0:0:0:
0,128,89580,1,0,0:0:0:0:
0,128,89659,1,8,0:0:0:0:
88,108,89817,1,8,0:0:0:0:
0,128,89896,1,8,0:0:0:0:
0,128,90054,1,8,0:0:0:0:
88,108,90133,1,0,0:0:0:0:
0,128,90291,1,0,0:0:0:0:
88,108,90449,1,0,0:0:0:0:
0,128,90528,1,0,0:0:0:0:
0,128,90607,1,8,0:0:0:0:
88,108,90765,1,8,0:0:0:0:
0,128,90843,1,8,0:0:0:0:
0,128,90922,1,8,0:0:0:0:
88,108,91080,1,0,0:0:0:0:
88,108,91396,1,0,0:0:0:0:
88,108,91554,1,0,0:0:0:0:
88,108,91712,1,4,0:0:0:0:
88,108,92028,1,0,0:0:0:0:
88,108,92186,1,0,0:0:0:0:
88,108,92343,1,8,0:0:0:0:
88,108,92422,1,0,0:0:0:0:
88,108,92501,1,0,0:0:0:0:
88,108,92659,1,0,0:0:0:0:
88,108,92817,1,0,0:0:0:0:
88,108,92975,1,8,0:0:0:0:
88,108,93054,1,0,0:0:0:0:
88,108,93212,1,0,0:0:0:0:
88,108,93291,1,0,0:0:0:0:
88,108,93370,1,0,0:0:0:0:
88,108,93450,1,8,0:0:0:0:
88,108,93528,1,0,0:0:0:0:
88,108,93607,1,8,0:0:0:0:
88,108,93686,1,0,0:0:0:0:
88,108,93765,1,0,0:0:0:0:
88,108,93843,1,0,0:0:0:0:
88,108,93922,1,0,0:0:0:0:
88,108,94080,1,0,0:0:0:0:
88,108,94238,1,8,0:0:0:0:
88,108,94554,1,8,0:0:0:0:
88,108,94712,1,0,0:0:0:0:
88,108,94791,1,0,0:0:0:0:
88,108,94870,1,0,0:0:0:0:
88,108,95107,1,8,0:0:0:0:
88,108,95186,1,0,0:0:0:0:
88,108,95343,1,0,0:0:0:0:
88,108,95501,1,8,0:0:0:0:
88,108,95580,1,0,0:0:0:0:
88,108,95659,1,0,0:0:0:0:
88,108,95738,1,0,0:0:0:0:
88,108,95817,1,8,0:0:0:0:
88,108,95896,1,0,0:0:0:0:
88,108,95975,1,0,0:0:0:0:
88,108,96133,1,0,0:0:0:0:
88,108,96370,1,8,0:0:0:0:
88,108,96449,1,0,0:0:0:0:
88,108,96607,1,0,0:0:0:0:
88,108,96686,1,0,0:0:0:0:
88,108,96765,1,0,0:0:0:0:
88,108,96843,1,0,0:0:0:0:
88,108,96922,1,8,0:0:0:0:
88,108,97001,1,8,0:0:0:0:
88,108,97080,1,0,0:0:0:0:
88,108,97159,1,0,0:0:0:0:
88,108,97238,1,8,0:0:0:0:
88,108,97317,1,0,0:0:0:0:
88,108,97396,1,0,0:0:0:0:
88,108,97475,1,0,0:0:0:0:
88,108,97554,1,8,0:0:0:0:
88,108,97633,1,0,0:0:0:0:
88,108,97712,1,0,0:0:0:0:
88,108,97791,1,0,0:0:0:0:
88,108,97870,1,8,0:0:0:0:
88,108,97949,1,0,0:0:0:0:
88,108,98028,1,8,0:0:0:0:
88,108,98107,1,0,0:0:0:0:
88,108,98186,1,8,0:0:0:0:
88,108,98265,1,0,0:0:0:0:
88,108,98343,1,0,0:0:0:0:
88,108,98422,1,0,0:0:0:0:
88,108,98501,1,8,0:0:0:0:
88,108,98659,1,8,0:0:0:0:
88,108,98817,1,0,0:0:0:0:
88,108,98975,1,0,0:0:0:0:
88,108,99133,1,0,0:0:0:0:
88,108,99212,1,0,0:0:0:0:
88,108,99291,1,0,0:0:0:0:
88,108,99449,1,0,0:0:0:0:
88,108,99528,1,0,0:0:0:0:
88,108,99608,1,0,0:0:0:0:
88,108,99659,1,0,0:0:0:0:
88,108,99712,1,0,0:0:0:0:
88,108,99765,1,0,0:0:0:0:
88,108,99922,1,0,0:0:0:0:
0,132,100080,1,0,0:0:0:0:
0,132,100133,1,0,0:0:0:0:
0,132,100186,1,0,0:0:0:0:
88,108,100238,1,0,0:0:0:0:
88,108,100554,1,12,0:0:0:0:
88,108,101186,1,4,0:0:0:0:
88,108,101501,1,0,0:0:0:0:
88,108,101580,1,0,0:0:0:0:
88,108,101659,1,0,0:0:0:0:
88,108,101817,1,4,0:0:0:0:
264,104,102133,1,8,0:0:0:0:
264,104,102449,1,0,0:0:0:0:
264,104,102607,1,0,0:0:0:0:
264,104,102765,1,8,0:0:0:0:
264,104,102922,1,0,0:0:0:0:
264,104,103080,1,0,0:0:0:0:
264,104,103396,1,8,0:0:0:0:
264,104,103554,1,0,0:0:0:0:
264,104,103712,1,0,0:0:0:0:
264,104,104028,1,8,0:0:0:0:
264,104,104343,1,8,0:0:0:0:
264,104,104501,1,0,0:0:0:0:
264,104,104817,1,0,0:0:0:0:
264,104,105133,1,0,0:0:0:0:
264,104,105449,1,0,0:0:0:0:
264,104,105765,1,0,0:0:0:0:
264,104,105922,1,8,0:0:0:0:
264,104,106238,1,8,0:0:0:0:
264,104,106396,1,0,0:0:0:0:
264,104,106712,1,0,0:0:0:0:
264,104,106870,1,8,0:0:0:0:
264,104,107028,1,0,0:0:0:0:
264,104,107343,1,0,0:0:0:0:
264,104,107422,1,0,0:0:0:0:
264,104,107501,1,8,0:0:0:0:
264,104,107659,1,0,0:0:0:0:
264,104,107817,1,0,0:0:0:0:
264,104,107975,1,0,0:0:0:0:
264,104,108133,1,8,0:0:0:0:
264,104,108291,1,8,0:0:0:0:
264,104,108449,1,0,0:0:0:0:
264,104,108607,1,0,0:0:0:0:
264,104,108765,1,8,0:0:0:0:
264,104,109080,1,8,0:0:0:0:
264,104,109238,1,0,0:0:0:0:
264,104,109554,1,0,0:0:0:0:
264,104,109870,1,0,0:0:0:0:
264,104,110186,1,0,0:0:0:0:
264,104,110501,1,0,0:0:0:0:
264,104,110659,1,12,0:0:0:0:
264,104,110817,1,0,0:0:0:0:
264,104,111133,1,0,0:0:0:0:
264,104,111291,1,8,0:0:0:0:
264,104,111370,1,8,0:0:0:0:
264,104,111449,1,0,0:0:0:0:
264,104,111528,1,8,0:0:0:0:
264,104,111607,1,8,0:0:0:0:
264,104,111765,1,0,0:0:0:0:
264,104,111922,1,8,0:0:0:0:
116,272,112238,1,8,0:0:0:0:
264,104,112396,1,0,0:0:0:0:
264,104,112475,1,8,0:0:0:0:
264,104,112554,1,8,0:0:0:0:
264,104,112712,1,0,0:0:0:0:
116,272,112870,1,8,0:0:0:0:
264,104,113028,1,0,0:0:0:0:
264,104,113186,1,8,0:0:0:0:
264,104,113343,1,0,0:0:0:0:
116,272,113501,1,8,0:0:0:0:
264,104,113659,1,0,0:0:0:0:
264,104,113817,1,8,0:0:0:0:
264,104,113896,1,8,0:0:0:0:
264,104,113975,1,0,0:0:0:0:
116,272,114133,1,8,0:0:0:0:
264,104,114291,1,0,0:0:0:0:
264,104,114449,1,8,0:0:0:0:
116,272,114607,1,0,0:0:0:0:
116,272,114765,1,8,0:0:0:0:
116,272,115080,1,0,0:0:0:0:
116,272,115238,1,0,0:0:0:0:
116,272,115396,1,8,0:0:0:0:
116,272,115712,1,0,0:0:0:0:
116,272,115870,1,0,0:0:0:0:
116,272,115949,1,0,0:0:0:0:
116,272,116028,1,8,0:0:0:0:
116,272,116343,1,0,0:0:0:0:
116,272,116422,1,0,0:0:0:0:
116,272,116501,1,0,0:0:0:0:
116,272,116659,1,8,0:0:0:0:
116,272,116817,1,0,0:0:0:0:
116,272,116975,1,8,0:0:0:0:
116,272,117291,1,8,0:0:0:0:
116,272,117449,1,0,0:0:0:0:
116,272,117528,1,0,0:0:0:0:
116,272,117607,1,8,0:0:0:0:
116,272,117765,1,0,0:0:0:0:
116,272,117922,1,8,0:0:0:0:
116,272,118080,1,0,0:0:0:0:
116,272,118238,1,4,0:0:0:0:
116,272,118396,1,0,0:0:0:0:
116,272,118554,1,8,0:0:0:0:
116,272,118712,1,0,0:0:0:0:
116,272,118870,1,0,0:0:0:0:
116,272,118949,1,0,0:0:0:0:
116,272,119028,1,0,0:0:0:0:
116,272,119186,1,8,0:0:0:0:
116,272,119343,1,0,0:0:0:0:
116,272,119501,1,8,0:0:0:0:
116,272,119659,1,0,0:0:0:0:
116,272,119817,1,8,0:0:0:0:
116,272,119975,1,0,0:0:0:0:
116,272,120133,1,8,0:0:0:0:
116,272,120212,1,0,0:0:0:0:
116,272,120291,1,0,0:0:0:0:
116,272,120370,1,8,0:0:0:0:
116,272,120449,1,0,0:0:0:0:
116,272,120607,1,0,0:0:0:0:
116,272,120765,1,8,0:0:0:0:
116,272,120922,1,0,0:0:0:0:
116,272,121080,1,0,0:0:0:0:
116,272,121238,1,0,0:0:0:0:
116,272,121396,1,8,0:0:0:0:
116,272,121449,1,8,0:0:0:0:
116,272,121501,1,8,0:0:0:0:
116,272,121554,1,8,0:0:0:0:
116,272,121712,1,0,0:0:0:0:
116,272,121870,1,0,0:0:0:0:
116,272,121922,1,0,0:0:0:0:
116,272,121975,1,0,0:0:0:0:
116,272,122028,1,0,0:0:0:0:
256,192,122186,12,0,122975,0:0:0:0:
240,96,123291,5,0,0:0:0:0:
240,96,123608,1,8,0:0:0:0:
240,96,123765,1,8,0:0:0:0:
240,96,123843,1,8,0:0:0:0:
240,96,123922,1,0,0:0:0:0:
240,96,124080,1,0,0:0:0:0:
240,96,124238,1,8,0:0:0:0:
240,96,124396,1,0,0:0:0:0:
240,96,124554,1,8,0:0:0:0:
240,96,124712,1,0,0:0:0:0:
240,96,124870,1,0,0:0:0:0:
240,96,125028,1,8,0:0:0:0:
240,96,125186,1,0,0:0:0:0:
309,93,125343,1,8,0:0:0:0:
309,93,125396,1,8,0:0:0:0:
309,93,125449,1,8,0:0:0:0:
309,93,125501,1,8,0:0:0:0:
309,93,125659,1,8,0:0:0:0:
309,93,125817,1,0,0:0:0:0:
309,93,125975,1,8,0:0:0:0:
309,93,126054,1,0,0:0:0:0:
309,93,126133,1,8,0:0:0:0:
309,93,126291,1,8,0:0:0:0:
309,93,126370,1,0,0:0:0:0:
309,93,126449,1,0,0:0:0:0:
309,93,126686,1,0,0:0:0:0:
309,93,126765,1,8,0:0:0:0:
309,93,126922,1,8,0:0:0:0:
309,93,127080,1,0,0:0:0:0:
309,93,127396,1,8,0:0:0:0:
309,93,127554,1,0,0:0:0:0:
309,93,127633,1,8,0:0:0:0:
309,93,127712,1,8,0:0:0:0:
309,93,127870,1,8,0:0:0:0:
309,93,127949,1,8,0:0:0:0:
309,93,128028,1,0,0:0:0:0:
309,93,128107,1,8,0:0:0:0:
309,93,128186,1,0,0:0:0:0:
309,93,128343,1,0,0:0:0:0:
309,93,128422,1,0,0:0:0:0:
309,93,128501,1,0,0:0:0:0:
309,93,128659,1,8,0:0:0:0:
309,93,128817,1,0,0:0:0:0:
309,93,128870,1,8,0:0:0:0:
309,93,128922,1,8,0:0:0:0:
309,93,128975,1,0,0:0:0:0:
309,93,129133,1,0,0:0:0:0:
309,93,129291,1,8,0:0:0:0:
309,93,129449,1,0,0:0:0:0:
309,93,129607,1,0,0:0:0:0:
309,93,129765,1,8,0:0:0:0:
309,93,129922,1,8,0:0:0:0:
309,93,130080,1,0,0:0:0:0:
309,93,130238,1,8,0:0:0:0:
309,93,130291,1,8,0:0:0:0:
309,93,130343,1,8,0:0:0:0:
309,93,130396,1,8,0:0:0:0:
309,93,130449,1,8,0:0:0:0:
309,93,130501,1,8,0:0:0:0:
309,93,130554,1,8,0:0:0:0:
309,93,130712,1,0,0:0:0:0:
309,93,130870,1,0,0:0:0:0:
309,93,131028,1,0,0:0:0:0:
309,93,131186,1,8,0:0:0:0:
309,93,131265,1,0,0:0:0:0:
309,93,131343,1,0,0:0:0:0:
309,93,131501,1,0,0:0:0:0:
309,93,131659,1,8,0:0:0:0:
309,93,131817,1,8,0:0:0:0:
309,93,131896,1,8,0:0:0:0:
309,93,131975,1,0,0:0:0:0:
309,93,132054,1,0,0:0:0:0:
309,93,132133,1,8,0:0:0:0:
309,93,132291,1,0,0:0:0:0:
309,93,132449,1,8,0:0:0:0:
309,93,132607,1,0,0:0:0:0:
309,93,132686,1,8,0:0:0:0:
309,93,132765,1,8,0:0:0:0:
309,93,132843,1,0,0:0:0:0:
309,93,132922,1,0,0:0:0:0:
309,93,133080,1,12,0:0:0:0:
309,93,133238,1,0,0:0:0:0:
309,93,133317,1,0,0:0:0:0:
309,93,133396,1,0,0:0:0:0:
309,93,133712,1,8,0:0:0:0:
309,93,133870,1,0,0:0:0:0:
309,93,133949,1,0,0:0:0:0:
309,93,134028,1,8,0:0:0:0:
309,93,134186,1,0,0:0:0:0:
309,93,134343,1,8,0:0:0:0:
309,93,134501,1,0,0:0:0:0:
309,93,134659,1,8,0:0:0:0:
309,93,134738,1,8,0:0:0:0:
309,93,134817,1,8,0:0:0:0:
309,93,134975,1,8,0:0:0:0:
309,93,135133,1,8,0:0:0:0:
309,93,135291,1,0,0:0:0:0:
309,93,135370,1,0,0:0:0:0:
309,93,135449,1,0,0:0:0:0:
309,93,135528,1,0,0:0:0:0:
309,93,135607,1,8,0:0:0:0:
309,93,135765,1,8,0:0:0:0:
309,93,135922,1,8,0:0:0:0:
309,93,136080,1,0,0:0:0:0:
309,93,136238,1,0,0:0:0:0:
309,93,136396,1,8,0:0:0:0:
309,93,136554,1,0,0:0:0:0:
309,93,136791,1,0,0:0:0:0:
309,93,136870,1,8,0:0:0:0:
309,93,137028,1,8,0:0:0:0:
309,93,137186,1,4,0:0:0:0:
309,93,137501,1,4,0:0:0:0:
309,93,137659,1,0,0:0:0:0:
309,93,137738,1,0,0:0:0:0:
309,93,137817,1,8,0:0:0:0:
309,93,137975,1,0,0:0:0:0:
309,93,138054,1,8,0:0:0:0:
309,93,138133,1,0,0:0:0:0:
309,93,138291,1,0,0:0:0:0:
309,93,138449,1,0,0:0:0:0:
309,93,138765,1,8,0:0:0:0:
309,93,138922,1,0,0:0:0:0:
309,93,138975,1,8,0:0:0:0:
309,93,139028,1,8,0:0:0:0:
309,93,139081,1,0,0:0:0:0:
309,93,139317,1,0,0:0:0:0:
309,93,139396,1,8,0:0:0:0:
309,93,139554,1,0,0:0:0:0:
309,93,139712,1,8,0:0:0:0:
309,93,139870,1,8,0:0:0:0:
309,93,140028,1,0,0:0:0:0:
309,93,140186,1,0,0:0:0:0:
309,93,140343,1,8,0:0:0:0:
309,93,140396,1,8,0:0:0:0:
309,93,140449,1,8,0:0:0:0:
309,93,140501,1,8,0:0:0:0:
309,93,140659,1,0,0:0:0:0:
309,93,140817,1,0,0:0:0:0:
309,93,140975,1,8,0:0:0:0:
309,93,141133,1,0,0:0:0:0:
309,93,141291,1,0,0:0:0:0:
309,93,141449,1,0,0:0:0:0:
309,93,141607,1,8,0:0:0:0:
309,93,141765,1,0,0:0:0:0:
309,93,141922,1,0,0:0:0:0:
309,93,142001,1,8,0:0:0:0:
309,93,142080,1,8,0:0:0:0:
309,93,142159,1,8,0:0:0:0:
309,93,142238,1,8,0:0:0:0:
309,93,142712,1,8,0:0:0:0:
309,93,142791,1,8,0:0:0:0:
309,93,142870,1,8,0:0:0:0:
309,93,142949,1,8,0:0:0:0:
309,93,143028,1,0,0:0:0:0:
309,93,143186,1,12,0:0:0:0:
88,108,143501,1,0,0:0:0:0:
88,108,143738,1,0,0:0:0:0:
88,108,143817,1,8,0:0:0:0:
88,108,143975,1,8,0:0:0:0:
88,108,144133,1,0,0:0:0:0:
88,108,144449,1,8,0:0:0:0:
88,108,144765,1,0,0:0:0:0:
88,108,144843,1,0,0:0:0:0:
0,128,144922,1,8,0:0:0:0:
88,108,145080,1,0,0:0:0:0:
88,108,145238,1,0,0:0:0:0:
88,108,145396,1,8,0:0:0:0:
0,128,145554,1,0,0:0:0:0:
88,108,145712,1,8,0:0:0:0:
88,108,145870,1,0,0:0:0:0:
0,128,146028,1,8,0:0:0:0:
88,108,146343,1,8,0:0:0:0:
88,108,146501,1,0,0:0:0:0:
88,108,146659,1,0,0:0:0:0:
88,108,146975,1,8,0:0:0:0:
0,128,147054,1,0,0:0:0:0:
0,128,147212,1,0,0:0:0:0:
88,108,147291,1,0,0:0:0:0:
0,128,147449,1,8,0:0:0:0:
88,108,147528,1,8,0:0:0:0:
88,108,147607,1,0,0:0:0:0:
0,128,147765,1,8,0:0:0:0:
88,108,147922,1,0,0:0:0:0:
0,128,148080,1,8,0:0:0:0:
88,108,148238,1,0,0:0:0:0:
0,128,148317,1,8,0:0:0:0:
0,128,148475,1,8,0:0:0:0:
88,108,148554,1,0,0:0:0:0:
0,128,148712,1,8,0:0:0:0:
88,108,148870,1,0,0:0:0:0:
88,108,148949,1,0,0:0:0:0:
0,128,149107,1,8,0:0:0:0:
88,108,149186,1,0,0:0:0:0:
0,128,149343,1,8,0:0:0:0:
88,108,149501,1,8,0:0:0:0:
0,128,149580,1,0,0:0:0:0:
0,128,149738,1,8,0:0:0:0:
88,108,149817,1,0,0:0:0:0:
0,128,149975,1,8,0:0:0:0:
88,108,150133,1,8,0:0:0:0:
0,128,150212,1,8,0:0:0:0:
0,128,150291,1,0,0:0:0:0:
88,108,150449,1,0,0:0:0:0:
88,108,150765,1,8,0:0:0:0:
0,128,150922,1,0,0:0:0:0:
88,108,151080,1,0,0:0:0:0:
0,128,151159,1,0,0:0:0:0:
0,128,151238,1,8,0:0:0:0:
88,108,151396,1,8,0:0:0:0:
0,128,151475,1,8,0:0:0:0:
88,108,151554,1,0,0:0:0:0:
0,128,151633,1,8,0:0:0:0:
88,108,151712,1,0,0:0:0:0:
0,128,151870,1,0,0:0:0:0:
88,108,152028,1,8,0:0:0:0:
0,128,152107,1,0,0:0:0:0:
0,128,152186,1,0,0:0:0:0:
88,108,152343,1,8,0:0:0:0:
0,128,152422,1,8,0:0:0:0:
0,128,152501,1,8,0:0:0:0:
88,108,152659,1,0,0:0:0:0:
88,108,152975,1,0,0:0:0:0:
0,128,153133,1,0,0:0:0:0:
0,128,153186,1,0,0:0:0:0:
0,128,153238,1,0,0:0:0:0:
0,128,153291,1,0,0:0:0:0:
0,128,153449,1,4,0:0:0:0:
88,108,153607,1,4,0:0:0:0:
88,108,153922,1,0,0:0:0:0:
88,108,154238,1,0,0:0:0:0:
88,108,154396,1,0,0:0:0:0:
88,108,154554,1,8,0:0:0:0:
88,108,154712,1,0,0:0:0:0:
88,108,154870,1,0,0:0:0:0:
88,108,154949,1,0,0:0:0:0:
88,108,155028,1,0,0:0:0:0:
88,108,155107,1,0,0:0:0:0:
88,108,155186,1,8,0:0:0:0:
88,108,155265,1,0,0:0:0:0:
88,108,155343,1,0,0:0:0:0:
88,108,155422,1,0,0:0:0:0:
88,108,155501,1,8,0:0:0:0:
88,108,155580,1,8,0:0:0:0:
88,108,155659,1,0,0:0:0:0:
88,108,155817,1,8,0:0:0:0:
88,108,155975,1,0,0:0:0:0:
88,108,156133,1,8,0:0:0:0:
88,108,156291,1,0,0:0:0:0:
88,108,156370,1,0,0:0:0:0:
88,108,156449,1,0,0:0:0:0:
88,108,156607,1,0,0:0:0:0:
88,108,156686,1,8,0:0:0:0:
88,108,156843,1,0,0:0:0:0:
88,108,156922,1,0,0:0:0:0:
88,108,157080,1,8,0:0:0:0:
88,108,157159,1,0,0:0:0:0:
88,108,157238,1,0,0:0:0:0:
88,108,157317,1,0,0:0:0:0:
88,108,157396,1,8,0:0:0:0:
88,108,157475,1,0,0:0:0:0:
88,108,157554,1,0,0:0:0:0:
88,108,157712,1,0,0:0:0:0:
88,108,157870,1,0,0:0:0:0:
88,108,157949,1,8,0:0:0:0:
88,108,158186,1,0,0:0:0:0:
88,108,158265,1,0,0:0:0:0:
88,108,158343,1,0,0:0:0:0:
88,108,158501,1,8,0:0:0:0:
88,108,158580,1,8,0:0:0:0:
88,108,158659,1,0,0:0:0:0:
88,108,158738,1,0,0:0:0:0:
88,108,158817,1,0,0:0:0:0:
88,108,158896,1,0,0:0:0:0:
88,108,158975,1,8,0:0:0:0:
88,108,159054,1,0,0:0:0:0:
88,108,159133,1,8,0:0:0:0:
88,108,159212,1,0,0:0:0:0:
88,108,159291,1,0,0:0:0:0:
88,108,159370,1,0,0:0:0:0:
88,108,159449,1,8,0:0:0:0:
88,108,159528,1,0,0:0:0:0:
88,108,159607,1,8,0:0:0:0:
88,108,159686,1,8,0:0:0:0:
88,108,159765,1,8,0:0:0:0:
88,108,159843,1,0,0:0:0:0:
88,108,159922,1,8,0:0:0:0:
88,108,160001,1,8,0:0:0:0:
88,108,160080,1,0,0:0:0:0:
88,108,160238,1,8,0:0:0:0:
88,108,160396,1,0,0:0:0:0:
88,108,160554,1,8,0:0:0:0:
88,108,160712,1,0,0:0:0:0:
88,108,160791,1,0,0:0:0:0:
88,108,160870,1,0,0:0:0:0:
88,108,161028,1,0,0:0:0:0:
88,108,161107,1,0,0:0:0:0:
88,108,161186,1,0,0:0:0:0:
88,108,161343,1,0,0:0:0:0:
88,108,161501,1,8,0:0:0:0:
0,132,161659,1,8,0:0:0:0:
0,132,161712,1,8,0:0:0:0:
0,132,161765,1,8,0:0:0:0:
88,108,161817,1,8,0:0:0:0:
0,132,161975,1,8,0:0:0:0:
0,132,162028,1,8,0:0:0:0:
0,132,162080,1,8,0:0:0:0:
88,108,162133,1,8,0:0:0:0:
88,108,162449,1,0,0:0:0:0:
88,108,163080,1,0,0:0:0:0:
0,132,163238,1,0,0:0:0:0:
0,132,163291,1,0,0:0:0:0:
0,132,163343,1,0,0:0:0:0:
88,108,163396,1,0,0:0:0:0:
88,108,163554,1,0,0:0:0:0:
88,108,163712,1,8,0:0:0:0:
256,192,163870,12,0,168607,0:0:0:0:
240,96,168765,5,0,0:0:0:0:
240,96,169080,1,8,0:0:0:0:
240,96,169238,1,8,0:0:0:0:
240,96,169317,1,8,0:0:0:0:
240,96,169396,1,0,0:0:0:0:
240,96,169554,1,0,0:0:0:0:
240,96,169712,1,8,0:0:0:0:
240,96,169870,1,0,0:0:0:0:
240,96,170028,1,8,0:0:0:0:
240,96,170186,1,0,0:0:0:0:
240,96,170343,1,0,0:0:0:0:
240,96,170501,1,8,0:0:0:0:
240,96,170659,1,0,0:0:0:0:
309,93,170817,1,8,0:0:0:0:
309,93,170896,1,8,0:0:0:0:
309,93,170975,1,8,0:0:0:0:
309,93,171133,1,8,0:0:0:0:
309,93,171291,1,0,0:0:0:0:
309,93,171449,1,8,0:0:0:0:
309,93,171528,1,0,0:0:0:0:
309,93,171607,1,8,0:0:0:0:
309,93,171765,1,8,0:0:0:0:
309,93,171922,1,0,0:0:0:0:
309,93,172080,1,0,0:0:0:0:
309,93,172159,1,8,0:0:0:0:
309,93,172238,1,8,0:0:0:0:
309,93,172317,1,8,0:0:0:0:
309,93,172396,1,8,0:0:0:0:
309,93,172475,1,0,0:0:0:0:
309,93,172554,1,8,0:0:0:0:
309,93,172712,1,0,0:0:0:0:
309,93,172870,1,8,0:0:0:0:
309,93,173028,1,0,0:0:0:0:
309,93,173107,1,0,0:0:0:0:
309,93,173186,1,8,0:0:0:0:
309,93,173265,1,8,0:0:0:0:
309,93,173343,1,8,0:0:0:0:
309,93,173422,1,0,0:0:0:0:
309,93,173501,1,8,0:0:0:0:
309,93,173659,1,8,0:0:0:0:
309,93,173738,1,8,0:0:0:0:
309,93,173817,1,0,0:0:0:0:
309,93,173975,1,0,0:0:0:0:
309,93,174133,1,8,0:0:0:0:
309,93,174291,1,0,0:0:0:0:
309,93,174370,1,8,0:0:0:0:
309,93,174449,1,8,0:0:0:0:
309,93,174607,1,0,0:0:0:0:
309,93,174765,1,8,0:0:0:0:
309,93,174922,1,0,0:0:0:0:
309,93,175080,1,0,0:0:0:0:
309,93,175238,1,8,0:0:0:0:
309,93,175396,1,8,0:0:0:0:
309,93,175554,1,0,0:0:0:0:
309,93,175712,1,8,0:0:0:0:
309,93,175765,1,8,0:0:0:0:
309,93,175817,1,8,0:0:0:0:
309,93,175870,1,8,0:0:0:0:
309,93,175922,1,8,0:0:0:0:
309,93,175975,1,8,0:0:0:0:
309,93,176028,1,8,0:0:0:0:
309,93,176186,1,0,0:0:0:0:
309,93,176343,1,0,0:0:0:0:
309,93,176501,1,0,0:0:0:0:
309,93,176659,1,8,0:0:0:0:
309,93,176738,1,0,0:0:0:0:
309,93,176817,1,8,0:0:0:0:
309,93,176975,1,8,0:0:0:0:
309,93,177133,1,0,0:0:0:0:
309,93,177291,1,8,0:0:0:0:
309,93,177370,1,8,0:0:0:0:
309,93,177449,1,0,0:0:0:0:
309,93,177528,1,8,0:0:0:0:
309,93,177607,1,0,0:0:0:0:
309,93,177765,1,0,0:0:0:0:
309,93,177922,1,8,0:0:0:0:
309,93,178080,1,0,0:0:0:0:
309,93,178159,1,8,0:0:0:0:
309,93,178238,1,8,0:0:0:0:
309,93,178317,1,8,0:0:0:0:
309,93,178396,1,0,0:0:0:0:
309,93,178554,1,0,0:0:0:0:
309,93,178712,1,0,0:0:0:0:
309,93,178791,1,0,0:0:0:0:
309,93,178870,1,8,0:0:0:0:
309,93,179028,1,0,0:0:0:0:
309,93,179186,1,8,0:0:0:0:
309,93,179343,1,0,0:0:0:0:
309,93,179396,1,8,0:0:0:0:
309,93,179449,1,8,0:0:0:0:
309,93,179501,1,0,0:0:0:0:
309,93,179659,1,0,0:0:0:0:
309,93,179817,1,8,0:0:0:0:
309,93,179975,1,0,0:0:0:0:
309,93,180133,1,8,0:0:0:0:
309,93,180212,1,8,0:0:0:0:
309,93,180291,1,0,0:0:0:0:
309,93,180449,1,8,0:0:0:0:
309,93,180607,1,0,0:0:0:0:
309,93,180765,1,8,0:0:0:0:
309,93,180843,1,0,0:0:0:0:
309,93,180922,1,0,0:0:0:0:
309,93,181001,1,0,0:0:0:0:
309,93,181080,1,8,0:0:0:0:
309,93,181238,1,0,0:0:0:0:
309,93,181396,1,8,0:0:0:0:
309,93,181554,1,0,0:0:0:0:
309,93,181712,1,8,0:0:0:0:
309,93,181870,1,0,0:0:0:0:
309,93,182028,1,8,0:0:0:0:
309,93,182186,1,0,0:0:0:0:
309,93,182238,1,0,0:0:0:0:
309,93,182291,1,0,0:0:0:0:
309,93,182343,1,8,0:0:0:0:
309,93,182501,1,0,0:0:0:0:
309,93,182659,1,8,0:0:0:0:
309,93,182712,1,8,0:0:0:0:
309,93,182765,1,8,0:0:0:0:
309,93,182817,1,8,0:0:0:0:
309,93,182870,1,8,0:0:0:0:
309,93,182922,1,8,0:0:0:0:
309,93,182975,1,8,0:0:0:0:
309,93,183133,1,0,0:0:0:0:
309,93,183212,1,0,0:0:0:0:
309,93,183292,1,8,0:0:0:0:
309,93,183449,1,0,0:0:0:0:
309,93,183528,1,8,0:0:0:0:
309,93,183607,1,0,0:0:0:0:
309,93,183765,1,8,0:0:0:0:
309,93,183922,1,4,0:0:0:0:
256,192,184080,12,0,186291,0:0:0:0:
