osu file format v14

[General]
AudioFilename: Cosmic Drive.mp3
AudioLeadIn: 0
PreviewTime: 102120
Countdown: 0
SampleSet: Soft
StackLeniency: 0.7
Mode: 0
LetterboxInBreaks: 1
WidescreenStoryboard: 0

[Editor]
Bookmarks: 123594
DistanceSpacing: 2
BeatDivisor: 4
GridSize: 8
TimelineZoom: 2.2

[Metadata]
Title:Cosmic Drive (Cut Ver.)
TitleUnicode:Cosmic Drive (Cut Ver.)
Artist:Sawawa
ArtistUnicode:さわわ
Creator:ChristieBell
Version:Seiga NyanNyan!
Source:東方神霊廟 ~ Ten Desires.
Tags:東方project Electronic Instrumental Touhou Shinreibyou ~ Ten Desires, Touhou Divine Spirit Mausoleum ~ Ten Desires Maria Desire Drive デザイアドライブ Noai Nioshi 野愛におし uma_sawawa
BeatmapID:735757
BeatmapSetID:332313

[Difficulty]
HPDrainRate:6
CircleSize:4
OverallDifficulty:7
ApproachRate:9.5
SliderMultiplier:1.8
SliderTickRate:1

[Events]
//Background and Video events
0,0,"46185549_p0.jpg",0,0
//Break Periods
2,63162,72542
//Storyboard Layer 0 (Background)
//Storyboard Layer 1 (Fail)
//Storyboard Layer 2 (Pass)
//Storyboard Layer 3 (Foreground)
//Storyboard Layer 4 (Overlay)
//Storyboard Sound Samples

[TimingPoints]
2331,315.789473684211,4,2,0,60,1,0
6752,-66.6666666666667,4,1,0,100,0,0
7383,-100,4,1,0,70,0,0
14015,-133.333333333333,4,1,0,60,0,0
14173,-100,4,1,0,60,0,0
15278,-133.333333333333,4,1,0,60,0,0
15436,-100,4,1,0,60,0,0
16225,-66.6666666666667,4,1,0,60,0,0
17488,-100,4,1,0,60,0,0
18436,-100,4,1,0,65,0,0
18752,-100,4,1,0,70,0,0
19699,-100,4,1,0,75,0,0
20016,-100,4,1,0,80,0,0
22541,-100,4,1,0,50,0,0
32290,-66.6666666666667,4,1,0,70,0,0
32646,-100,4,1,0,70,0,0
33278,-133.333333333333,4,1,0,70,0,0
33909,-100,4,1,0,70,0,0
34541,-133.333333333333,4,1,0,70,0,0
35173,-100,4,1,0,70,0,0
35804,-133.333333333333,4,1,0,70,0,0
36436,-100,4,1,0,70,0,0
37067,-100,4,1,0,70,0,0
37383,-76.9230769230769,4,1,0,70,0,0
37699,-100,4,1,0,70,0,0
37699,-100,4,1,0,70,0,0
38962,-100,4,1,0,70,0,0
42278,-100,4,1,0,70,0,0
42752,-83.3333333333333,4,1,0,70,0,1
48120,-83.3333333333333,4,1,0,71,0,1
62962,-83.3333333333333,4,1,0,70,0,0
73067,-100,4,1,0,70,0,0
82883,-100,4,1,0,30,0,0
83173,-100,4,1,0,70,0,0
92015,-66.6666666666667,4,1,0,70,0,0
93278,-100,4,1,0,70,0,0
97383,-66.6666666666667,4,1,0,70,0,0
98331,-100,4,1,0,70,0,0
103383,-83.3333333333333,4,1,0,70,0,1
113804,-66.6666666666667,4,1,0,70,0,1
123594,-83.3333333333333,4,1,0,70,0,0

[Colours]
Combo1 : 255,0,128
Combo2 : 0,128,255
Combo3 : 128,128,255
Combo4 : 128,0,128
Combo5 : 0,255,255

[HitObjects]
160,168,2331,6,0,P|160:216|176:264,1,90
304,240,2646,2,0,P|304:192|288:144,1,90
176,80,2962,1,0,0:0:0:0:
176,80,3120,2,0,P|216:96|264:80,1,90
392,112,3436,2,0,P|328:168|296:256,1,180
160,232,3909,1,0,0:0:0:0:
296,255,4067,1,0,0:0:0:0:
232,136,4225,2,0,L|176:48,2,90
296,255,4699,6,0,B|224:264|160:232|160:232|112:248,1,180
16,160,5173,2,0,P|40:128|40:80,1,90
168,40,5488,1,0,0:0:0:0:
168,40,5646,2,0,B|152:104|200:144|200:144|160:200,1,180
80,304,6120,2,0,B|120:296|176:336|176:336|208:320,1,135
272,328,6436,2,0,B|240:288|240:288|272:240|256:208,1,135
208,120,6752,6,0,P|144:104|80:136,1,135.000005149842
80,304,7067,2,0,P|128:248|136:184,1,135.000005149842
192,64,7383,5,0,0:0:0:0:
264,184,7541,1,0,0:0:0:0:
376,112,7699,2,0,P|336:96|288:96,1,90
176,168,8015,1,0,0:0:0:0:
280,256,8173,1,0,0:0:0:0:
280,256,8488,6,0,B|352:232|392:176|392:176|344:184,1,180
216,184,8962,1,0,0:0:0:0:
104,104,9120,1,0,0:0:0:0:
136,232,9278,1,0,0:0:0:0:
192,48,9436,2,0,B|224:48|224:48|248:80|248:80|272:80,1,90
400,104,9752,2,0,B|376:168|376:168|312:176|312:176|296:224,1,180
200,312,10225,2,0,L|160:232,1,90
192,48,10541,1,0,0:0:0:0:
312,232,10699,1,0,0:0:0:0:
312,232,11015,1,0,0:0:0:0:
384,80,11173,6,0,P|344:104|296:112,1,90
120,136,11488,2,0,P|160:144|200:176,1,90
280,280,11804,1,0,0:0:0:0:
240,304,11883,1,0,0:0:0:0:
192,304,11962,1,0,0:0:0:0:
152,288,12041,1,0,0:0:0:0:
120,256,12120,1,0,0:0:0:0:
104,216,12199,1,0,0:0:0:0:
104,168,12278,1,0,0:0:0:0:
120,128,12357,1,0,0:0:0:0:
152,96,12436,6,0,P|184:64|232:48,1,90
352,88,12752,2,0,P|320:120|272:136,1,90
152,168,13067,1,0,0:0:0:0:
120,296,13225,1,0,0:0:0:0:
248,264,13383,1,0,0:0:0:0:
80,120,13541,6,0,B|160:64|216:120|216:120|248:104,1,180
392,40,14015,1,0,0:0:0:0:
408,88,14094,1,0,0:0:0:0:
424,136,14173,1,0,0:0:0:0:
288,120,14331,1,0,0:0:0:0:
376,224,14488,1,0,0:0:0:0:
184,144,14646,1,0,0:0:0:0:
272,320,14804,6,0,B|208:344|184:376|184:376|120:328,1,180
56,208,15278,1,0,0:0:0:0:
72,160,15357,1,0,0:0:0:0:
88,112,15436,1,0,0:0:0:0:
208,200,15594,1,0,0:0:0:0:
240,56,15752,2,0,P|328:48|384:112,1,180
336,312,16225,6,0,P|304:248|304:184,1,135
248,16,16541,6,0,P|216:80|160:120,1,135.000005149842
8,232,16857,6,0,P|56:264|136:264,1,135.000005149842
312,152,17173,6,0,P|248:136|184:160,1,135.000005149842
80,240,17488,5,0,0:0:0:0:
104,280,17567,1,0,0:0:0:0:
152,296,17646,1,0,0:0:0:0:
200,288,17725,1,0,0:0:0:0:
240,264,17804,1,0,0:0:0:0:
288,240,17883,1,0,0:0:0:0:
336,240,17962,1,0,0:0:0:0:
384,256,18041,1,0,0:0:0:0:
424,288,18120,2,0,L|456:248,3,45
480,208,18436,2,0,L|472:160,3,45
464,112,18752,5,0,0:0:0:0:
424,80,18831,1,0,0:0:0:0:
376,88,18909,1,0,0:0:0:0:
336,120,18988,1,0,0:0:0:0:
288,144,19067,1,0,0:0:0:0:
240,152,19146,1,0,0:0:0:0:
192,144,19225,1,0,0:0:0:0:
152,120,19304,1,0,0:0:0:0:
108,89,19383,2,0,L|52:97,3,45
32,136,19699,2,0,L|24:200,3,45
40,232,20016,5,0,0:0:0:0:
80,256,20095,1,0,0:0:0:0:
128,264,20174,1,0,0:0:0:0:
176,256,20252,1,0,0:0:0:0:
216,232,20331,1,0,0:0:0:0:
264,216,20409,1,0,0:0:0:0:
312,224,20488,1,0,0:0:0:0:
352,248,20567,1,0,0:0:0:0:
400,248,20646,2,0,L|432:232,1,30
408,208,20752,2,0,L|440:192,1,30
416,168,20857,2,0,L|448:152,1,30
424,128,20962,2,0,L|456:112,1,30
432,88,21067,2,0,L|464:72,1,30
440,48,21173,2,0,L|472:32,1,30
448,8,21278,5,0,0:0:0:0:
256,64,21594,1,0,0:0:0:0:
256,264,21909,1,0,0:0:0:0:
256,264,22067,2,0,P|192:216|184:120,1,180
312,88,22541,5,0,0:0:0:0:
344,112,22699,1,0,0:0:0:0:
368,152,22857,1,0,0:0:0:0:
376,200,23015,1,0,0:0:0:0:
296,256,23173,5,0,0:0:0:0:
256,240,23331,1,0,0:0:0:0:
216,232,23488,1,0,0:0:0:0:
168,240,23646,1,0,0:0:0:0:
96,168,23804,5,0,0:0:0:0:
104,120,23962,1,0,0:0:0:0:
120,80,24120,1,0,0:0:0:0:
152,48,24278,1,0,0:0:0:0:
288,48,24436,5,0,0:0:0:0:
264,120,24594,1,0,0:0:0:0:
360,72,24752,1,0,0:0:0:0:
336,144,24909,1,0,0:0:0:0:
440,144,25067,5,0,0:0:0:0:
424,184,25225,1,0,0:0:0:0:
408,224,25383,1,0,0:0:0:0:
392,264,25541,1,0,0:0:0:0:
272,280,25699,5,0,0:0:0:0:
248,240,25857,1,0,0:0:0:0:
224,200,26015,1,0,0:0:0:0:
200,160,26173,1,0,0:0:0:0:
80,176,26330,5,0,0:0:0:0:
64,216,26488,1,0,0:0:0:0:
48,256,26646,1,0,0:0:0:0:
32,296,26804,1,0,0:0:0:0:
144,320,26962,5,0,0:0:0:0:
152,248,27120,1,0,0:0:0:0:
224,256,27278,1,0,0:0:0:0:
232,184,27436,1,0,0:0:0:0:
312,184,27594,5,0,0:0:0:0:
328,144,27752,1,0,0:0:0:0:
304,104,27909,1,0,0:0:0:0:
312,56,28067,1,0,0:0:0:0:
200,24,28225,5,0,0:0:0:0:
168,56,28383,1,0,0:0:0:0:
176,104,28541,1,0,0:0:0:0:
152,144,28699,1,0,0:0:0:0:
112,264,28857,5,0,0:0:0:0:
160,256,29015,1,0,0:0:0:0:
200,280,29173,1,0,0:0:0:0:
248,272,29331,1,0,0:0:0:0:
352,232,29488,5,0,0:0:0:0:
416,184,29646,1,0,0:0:0:0:
344,152,29804,1,0,0:0:0:0:
408,104,29962,1,0,0:0:0:0:
312,64,30120,5,0,0:0:0:0:
272,40,30278,1,0,0:0:0:0:
232,64,30436,1,0,0:0:0:0:
192,40,30594,1,0,0:0:0:0:
104,104,30752,5,0,0:0:0:0:
128,136,30909,1,0,0:0:0:0:
104,176,31067,1,0,0:0:0:0:
128,216,31225,1,0,0:0:0:0:
192,296,31383,5,0,0:0:0:0:
232,272,31541,1,0,0:0:0:0:
272,296,31699,1,0,0:0:0:0:
312,272,31857,1,0,0:0:0:0:
432,184,32015,6,0,P|384:176|344:184,1,90
216,208,32331,2,0,P|256:152|248:80,1,135.000005149842
168,56,32646,5,0,0:0:0:0:
88,96,32804,1,0,0:0:0:0:
88,96,32883,1,0,0:0:0:0:
88,96,32962,1,0,0:0:0:0:
144,168,33120,1,0,0:0:0:0:
72,232,33278,2,0,L|128:280,1,67.5000025749208
216,280,33594,2,0,L|272:224,1,67.5000025749208
320,168,33909,5,0,0:0:0:0:
296,80,34067,1,0,0:0:0:0:
296,80,34146,1,0,0:0:0:0:
296,80,34225,1,0,0:0:0:0:
384,88,34383,1,0,0:0:0:0:
472,48,34541,2,0,L|472:120,1,67.5000025749208
400,224,34857,2,0,L|400:152,1,67.5000025749208
400,64,35173,5,0,0:0:0:0:
320,112,35331,1,0,0:0:0:0:
320,112,35409,1,0,0:0:0:0:
320,112,35488,1,0,0:0:0:0:
240,64,35646,1,0,0:0:0:0:
152,120,35804,2,0,L|152:192,1,67.5000025749208
232,272,36120,2,0,L|232:200,1,67.5000025749208
232,112,36436,5,0,0:0:0:0:
168,48,36594,1,0,0:0:0:0:
168,48,36673,1,0,0:0:0:0:
168,48,36752,1,0,0:0:0:0:
88,80,36909,1,0,0:0:0:0:
56,160,37067,2,0,P|96:160|144:184,1,90
232,256,37383,6,0,P|216:200|232:144,1,116.999994644165
352,88,37699,1,0,0:0:0:0:
352,104,37778,1,0,0:0:0:0:
352,120,37857,1,0,0:0:0:0:
352,136,37936,1,0,0:0:0:0:
352,152,38015,1,0,0:0:0:0:
352,168,38094,1,0,0:0:0:0:
352,184,38173,1,0,0:0:0:0:
352,200,38252,1,0,0:0:0:0:
352,216,38331,2,0,L|352:264,3,45
336,264,38646,2,0,L|288:264,3,45
256,264,38962,5,0,0:0:0:0:
232,264,39041,1,0,0:0:0:0:
208,264,39120,1,0,0:0:0:0:
184,264,39199,1,0,0:0:0:0:
160,264,39278,1,0,0:0:0:0:
136,264,39357,1,0,0:0:0:0:
112,264,39436,1,0,0:0:0:0:
88,264,39515,1,0,0:0:0:0:
64,264,39594,2,0,L|64:216,3,45
64,192,39909,2,0,L|64:136,3,45
72,120,40225,5,0,0:0:0:0:
104,112,40304,1,0,0:0:0:0:
136,96,40383,1,0,0:0:0:0:
168,72,40462,1,0,0:0:0:0:
184,40,40541,2,0,L|232:40,3,45
256,72,40857,5,0,0:0:0:0:
272,112,40936,1,0,0:0:0:0:
304,144,41015,1,0,0:0:0:0:
344,160,41094,1,0,0:0:0:0:
392,160,41173,2,0,L|448:160,3,45
392,216,41488,6,0,P|352:240|328:280,1,90
240,288,41804,2,0,P|208:256|160:240,1,90
144,328,42120,1,0,0:0:0:0:
56,264,42278,1,0,0:0:0:0:
136,160,42436,1,0,0:0:0:0:
16,88,42594,1,0,0:0:0:0:
176,48,42752,6,0,P|232:40|288:48,1,107.999996704102,8|0,0:0|0:0,0:0:0:0:
440,160,43067,2,0,P|384:168|328:160,1,107.999996704102,8|0,0:0|0:0,0:0:0:0:
144,112,43383,1,8,0:0:0:0:
144,288,43541,1,0,0:0:0:0:
32,152,43699,1,8,0:0:0:0:
192,224,43857,1,0,0:0:0:0:
312,104,44015,5,8,0:0:0:0:
400,256,44173,1,0,0:0:0:0:
248,168,44331,1,8,0:0:0:0:
408,120,44488,1,0,0:0:0:0:
312,240,44646,5,8,0:0:0:0:
152,240,44804,1,0,0:0:0:0:
312,240,44962,1,8,0:0:0:0:
152,240,45120,1,0,0:0:0:0:
240,88,45278,5,8,0:0:0:0:
80,160,45436,1,0,0:0:0:0:
184,24,45594,1,8,0:0:0:0:
304,144,45752,1,0,0:0:0:0:
136,112,45909,5,8,0:0:0:0:
248,272,46067,1,0,0:0:0:0:
376,120,46225,1,8,0:0:0:0:
200,192,46383,1,0,0:0:0:0:
352,40,46541,5,8,0:0:0:0:
384,256,46699,1,0,0:0:0:0:
208,128,46857,1,8,0:0:0:0:
424,160,47015,5,0,0:0:0:0:
280,320,47173,1,8,0:0:0:0:
232,112,47331,1,0,0:0:0:0:
120,296,47488,1,8,0:0:0:0:
48,88,47646,1,0,0:0:0:0:
120,296,47804,6,0,P|128:240|160:192,1,107.999996704102,8|0,0:0|0:0,0:0:0:0:
344,96,48120,2,0,P|336:152|312:200,1,107.999996704102,8|0,0:0|0:0,0:0:0:0:
216,328,48436,1,8,0:0:0:0:
144,184,48594,1,0,0:0:0:0:
304,144,48752,1,8,0:0:0:0:
176,48,48909,1,0,0:0:0:0:
320,40,49067,5,8,0:0:0:0:
376,168,49225,1,0,0:0:0:0:
240,120,49383,1,8,0:0:0:0:
304,248,49541,1,0,0:0:0:0:
152,168,49699,5,8,0:0:0:0:
272,40,49857,1,0,0:0:0:0:
320,208,50015,1,8,0:0:0:0:
192,88,50173,1,0,0:0:0:0:
360,136,50331,5,8,0:0:0:0:
320,304,50488,1,0,0:0:0:0:
160,240,50646,1,8,0:0:0:0:
336,224,50804,1,0,0:0:0:0:
200,120,50962,5,8,0:0:0:0:
64,224,51120,1,0,0:0:0:0:
120,56,51278,1,8,0:0:0:0:
192,216,51436,1,0,0:0:0:0:
48,128,51594,5,8,0:0:0:0:
224,56,51752,1,0,0:0:0:0:
224,248,51909,1,8,0:0:0:0:
32,232,52067,5,0,0:0:0:0:
208,160,52225,1,8,0:0:0:0:
240,352,52383,1,0,0:0:0:0:
360,200,52541,1,8,0:0:0:0:
240,48,52699,1,0,0:0:0:0:
120,200,52857,6,0,P|144:248|192:288,1,107.999996704102,8|0,0:0|0:0,0:0:0:0:
376,296,53173,2,0,P|352:248|304:208,1,107.999996704102,8|0,0:0|0:0,0:0:0:0:
168,112,53488,1,8,0:0:0:0:
192,272,53646,1,0,0:0:0:0:
280,128,53804,1,8,0:0:0:0:
120,200,53962,1,0,0:0:0:0:
288,232,54120,5,8,0:0:0:0:
368,56,54278,1,0,0:0:0:0:
184,112,54436,1,8,0:0:0:0:
368,168,54594,1,0,0:0:0:0:
200,224,54752,5,8,0:0:0:0:
104,80,54909,1,0,0:0:0:0:
264,144,55067,1,8,0:0:0:0:
144,272,55225,1,0,0:0:0:0:
64,144,55383,5,8,0:0:0:0:
208,104,55541,1,0,0:0:0:0:
248,248,55699,1,8,0:0:0:0:
336,128,55857,1,0,0:0:0:0:
408,288,56015,5,8,0:0:0:0:
416,112,56173,1,0,0:0:0:0:
320,256,56331,1,8,0:0:0:0:
264,96,56488,1,0,0:0:0:0:
144,216,56646,5,8,0:0:0:0:
104,48,56804,1,0,0:0:0:0:
232,160,56962,1,8,0:0:0:0:
64,184,57120,5,0,0:0:0:0:
256,80,57278,1,8,0:0:0:0:
232,296,57436,1,0,0:0:0:0:
392,152,57594,1,8,0:0:0:0:
400,368,57752,1,0,0:0:0:0:
232,296,57909,6,0,L|176:280,15,53.9999983520508
344,240,59173,6,0,L|400:256,15,53.9999983520508
296,152,60436,6,0,L|240:136,7,53.9999983520508
376,120,61067,2,0,L|432:104,7,53.9999983520508
296,64,61699,1,0,0:0:0:0:
152,64,61857,2,8,L|96:64,2,53.9999983520508
216,176,62173,1,0,0:0:0:0:
96,240,62331,2,8,L|40:264,2,53.9999983520508
216,176,62646,1,8,0:0:0:0:
320,272,62804,1,8,0:0:0:0:
216,176,62962,1,8,0:0:0:0:
136,160,73067,6,0,P|152:208|176:240,1,90
312,280,73383,2,0,P|296:232|272:200,1,90
176,88,73699,1,0,0:0:0:0:
320,88,73857,2,0,P|360:120|384:168,2,90
176,88,74331,5,0,0:0:0:0:
64,176,74488,1,0,0:0:0:0:
56,48,74646,1,0,0:0:0:0:
144,160,74804,1,0,0:0:0:0:
56,272,74962,2,0,P|32:304|-16:336,2,90
144,160,75436,1,0,0:0:0:0:
248,256,75594,6,0,P|288:240|328:200,1,90
368,72,75909,2,0,P|328:88|296:128,1,90
168,200,76225,2,0,P|120:208|80:200,2,90
296,128,76699,1,0,0:0:0:0:
168,64,76857,1,0,0:0:0:0:
40,128,77015,1,0,0:0:0:0:
56,168,77094,1,0,0:0:0:0:
72,208,77173,1,0,0:0:0:0:
88,248,77252,1,0,0:0:0:0:
104,288,77331,1,0,0:0:0:0:
192,176,77488,5,0,0:0:0:0:
264,304,77646,1,0,0:0:0:0:
328,176,77804,1,0,0:0:0:0:
408,296,77962,1,0,0:0:0:0:
408,296,78041,1,0,0:0:0:0:
408,296,78120,2,0,L|432:344,15,45
432,200,79383,6,0,L|408:152,15,45
344,232,80646,5,0,0:0:0:0:
152,128,80883,1,0,0:0:0:0:
128,344,81120,1,0,0:0:0:0:
128,344,81278,5,0,0:0:0:0:
344,344,81515,1,0,0:0:0:0:
232,160,81752,1,0,0:0:0:0:
232,160,81909,1,0,0:0:0:0:
56,160,82541,5,0,0:0:0:0:
176,192,82883,2,0,L|184:208,10,15
344,168,83331,1,0,0:0:0:0:
344,24,83488,1,0,0:0:0:0:
344,168,83646,1,0,0:0:0:0:
176,120,83804,2,0,P|120:104|72:104,2,90
280,224,84278,6,0,B|304:296|296:336|296:336|360:312,1,180
472,224,84752,2,0,P|448:184|408:152,1,90
280,104,85067,1,0,0:0:0:0:
184,208,85225,2,0,P|160:248|112:272,1,90
24,160,85541,2,0,B|56:112|128:104|128:104|176:56,1,180
312,48,86015,2,0,P|288:96|288:144,1,90
392,232,86331,1,0,0:0:0:0:
248,232,86488,2,0,B|200:280|128:216|72:264,1,180
176,152,86962,6,0,P|216:144|272:152,1,90
328,280,87278,2,0,P|320:240|328:192,1,90
392,64,87594,1,0,0:0:0:0:
248,64,87752,2,0,B|208:104|144:48|80:136,1,180
72,272,88225,5,0,0:0:0:0:
184,184,88383,1,0,0:0:0:0:
280,288,88541,1,0,0:0:0:0:
208,344,88699,1,0,0:0:0:0:
272,216,88857,1,0,0:0:0:0:
128,232,89015,2,0,P|104:192|96:144,1,90
40,96,89331,6,0,B|104:48|152:96|152:96|208:96,1,180
400,128,89804,2,0,P|368:168|336:192,1,90
232,288,90120,2,0,P|192:328|176:368,2,90
232,144,90594,2,0,B|152:168|144:88|144:88|96:112,1,180
64,256,91067,2,0,P|104:232|152:224,1,90
288,224,91383,1,0,0:0:0:0:
376,336,91541,2,0,B|368:288|408:248|408:248|408:160,1,180
296,32,92015,6,0,P|232:64|160:64,1,135
24,232,92331,6,0,P|96:224|152:248,1,135.000005149842
352,320,92646,6,0,P|312:272|312:200,1,135.000005149842
352,40,92962,6,0,P|280:40|224:72,1,135.000005149842
136,184,93278,5,0,0:0:0:0:
272,216,93436,1,0,0:0:0:0:
272,216,93515,1,0,0:0:0:0:
272,216,93594,2,0,P|232:240|200:280,1,90
336,336,93909,1,0,0:0:0:0:
424,224,94067,1,0,0:0:0:0:
360,352,94225,1,0,0:0:0:0:
392,208,94383,6,0,P|360:128|280:88,1,180
136,96,94857,1,0,0:0:0:0:
136,96,94936,1,0,0:0:0:0:
136,96,95015,2,0,P|112:144|80:160,1,90
48,80,95331,1,0,0:0:0:0:
160,200,95488,1,0,0:0:0:0:
248,88,95646,6,0,B|296:88|376:48|376:48|376:104,1,180
352,232,96120,1,0,0:0:0:0:
352,232,96199,1,0,0:0:0:0:
352,232,96278,2,0,P|304:240|256:232,1,90
120,200,96594,2,0,B|168:168|200:112|200:112|264:112,1,180
329,159,97067,2,0,P|281:143|257:103,1,90
128,32,97383,6,0,P|112:96|56:144,1,135
160,336,97699,6,0,P|232:344|296:392,1,135.000005149842
424,208,98015,6,0,P|408:136|432:80,1,135.000005149842
288,16,98331,5,0,0:0:0:0:
240,24,98409,1,0,0:0:0:0:
208,56,98488,1,0,0:0:0:0:
192,96,98567,1,0,0:0:0:0:
200,144,98646,1,0,0:0:0:0:
232,176,98725,1,0,0:0:0:0:
280,184,98804,1,0,0:0:0:0:
328,176,98883,1,0,0:0:0:0:
376,160,98962,2,0,L|432:136,3,45
456,160,99278,2,0,L|480:216,3,45
472,248,99594,5,0,0:0:0:0:
456,288,99673,1,0,0:0:0:0:
416,312,99752,1,0,0:0:0:0:
376,304,99830,1,0,0:0:0:0:
344,272,99909,1,0,0:0:0:0:
312,240,99988,1,0,0:0:0:0:
272,224,100067,1,0,0:0:0:0:
224,224,100146,1,0,0:0:0:0:
184,240,100225,2,0,L|128:224,3,45
96,240,100541,2,0,L|56:280,3,45
48,232,100857,5,0,0:0:0:0:
24,192,100936,1,0,0:0:0:0:
24,144,101015,1,0,0:0:0:0:
40,104,101094,1,0,0:0:0:0:
72,72,101173,2,0,L|128:48,3,45
152,80,101488,5,0,0:0:0:0:
192,104,101567,1,0,0:0:0:0:
240,112,101646,1,0,0:0:0:0:
288,104,101725,1,0,0:0:0:0:
328,88,101804,2,0,L|368:64,3,45
408,40,102120,5,0,0:0:0:0:
360,216,102436,1,0,0:0:0:0:
192,160,102752,1,0,0:0:0:0:
192,160,102909,2,0,P|176:248|96:272,1,180
64,96,103383,5,8,0:0:0:0:
232,80,103541,1,0,0:0:0:0:
104,200,103699,1,8,0:0:0:0:
168,40,103857,1,0,0:0:0:0:
256,192,104015,5,8,0:0:0:0:
336,40,104173,1,0,0:0:0:0:
256,192,104331,1,8,0:0:0:0:
424,192,104488,1,0,0:0:0:0:
336,344,104646,5,8,0:0:0:0:
200,232,104804,1,0,0:0:0:0:
368,272,104962,1,8,0:0:0:0:
208,336,105120,1,0,0:0:0:0:
280,160,105278,5,8,0:0:0:0:
88,192,105436,1,0,0:0:0:0:
264,272,105594,1,8,0:0:0:0:
176,96,105752,1,0,0:0:0:0:
136,264,105909,5,8,0:0:0:0:
48,112,106067,1,0,0:0:0:0:
216,128,106225,1,8,0:0:0:0:
64,216,106383,1,0,0:0:0:0:
152,72,106541,5,8,0:0:0:0:
248,240,106699,1,0,0:0:0:0:
240,32,106857,1,8,0:0:0:0:
152,208,107015,1,0,0:0:0:0:
328,128,107173,5,8,0:0:0:0:
320,320,107331,1,0,0:0:0:0:
152,208,107488,1,8,0:0:0:0:
344,232,107646,5,0,0:0:0:0:
136,280,107804,1,8,0:0:0:0:
288,128,107962,1,0,0:0:0:0:
248,336,108120,1,8,0:0:0:0:
168,128,108278,1,0,0:0:0:0:
320,280,108436,6,0,P|360:240|384:184,1,107.999996704102,8|0,0:0|0:0,0:0:0:0:
272,8,108752,2,0,P|232:48|208:104,1,107.999996704102,8|0,0:0|0:0,0:0:0:0:
192,264,109067,1,8,0:0:0:0:
352,192,109225,1,0,0:0:0:0:
248,328,109383,1,8,0:0:0:0:
152,184,109541,1,0,0:0:0:0:
312,248,109699,5,8,0:0:0:0:
256,88,109857,1,0,0:0:0:0:
192,248,110015,1,8,0:0:0:0:
128,88,110173,1,0,0:0:0:0:
56,248,110331,5,8,0:0:0:0:
192,144,110488,1,0,0:0:0:0:
224,312,110646,1,8,0:0:0:0:
112,184,110804,1,0,0:0:0:0:
280,80,110962,5,8,0:0:0:0:
368,256,111120,1,0,0:0:0:0:
208,152,111278,1,8,0:0:0:0:
400,200,111436,1,0,0:0:0:0:
384,24,111594,5,8,0:0:0:0:
296,224,111752,1,0,0:0:0:0:
168,56,111909,1,8,0:0:0:0:
48,240,112067,1,0,0:0:0:0:
232,128,112225,5,8,0:0:0:0:
16,96,112383,1,0,0:0:0:0:
128,280,112541,1,8,0:0:0:0:
144,64,112699,5,0,0:0:0:0:
48,256,112857,1,8,0:0:0:0:
264,296,113015,1,0,0:0:0:0:
232,80,113173,1,8,0:0:0:0:
400,216,113331,2,0,P|288:232|200:176,1,215.999993408203
203,180,113804,6,0,B|144:152|24:192|24:192|104:240,1,270.000010299683
352,328,114278,1,8,0:0:0:0:
376,56,114436,1,8,0:0:0:0:
192,256,114594,1,8,0:0:0:0:
432,176,114909,1,8,0:0:0:0:
432,176,115067,1,8,0:0:0:0:
192,256,115541,1,8,0:0:0:0:
80,56,115857,1,8,0:0:0:0:
320,104,116015,6,0,P|264:136|192:152,1,135.000005149842,8|0,0:0|0:0,0:0:0:0:
48,136,116331,2,0,P|48:208|80:264,1,135.000005149842,8|0,0:0|0:0,0:0:0:0:
344,312,116646,1,8,0:0:0:0:
248,64,116804,1,0,0:0:0:0:
168,320,116962,1,8,0:0:0:0:
376,152,117120,1,0,0:0:0:0:
104,168,117278,5,8,0:0:0:0:
368,240,117436,1,0,0:0:0:0:
200,32,117594,1,8,0:0:0:0:
104,288,117752,1,0,0:0:0:0:
320,128,117909,5,8,0:0:0:0:
184,360,118067,1,0,0:0:0:0:
176,88,118225,1,8,0:0:0:0:
64,320,118383,2,0,P|24:168|72:64,1,270.000010299683
67,69,118857,6,0,B|156:114|280:40|280:40|264:88,1,270.000010299683
216,352,119331,1,0,0:0:0:0:
432,184,119488,1,8,0:0:0:0:
160,168,119646,1,0,0:0:0:0:
400,336,119804,5,8,0:0:0:0:
280,96,119962,1,0,0:0:0:0:
264,368,120120,1,8,0:0:0:0:
64,192,120278,1,0,0:0:0:0:
344,240,120594,1,0,0:0:0:0:
248,0,120909,1,0,0:0:0:0:
160,256,121067,5,8,0:0:0:0:
376,96,121225,1,0,0:0:0:0:
112,32,121383,1,8,0:0:0:0:
296,232,121541,1,0,0:0:0:0:
80,72,121699,5,8,0:0:0:0:
200,312,121857,1,0,0:0:0:0:
256,48,122015,1,8,0:0:0:0:
88,256,122173,1,0,0:0:0:0:
328,136,122331,5,8,0:0:0:0:
448,368,122488,1,0,0:0:0:0:
448,368,122567,1,0,0:0:0:0:
448,368,122646,1,8,0:0:0:0:
240,240,122804,1,0,0:0:0:0:
24,368,122962,1,8,0:0:0:0:
24,368,123041,1,0,0:0:0:0:
24,368,123120,1,0,0:0:0:0:
104,112,123278,1,8,0:0:0:0:
264,352,123436,1,0,0:0:0:0:
352,152,123594,1,4,0:0:0:0:
