osu file format v14

[General]
AudioFilename: Cosmic Drive.mp3
AudioLeadIn: 0
PreviewTime: 102120
Countdown: 0
SampleSet: Soft
StackLeniency: 0.7
Mode: 0
LetterboxInBreaks: 1
WidescreenStoryboard: 1

[Editor]
Bookmarks: 123594
DistanceSpacing: 3.6
BeatDivisor: 4
GridSize: 8
TimelineZoom: 2.2

[Metadata]
Title:Cosmic Drive (Cut Ver.)
TitleUnicode:Cosmic Drive (Cut Ver.)
Artist:Sawawa
ArtistUnicode:さわわ
Creator:ChristieBell
Version:Death Nyan Nyan!!
Source:東方神霊廟 ~ Ten Desires.
Tags:東方project Electronic Instrumental Touhou Shinreibyou ~ Ten Desires, Touhou Divine Spirit Mausoleum ~ Ten Desires Maria Desire Drive デザイアドライブ Noai Nioshi 野愛におし uma_sawawa
BeatmapID:1052900
BeatmapSetID:332313

[Difficulty]
HPDrainRate:4
CircleSize:4.3
OverallDifficulty:7
ApproachRate:10
SliderMultiplier:1.8
SliderTickRate:1

[Events]
//Background and Video events
0,0,"46185549_p0.jpg",0,0
//Break Periods
2,63162,72594
//Storyboard Layer 0 (Background)
//Storyboard Layer 1 (Fail)
//Storyboard Layer 2 (Pass)
//Storyboard Layer 3 (Foreground)
//Storyboard Layer 4 (Overlay)
//Storyboard Sound Samples

[TimingPoints]
2331,315.789473684211,4,2,0,60,1,0
6752,-66.6666666666667,4,1,0,100,0,0
7383,-100,4,1,0,70,0,0
8488,-76.9230769230769,4,1,0,70,0,0
8962,-100,4,1,0,70,0,0
9752,-66.6666666666667,4,1,0,70,0,0
11173,-66.6666666666667,4,1,0,40,0,0
11252,-66.6666666666667,4,1,0,42,0,0
11331,-66.6666666666667,4,1,0,44,0,0
11409,-66.6666666666667,4,1,0,46,0,0
11488,-66.6666666666667,4,1,0,48,0,0
11567,-66.6666666666667,4,1,0,50,0,0
11646,-66.6666666666667,4,1,0,52,0,0
11725,-66.6666666666667,4,1,0,54,0,0
11804,-66.6666666666667,4,1,0,56,0,0
11883,-66.6666666666667,4,1,0,58,0,0
11962,-66.6666666666667,4,1,0,60,0,0
12041,-66.6666666666667,4,1,0,62,0,0
12120,-66.6666666666667,4,1,0,64,0,0
12199,-66.6666666666667,4,1,0,66,0,0
12278,-66.6666666666667,4,1,0,68,0,0
12357,-66.6666666666667,4,1,0,70,0,0
14015,-100,4,1,0,60,0,0
14173,-66.6666666666667,4,1,0,60,0,0
15278,-133.333333333333,4,1,0,60,0,0
15436,-100,4,1,0,60,0,0
16225,-66.6666666666667,4,1,0,60,0,0
17488,-100,4,1,0,60,0,0
18436,-100,4,1,0,65,0,0
18752,-100,4,1,0,70,0,0
19699,-100,4,1,0,75,0,0
20016,-100,4,1,0,80,0,0
22541,-100,4,1,0,50,0,0
32290,-66.6666666666667,4,1,0,70,0,0
32646,-100,4,1,0,70,0,0
33278,-100,4,1,0,70,0,0
33909,-100,4,1,0,70,0,0
34541,-133.333333333333,4,1,0,70,0,0
35173,-100,4,1,0,70,0,0
35804,-133.333333333333,4,1,0,70,0,0
36436,-100,4,1,0,70,0,0
37067,-100,4,1,0,70,0,0
37383,-76.9230769230769,4,1,0,70,0,0
37699,-100,4,1,0,70,0,0
37699,-100,4,1,0,70,0,0
38962,-100,4,1,0,70,0,0
42278,-100,4,1,0,70,0,0
42752,-83.3333333333333,4,1,0,70,0,1
47173,-83.3333333333333,4,1,0,70,0,0
47804,-83.3333333333333,4,1,0,70,0,1
48120,-83.3333333333333,4,1,0,71,0,1
52225,-83.3333333333333,4,1,0,71,0,0
52857,-83.3333333333333,4,1,0,71,0,1
57278,-83.3333333333333,4,1,0,71,0,0
57909,-83.3333333333333,4,1,0,71,0,1
62962,-83.3333333333333,4,1,0,70,0,0
73067,-83.3333333333333,4,1,0,70,0,0
82857,-133.333333333333,4,1,0,70,0,0
83173,-66.6666666666667,4,1,0,70,0,0
83488,-83.3333333333333,4,1,0,70,0,0
92015,-66.6666666666667,4,1,0,70,0,0
93278,-83.3333333333333,4,1,0,70,0,0
97383,-66.6666666666667,4,1,0,70,0,0
98331,-76.9230769230769,4,1,0,70,0,0
103383,-66.6666666666667,4,1,0,70,0,1
113804,-66.6666666666667,4,1,0,70,0,1
123594,-83.3333333333333,4,1,0,70,0,0

[Colours]
Combo1 : 255,0,128
Combo2 : 0,128,255
Combo3 : 128,128,255
Combo4 : 128,0,128
Combo5 : 0,255,255

[HitObjects]
88,112,2331,5,0,0:0:0:0:
88,112,2488,1,0,0:0:0:0:
296,112,2646,1,0,0:0:0:0:
296,112,2804,1,0,0:0:0:0:
184,296,2962,5,0,0:0:0:0:
296,112,3120,1,0,0:0:0:0:
408,288,3278,1,0,0:0:0:0:
184,296,3436,6,0,P|136:216|152:128,1,180
280,192,3909,1,0,0:0:0:0:
400,56,4067,1,0,0:0:0:0:
224,48,4225,5,0,0:0:0:0:
464,208,4383,2,0,P|464:256|440:296,1,90
144,288,4699,6,0,P|208:232|304:224,1,180
80,352,5173,2,0,P|56:304|56:264,1,90
152,120,5488,5,0,0:0:0:0:
152,120,5646,2,0,P|240:120|328:80,1,180
416,240,6120,6,0,L|384:336,1,90
120,240,6436,2,0,L|148:325,1,90
408,56,6752,6,0,P|374:114|320:153,1,135.000005149842
120,240,7067,6,0,P|154:182|209:144,1,135.000005149842
40,80,7383,5,0,0:0:0:0:
120,240,7541,1,0,0:0:0:0:
296,216,7699,1,0,0:0:0:0:
168,344,7857,1,0,0:0:0:0:
200,168,8015,1,0,0:0:0:0:
288,328,8173,2,0,P|344:320|384:296,1,90
264,40,8488,6,0,P|144:48|64:128,1,233.999989288331
198,334,8962,2,0,L|299:327,1,90
352,160,9278,1,0,0:0:0:0:
176,168,9436,2,0,L|80:176,1,90
336,304,9752,6,0,P|464:264|480:128,1,270.000010299683
248,80,10225,2,0,P|280:136|344:176,1,135.000005149842
384,72,10541,1,0,0:0:0:0:
168,208,10699,2,0,B|144:296|208:360|208:360|288:288,1,270.000010299683
104,72,11173,5,0,0:0:0:0:
96,96,11252,1,0,0:0:0:0:
96,120,11331,1,0,0:0:0:0:
104,144,11409,1,0,0:0:0:0:
120,160,11488,1,0,0:0:0:0:
144,168,11567,1,0,0:0:0:0:
168,168,11646,1,0,0:0:0:0:
192,160,11725,1,0,0:0:0:0:
224,144,11804,1,0,0:0:0:0:
256,112,11883,1,0,0:0:0:0:
296,72,11962,1,0,0:0:0:0:
352,56,12041,1,0,0:0:0:0:
400,72,12120,1,0,0:0:0:0:
432,128,12199,1,0,0:0:0:0:
416,200,12278,1,0,0:0:0:0:
352,232,12357,1,0,0:0:0:0:
280,208,12436,6,0,P|208:192|136:200,1,135.000005149842
136,344,12752,2,0,P|208:360|280:352,1,135.000005149842
280,208,13067,1,0,0:0:0:0:
136,344,13225,1,0,0:0:0:0:
64,152,13383,1,0,0:0:0:0:
280,208,13541,6,0,P|416:184|480:72,1,270.000010299683
192,168,14015,2,0,P|184:208|192:256,1,90
312,88,14331,1,0,0:0:0:0:
112,48,14488,1,0,0:0:0:0:
304,104,14646,1,0,0:0:0:0:
56,224,14804,6,0,P|112:336|256:384,1,270.000010299683
480,248,15278,2,0,P|464:280|440:304,1,67.5000025749208
256,128,15594,1,0,0:0:0:0:
69,302,15752,2,0,P|16:224|16:136,1,180
384,48,16225,6,0,P|424:104|432:176,1,135.000005149842
79,168,16541,6,0,P|88:102|128:48,1,135.000005149842
432,248,16857,6,0,P|422:314|383:368,1,135.000005149842
128,368,17173,6,0,P|89:314|80:248,1,135.000005149842
256,64,17488,5,0,0:0:0:0:
272,112,17567,1,0,0:0:0:0:
312,136,17646,1,0,0:0:0:0:
360,136,17725,1,0,0:0:0:0:
408,144,17804,1,0,0:0:0:0:
448,168,17883,1,0,0:0:0:0:
472,208,17962,1,0,0:0:0:0:
472,256,18041,1,0,0:0:0:0:
448,296,18120,6,0,L|400:312,1,45
224,200,18278,2,0,L|272:184,1,45
240,304,18436,2,0,L|190:319,1,45
24,152,18594,2,0,L|75:139,1,45
248,80,18752,5,0,0:0:0:0:
304,80,18831,1,0,0:0:0:0:
344,104,18909,1,0,0:0:0:0:
368,152,18988,1,0,0:0:0:0:
368,200,19067,1,0,0:0:0:0:
344,240,19146,1,0,0:0:0:0:
304,264,19225,1,0,0:0:0:0:
256,264,19304,1,0,0:0:0:0:
216,240,19383,6,0,L|168:240,1,45
48,80,19541,2,0,L|96:80,1,45
280,160,19699,2,0,L|232:160,1,45
104,328,19857,2,0,L|160:328,1,45
51,192,20015,5,0,0:0:0:0:
51,192,20094,1,0,0:0:0:0:
51,192,20173,2,0,L|-13:192,1,45
216,56,20331,5,0,0:0:0:0:
216,56,20409,1,0,0:0:0:0:
216,56,20488,2,0,L|280:56,1,45
416,184,20646,2,0,L|376:184,1,22.5
416,216,20725,2,0,L|376:216,1,22.5
416,248,20804,2,0,L|376:248,1,22.5
416,280,20883,2,0,L|392:280,1,22.5
408,320,20962,2,0,L|376:312,1,22.5
392,352,21041,2,0,L|360:328,1,22.5
360,376,21120,2,0,L|352:352,1,22.5
320,384,21278,5,0,0:0:0:0:
200,32,21594,1,0,0:0:0:0:
16,296,21909,1,0,0:0:0:0:
16,296,22067,2,0,L|192:248,1,180
448,152,22541,5,0,0:0:0:0:
296,160,22699,1,0,0:0:0:0:
448,152,22857,5,0,0:0:0:0:
296,160,23015,1,0,0:0:0:0:
376,288,23173,6,0,P|336:312|288:312,1,90
136,288,23488,2,0,P|176:312|224:312,1,90
152,176,23804,5,0,0:0:0:0:
24,264,23962,1,0,0:0:0:0:
120,144,24120,1,0,0:0:0:0:
240,240,24278,1,0,0:0:0:0:
40,160,24436,6,0,P|48:112|72:80,1,90
200,160,24752,2,0,P|192:112|168:80,1,90
312,40,25067,5,0,0:0:0:0:
384,176,25225,1,0,0:0:0:0:
456,40,25383,1,0,0:0:0:0:
384,176,25541,1,0,0:0:0:0:
312,40,25699,5,0,0:0:0:0:
240,216,25857,1,0,0:0:0:0:
128,64,26015,1,0,0:0:0:0:
304,136,26173,1,0,0:0:0:0:
72,192,26331,5,0,0:0:0:0:
240,336,26488,1,0,0:0:0:0:
184,120,26646,1,0,0:0:0:0:
96,328,26804,1,0,0:0:0:0:
280,200,26962,6,0,L|376:184,1,90
208,24,27278,2,0,L|120:40,1,90
112,224,27594,5,0,0:0:0:0:
240,104,27752,1,0,0:0:0:0:
64,136,27910,1,0,0:0:0:0:
232,200,28067,1,0,0:0:0:0:
400,136,28225,6,0,P|432:176|440:216,1,90
336,360,28541,2,0,P|285:367|246:354,1,90
136,216,28857,5,0,0:0:0:0:
264,88,29015,1,0,0:0:0:0:
232,264,29173,1,0,0:0:0:0:
360,136,29331,1,0,0:0:0:0:
312,336,29488,5,0,0:0:0:0:
200,160,29646,1,0,0:0:0:0:
376,272,29804,1,0,0:0:0:0:
176,328,29962,1,0,0:0:0:0:
88,120,30120,5,0,0:0:0:0:
280,240,30278,1,0,0:0:0:0:
184,32,30436,1,0,0:0:0:0:
128,248,30594,1,0,0:0:0:0:
312,80,30752,5,0,0:0:0:0:
384,312,30909,1,0,0:0:0:0:
192,168,31067,1,0,0:0:0:0:
424,168,31225,1,0,0:0:0:0:
232,312,31383,6,0,L|144:328,1,90
16,152,31699,2,0,L|104:168,1,90
360,48,32015,6,0,L|272:64,1,90
232,344,32331,2,0,L|448:320,1,202.500007724762
336,192,32646,6,0,L|240:200,1,90
40,64,32962,2,0,P|88:88|112:120,1,90
160,352,33278,2,0,P|112:328|88:296,1,90
248,112,33594,2,0,P|288:130|317:163,1,90
440,376,33909,5,0,0:0:0:0:
232,256,34066,1,0,0:0:0:0:
440,128,34224,1,0,0:0:0:0:
328,344,34383,1,0,0:0:0:0:
336,144,34541,5,0,0:0:0:0:
480,248,34699,1,0,0:0:0:0:
328,344,34857,1,0,0:0:0:0:
184,232,35015,1,0,0:0:0:0:
336,144,35173,5,0,0:0:0:0:
208,352,35331,1,0,0:0:0:0:
160,112,35488,1,0,0:0:0:0:
344,272,35646,1,0,0:0:0:0:
80,256,35804,5,0,0:0:0:0:
232,152,35962,1,0,0:0:0:0:
200,336,36120,1,0,0:0:0:0:
136,168,36278,1,0,0:0:0:0:
344,272,36436,5,0,0:0:0:0:
248,48,36594,1,0,0:0:0:0:
152,272,36752,1,0,0:0:0:0:
248,48,36909,1,0,0:0:0:0:
256,288,37067,6,0,P|296:328|328:344,1,90
160,176,37383,2,0,P|104:208|40:216,1,116.999994644165
368,64,37699,5,0,0:0:0:0:
368,96,37778,1,0,0:0:0:0:
384,128,37857,1,0,0:0:0:0:
408,152,37936,1,0,0:0:0:0:
432,184,38015,1,0,0:0:0:0:
440,216,38094,1,0,0:0:0:0:
440,248,38173,1,0,0:0:0:0:
432,280,38252,1,0,0:0:0:0:
424,296,38331,1,0,0:0:0:0:
416,312,38409,1,0,0:0:0:0:
408,328,38488,2,0,L|360:328,1,45
224,200,38646,1,0,0:0:0:0:
224,200,38725,1,0,0:0:0:0:
224,200,38804,2,0,L|280:200,1,45
128,336,38962,5,0,0:0:0:0:
104,296,39041,1,0,0:0:0:0:
88,248,39120,1,0,0:0:0:0:
80,200,39199,1,0,0:0:0:0:
80,152,39278,1,0,0:0:0:0:
88,104,39357,1,0,0:0:0:0:
120,64,39436,1,0,0:0:0:0:
160,96,39515,1,0,0:0:0:0:
184,104,39594,1,0,0:0:0:0:
208,112,39673,1,0,0:0:0:0:
232,120,39752,2,0,L|280:112,1,45
432,264,39909,1,0,0:0:0:0:
432,264,39988,1,0,0:0:0:0:
432,264,40067,2,0,L|368:280,1,45
128,296,40225,5,0,0:0:0:0:
128,296,40304,1,0,0:0:0:0:
128,296,40383,2,0,L|112:240,1,45
224,64,40541,5,0,0:0:0:0:
224,64,40620,1,0,0:0:0:0:
224,64,40699,2,0,L|216:120,1,45
336,336,40857,5,0,0:0:0:0:
336,336,40936,1,0,0:0:0:0:
336,336,41015,2,0,L|320:288,1,45
448,24,41173,5,0,0:0:0:0:
448,24,41252,1,0,0:0:0:0:
448,24,41331,2,0,L|432:80,1,45
392,208,41488,5,0,0:0:0:0:
272,48,41646,1,0,0:0:0:0:
112,160,41804,1,0,0:0:0:0:
232,320,41962,1,0,0:0:0:0:
392,208,42120,5,0,0:0:0:0:
192,200,42278,1,0,0:0:0:0:
376,280,42436,1,0,0:0:0:0:
432,104,42594,1,0,0:0:0:0:
256,40,42752,5,8,0:0:0:0:
256,312,42909,1,0,0:0:0:0:
64,192,43067,5,8,0:0:0:0:
336,192,43225,1,0,0:0:0:0:
168,40,43383,5,8,0:0:0:0:
168,312,43541,1,0,0:0:0:0:
64,112,43699,5,8,0:0:0:0:
336,112,43857,1,0,0:0:0:0:
336,376,44015,5,8,0:0:0:0:
184,144,44173,1,0,0:0:0:0:
440,240,44331,1,8,0:0:0:0:
176,320,44488,1,0,0:0:0:0:
352,80,44646,5,8,0:0:0:0:
256,336,44804,1,0,0:0:0:0:
72,136,44962,1,8,0:0:0:0:
328,216,45120,1,0,0:0:0:0:
144,24,45278,5,8,0:0:0:0:
168,328,45436,1,0,0:0:0:0:
304,56,45594,1,8,0:0:0:0:
32,264,45752,1,0,0:0:0:0:
328,216,45910,5,8,0:0:0:0:
40,120,46067,1,0,0:0:0:0:
336,48,46225,1,8,0:0:0:0:
232,328,46383,1,0,0:0:0:0:
192,24,46541,5,8,0:0:0:0:
456,176,46699,1,0,0:0:0:0:
152,168,46857,1,8,0:0:0:0:
416,312,47015,1,0,0:0:0:0:
152,168,47173,6,0,P|128:120|128:48,1,107.999996704102,8|0,0:0|0:0,0:0:0:0:
388,210,47488,2,0,P|412:258|412:330,1,107.999996704102,8|0,0:0|0:0,0:0:0:0:
264,128,47804,5,8,0:0:0:0:
104,336,47962,1,0,0:0:0:0:
136,56,48120,5,8,0:0:0:0:
368,216,48278,1,0,0:0:0:0:
48,152,48436,5,8,0:0:0:0:
336,80,48594,1,0,0:0:0:0:
32,56,48752,5,8,0:0:0:0:
224,248,48909,1,0,0:0:0:0:
408,40,49067,5,8,0:0:0:0:
224,248,49225,1,0,0:0:0:0:
80,8,49383,1,8,0:0:0:0:
328,144,49541,1,0,0:0:0:0:
96,304,49699,5,8,0:0:0:0:
264,80,49857,1,0,0:0:0:0:
256,360,50015,1,8,0:0:0:0:
104,120,50173,1,0,0:0:0:0:
368,216,50331,5,8,0:0:0:0:
104,304,50488,1,0,0:0:0:0:
312,88,50646,1,8,0:0:0:0:
440,360,50804,1,0,0:0:0:0:
192,192,50962,5,8,0:0:0:0:
480,104,51120,1,0,0:0:0:0:
184,32,51278,1,8,0:0:0:0:
400,248,51436,1,0,0:0:0:0:
104,328,51594,5,8,0:0:0:0:
272,72,51752,1,0,0:0:0:0:
288,376,51909,1,8,0:0:0:0:
96,136,52067,1,0,0:0:0:0:
392,192,52225,6,0,L|512:168,1,107.999996704102,8|0,0:0|0:0,0:0:0:0:
96,136,52541,2,0,L|-24:160,1,107.999996704102,8|0,0:0|0:0,0:0:0:0:
280,64,52857,5,8,0:0:0:0:
280,368,53015,1,0,0:0:0:0:
96,136,53173,5,8,0:0:0:0:
400,136,53331,1,0,0:0:0:0:
136,32,53488,5,8,0:0:0:0:
136,336,53646,1,0,0:0:0:0:
0,160,53804,5,8,0:0:0:0:
312,160,53962,1,0,0:0:0:0:
312,376,54120,5,8,0:0:0:0:
136,104,54278,1,0,0:0:0:0:
440,200,54436,1,8,0:0:0:0:
128,288,54594,1,0,0:0:0:0:
336,40,54752,5,8,0:0:0:0:
232,344,54910,1,0,0:0:0:0:
200,24,55067,1,8,0:0:0:0:
400,280,55225,1,0,0:0:0:0:
96,168,55383,5,8,0:0:0:0:
408,88,55541,1,0,0:0:0:0:
168,312,55699,1,8,0:0:0:0:
264,8,55857,1,0,0:0:0:0:
368,312,56015,5,8,0:0:0:0:
48,272,56173,1,0,0:0:0:0:
344,144,56331,1,8,0:0:0:0:
24,96,56488,1,0,0:0:0:0:
208,368,56646,5,8,0:0:0:0:
224,48,56804,1,0,0:0:0:0:
384,328,56962,1,8,0:0:0:0:
416,8,57120,1,0,0:0:0:0:
144,184,57278,6,0,P|80:216|40:224,1,107.999996704102,8|0,0:0|0:0,0:0:0:0:
368,200,57594,2,0,P|432:168|472:160,1,107.999996704102,8|0,0:0|0:0,0:0:0:0:
208,360,57909,5,0,0:0:0:0:
232,320,57988,1,0,0:0:0:0:
248,272,58067,1,0,0:0:0:0:
256,224,58146,1,0,0:0:0:0:
256,176,58225,1,0,0:0:0:0:
248,128,58304,1,0,0:0:0:0:
232,80,58383,1,0,0:0:0:0:
208,40,58462,1,0,0:0:0:0:
160,16,58541,1,0,0:0:0:0:
160,16,58620,1,0,0:0:0:0:
160,16,58699,2,0,L|96:32,1,53.9999983520508
48,248,58857,1,0,0:0:0:0:
48,248,58936,1,0,0:0:0:0:
48,248,59015,2,0,L|128:232,1,53.9999983520508
376,272,59173,5,0,0:0:0:0:
408,240,59252,1,0,0:0:0:0:
424,192,59331,1,0,0:0:0:0:
424,144,59409,1,0,0:0:0:0:
408,96,59488,1,0,0:0:0:0:
368,72,59567,1,0,0:0:0:0:
320,88,59646,1,0,0:0:0:0:
272,72,59725,1,0,0:0:0:0:
224,88,59804,1,0,0:0:0:0:
224,88,59883,1,0,0:0:0:0:
224,88,59962,2,0,L|168:88,1,53.9999983520508
112,272,60120,1,0,0:0:0:0:
112,272,60199,1,0,0:0:0:0:
112,272,60278,2,0,L|48:272,1,53.9999983520508
344,328,60436,5,0,0:0:0:0:
352,272,60515,1,0,0:0:0:0:
336,216,60594,1,0,0:0:0:0:
296,176,60673,1,0,0:0:0:0:
240,160,60752,1,0,0:0:0:0:
184,144,60831,1,0,0:0:0:0:
152,96,60909,1,0,0:0:0:0:
160,40,60988,1,0,0:0:0:0:
208,8,61067,1,0,0:0:0:0:
264,16,61146,1,0,0:0:0:0:
296,64,61225,1,0,0:0:0:0:
288,120,61304,1,0,0:0:0:0:
240,160,61383,1,0,0:0:0:0:
184,184,61462,1,0,0:0:0:0:
144,232,61541,1,0,0:0:0:0:
144,288,61620,1,0,0:0:0:0:
168,344,61699,5,0,0:0:0:0:
424,144,61857,1,0,0:0:0:0:
424,144,61936,1,0,0:0:0:0:
424,144,62015,1,0,0:0:0:0:
120,40,62173,5,0,0:0:0:0:
304,304,62331,1,0,0:0:0:0:
304,304,62409,1,0,0:0:0:0:
304,304,62488,1,0,0:0:0:0:
32,256,62646,5,0,0:0:0:0:
224,0,62804,1,0,0:0:0:0:
304,304,62962,1,0,0:0:0:0:
88,112,73067,6,0,P|104:160|144:208,1,107.999996704102
376,204,73383,2,0,P|410:162|427:111,1,107.999996704102
256,40,73699,6,0,L|256:176,1,107.999996704102
192,192,73936,2,0,L|192:328,1,107.999996704102
144,368,74173,1,0,0:0:0:0:
96,192,74331,6,0,P|112:136|152:104,1,107.999996704102
312,120,74646,2,0,P|368:120|424:88,1,107.999996704102
264,56,74962,6,0,P|232:104|232:152,1,107.999996704102
288,208,75199,2,0,P|304:256|288:312,1,107.999996704102
232,368,75436,1,0,0:0:0:0:
88,248,75594,6,0,L|88:136,1,107.999996704102
208,24,75909,2,0,L|208:160,1,107.999996704102
320,248,76225,6,0,L|320:128,1,107.999996704102
360,72,76462,2,0,L|360:200,1,107.999996704102
400,248,76699,1,0,0:0:0:0:
256,352,76857,5,0,0:0:0:0:
136,240,77015,1,0,0:0:0:0:
136,216,77094,1,0,0:0:0:0:
136,192,77173,1,0,0:0:0:0:
136,168,77252,1,0,0:0:0:0:
136,144,77331,1,0,0:0:0:0:
136,312,77488,5,0,0:0:0:0:
48,160,77646,1,0,0:0:0:0:
216,208,77804,1,0,0:0:0:0:
248,40,77962,1,0,0:0:0:0:
248,40,78041,1,0,0:0:0:0:
248,40,78120,5,0,0:0:0:0:
256,80,78199,1,0,0:0:0:0:
280,120,78278,1,0,0:0:0:0:
320,144,78357,1,0,0:0:0:0:
360,152,78436,1,0,0:0:0:0:
400,152,78515,1,0,0:0:0:0:
440,136,78594,1,0,0:0:0:0:
472,104,78673,1,0,0:0:0:0:
480,64,78752,6,0,L|456:8,1,53.9999983520508
338,102,78909,2,0,L|360:152,1,53.9999983520508
480,256,79067,2,0,L|454:202,1,53.9999983520508
338,288,79225,2,0,L|360:338,1,53.9999983520508
216,296,79383,5,0,0:0:0:0:
184,272,79462,1,0,0:0:0:0:
168,232,79541,1,0,0:0:0:0:
168,192,79620,1,0,0:0:0:0:
184,152,79699,1,0,0:0:0:0:
192,112,79778,1,0,0:0:0:0:
184,72,79857,1,0,0:0:0:0:
160,40,79936,1,0,0:0:0:0:
120,24,80015,6,0,L|56:24,1,53.9999983520508
264,112,80173,2,0,L|328:112,1,53.9999983520508
120,192,80331,2,0,L|56:192,1,53.9999983520508
264,280,80488,2,0,L|352:280,1,53.9999983520508
392,280,80646,5,0,0:0:0:0:
168,120,80883,1,0,0:0:0:0:
424,16,81120,1,0,0:0:0:0:
392,280,81278,5,0,0:0:0:0:
168,120,81515,1,0,0:0:0:0:
424,16,81751,1,0,0:0:0:0:
392,280,81909,1,0,0:0:0:0:
184,296,82541,5,0,0:0:0:0:
344,48,82857,2,0,P|352:120|320:160,1,101.250003862381
184,296,83173,6,0,P|160:232|184:168,1,135.000005149842
248,48,83488,1,0,0:0:0:0:
240,232,83646,1,0,0:0:0:0:
96,120,83804,1,0,0:0:0:0:
240,232,83962,2,0,P|296:248|352:240,1,107.999996704102
512,80,84278,6,0,P|408:48|304:80,1,215.999993408203
160,184,84752,2,0,P|104:192|56:176,1,107.999996704102
192,48,85067,1,0,0:0:0:0:
264,216,85225,1,0,0:0:0:0:
112,112,85383,1,0,0:0:0:0:
136,296,85541,6,0,P|224:368|336:360,1,215.999993408203
424,184,86015,2,0,L|424:320,1,107.999996704102
296,160,86331,1,0,0:0:0:0:
128,224,86488,2,0,P|112:120|184:40,1,215.999993408203
354,74,86962,6,0,P|338:122|290:162,1,107.999996704102
128,224,87278,2,0,P|177:213|236:235,1,107.999996704102
376,352,87594,1,0,0:0:0:0:
232,232,87752,2,0,B|192:144|192:144|208:64|208:64|168:72,1,215.999993408203
104,240,88225,6,0,B|72:168|72:168|80:136,1,107.999996704102
264,136,88541,2,0,L|312:232,1,107.999996704102
232,64,88857,1,0,0:0:0:0:
392,232,89015,2,0,P|368:288|328:312,1,107.999996704102
64,272,89331,6,0,P|160:240|264:288,1,215.999993408203
64,272,89804,2,0,P|80:216|120:176,1,107.999996704102
280,104,90120,1,0,0:0:0:0:
424,216,90278,2,0,P|384:256|336:272,1,107.999996704102
144,128,90594,6,0,P|232:120|344:184,1,215.999993408203
376,344,91067,2,0,P|432:336|472:296,1,107.999996704102
480,216,91383,1,0,0:0:0:0:
280,280,91541,2,0,B|224:288|168:360|168:360|104:304,1,215.999993408203
128,48,92015,6,0,L|144:184,1,135.000005149842
384,336,92331,6,0,L|368:200,1,135.000005149842
56,232,92646,6,0,L|72:376,1,135.000005149842
248,168,92962,6,0,L|233:25,1,135.000005149842
233,33,93199,5,0,0:0:0:0:
233,33,93278,1,0,0:0:0:0:
400,112,93436,1,0,0:0:0:0:
296,264,93594,1,0,0:0:0:0:
464,184,93752,1,0,0:0:0:0:
400,352,93909,1,0,0:0:0:0:
312,176,94067,2,0,P|256:184|216:216,1,107.999996704102
168,384,94383,6,0,P|80:328|48:216,1,215.999993408203
136,64,94857,2,0,P|160:112|168:176,1,107.999996704102
64,144,95173,1,0,0:0:0:0:
248,128,95331,2,0,P|248:184|232:232,1,107.999996704102
280,8,95646,6,0,P|360:56|384:176,1,215.999993408203
272,312,96120,2,0,P|280:264|312:208,1,107.999996704102
384,296,96436,1,0,0:0:0:0:
192,232,96594,2,0,B|120:200|96:208|24:248|24:248|32:208|0:168,1,215.999993408203
168,96,97067,2,0,P|224:104|272:136,1,107.999996704102
352,344,97383,6,0,L|456:216,1,161.999995056153
324,29,97699,6,0,P|268:69|268:133,1,135.000005149842
188,355,98015,6,0,P|244:315|244:251,1,135.000005149842
88,112,98331,5,0,0:0:0:0:
112,152,98409,1,0,0:0:0:0:
152,176,98488,1,0,0:0:0:0:
200,192,98567,1,0,0:0:0:0:
240,168,98646,1,0,0:0:0:0:
280,144,98725,1,0,0:0:0:0:
328,136,98804,1,0,0:0:0:0:
376,144,98883,1,0,0:0:0:0:
416,168,98962,2,0,L|432:232,1,53.9999983520508
344,336,99120,2,0,L|328:272,1,53.9999983520508
184,232,99278,2,0,L|200:304,1,53.9999983520508
72,376,99436,2,0,L|56:288,1,53.9999983520508
64,168,99594,5,0,0:0:0:0:
96,128,99673,1,0,0:0:0:0:
136,104,99752,1,0,0:0:0:0:
184,88,99831,1,0,0:0:0:0:
232,80,99909,1,0,0:0:0:0:
280,80,99988,1,0,0:0:0:0:
328,96,100067,1,0,0:0:0:0:
368,120,100146,1,0,0:0:0:0:
400,152,100225,2,0,L|448:216,1,53.9999983520508
352,344,100383,2,0,L|384:296,1,53.9999983520508
256,152,100541,2,0,L|296:208,1,53.9999983520508
176,344,100699,2,0,L|208:296,1,53.9999983520508
96,152,100857,5,0,0:0:0:0:
96,152,100936,1,0,0:0:0:0:
96,152,101015,2,0,L|56:200,1,53.9999983520508
296,64,101173,5,0,0:0:0:0:
296,64,101252,1,0,0:0:0:0:
296,64,101331,2,0,L|336:16,1,53.9999983520508
224,312,101488,5,0,0:0:0:0:
224,312,101567,1,0,0:0:0:0:
224,312,101646,2,0,L|184:360,1,53.9999983520508
472,168,101804,5,0,0:0:0:0:
472,168,101883,1,0,0:0:0:0:
472,168,101962,2,0,L|512:120,1,53.9999983520508
416,232,102120,5,0,0:0:0:0:
152,8,102436,1,0,0:0:0:0:
72,352,102752,1,0,0:0:0:0:
72,352,102909,2,0,P|24:256|88:160,1,233.999989288331
424,96,103383,5,8,0:0:0:0:
240,328,103541,1,0,0:0:0:0:
120,56,103699,5,8,0:0:0:0:
352,240,103857,1,0,0:0:0:0:
64,304,104015,5,8,0:0:0:0:
272,96,104173,1,0,0:0:0:0:
336,368,104331,5,8,0:0:0:0:
128,160,104488,1,0,0:0:0:0:
416,72,104646,5,8,0:0:0:0:
232,304,104804,1,0,0:0:0:0:
80,48,104962,1,8,0:0:0:0:
344,176,105120,1,0,0:0:0:0:
56,232,105278,5,8,0:0:0:0:
272,32,105436,1,0,0:0:0:0:
336,320,105594,1,8,0:0:0:0:
56,232,105752,1,0,0:0:0:0:
328,120,105909,5,8,0:0:0:0:
152,360,106067,1,0,0:0:0:0:
192,64,106225,1,8,0:0:0:0:
0,296,106383,1,0,0:0:0:0:
128,24,106541,5,8,0:0:0:0:
392,152,106699,1,0,0:0:0:0:
96,192,106857,1,8,0:0:0:0:
360,328,107015,1,0,0:0:0:0:
264,48,107173,5,8,0:0:0:0:
216,336,107331,1,0,0:0:0:0:
104,64,107488,1,8,0:0:0:0:
368,208,107646,1,0,0:0:0:0:
72,248,107804,6,0,P|24:184|8:128,1,135.000005149842,8|0,0:0|0:0,0:0:0:0:
304,92,108120,2,0,P|352:156|368:212,1,135.000005149842,8|0,0:0|0:0,0:0:0:0:
104,344,108436,5,8,0:0:0:0:
232,48,108594,1,0,0:0:0:0:
368,344,108752,5,8,0:0:0:0:
232,48,108909,1,0,0:0:0:0:
232,376,109067,5,8,0:0:0:0:
232,48,109225,1,0,0:0:0:0:
72,328,109383,5,8,0:0:0:0:
400,328,109541,1,0,0:0:0:0:
112,176,109699,5,8,0:0:0:0:
424,256,109857,1,0,0:0:0:0:
192,0,110015,1,8,0:0:0:0:
248,320,110173,1,0,0:0:0:0:
392,32,110331,5,8,0:0:0:0:
72,72,110488,1,0,0:0:0:0:
312,288,110646,1,8,0:0:0:0:
96,96,110804,1,0,0:0:0:0:
400,200,110962,5,8,0:0:0:0:
88,288,111120,1,0,0:0:0:0:
344,56,111278,1,8,0:0:0:0:
16,48,111436,1,0,0:0:0:0:
176,328,111594,5,8,0:0:0:0:
344,56,111752,1,0,0:0:0:0:
72,232,111909,1,8,0:0:0:0:
392,184,112067,1,0,0:0:0:0:
96,40,112225,5,8,0:0:0:0:
288,352,112383,1,0,0:0:0:0:
416,8,112541,1,8,0:0:0:0:
152,264,112699,1,0,0:0:0:0:
432,24,112857,5,8,0:0:0:0:
224,320,113015,1,0,0:0:0:0:
40,8,113173,1,8,0:0:0:0:
352,200,113331,1,0,0:0:0:0:
352,200,113804,6,0,P|304:240|232:264,1,135.000005149842,4|0,0:0|0:0,0:0:0:0:
104,240,114120,1,0,0:0:0:0:
240,136,114278,1,0,0:0:0:0:
104,240,114436,1,0,0:0:0:0:
80,72,114594,1,0,0:0:0:0:
80,72,114909,6,0,L|224:72,1,135.000005149842,4|0,0:0|0:0,0:0:0:0:
416,72,115541,5,0,0:0:0:0:
88,320,115857,1,0,0:0:0:0:
416,72,116015,5,8,0:0:0:0:
176,344,116173,1,0,0:0:0:0:
360,32,116331,1,8,0:0:0:0:
8,160,116488,1,0,0:0:0:0:
352,288,116646,5,8,0:0:0:0:
96,32,116804,1,0,0:0:0:0:
208,376,116962,1,8,0:0:0:0:
432,88,117120,1,0,0:0:0:0:
104,240,117278,5,8,0:0:0:0:
464,272,117436,1,0,0:0:0:0:
104,240,117594,1,8,0:0:0:0:
464,272,117752,1,0,0:0:0:0:
200,24,117909,5,8,0:0:0:0:
272,384,118067,1,0,0:0:0:0:
400,40,118225,1,8,0:0:0:0:
152,312,118383,2,0,P|48:232|48:88,1,270.000010299683
41,101,118857,6,0,P|112:120|184:104,1,135.000005149842,8|0,0:0|0:0,0:0:0:0:
408,64,119173,1,8,0:0:0:0:
176,360,119331,1,0,0:0:0:0:
224,0,119488,1,8,0:0:0:0:
392,320,119646,1,0,0:0:0:0:
72,144,119804,5,8,0:0:0:0:
392,320,119962,1,0,0:0:0:0:
32,272,120120,1,8,0:0:0:0:
368,136,120278,5,0,0:0:0:0:
240,48,120594,1,0,0:0:0:0:
224,200,120909,1,0,0:0:0:0:
224,200,121067,5,8,0:0:0:0:
408,128,121225,1,0,0:0:0:0:
40,128,121383,1,8,0:0:0:0:
328,352,121541,1,0,0:0:0:0:
160,24,121699,5,8,0:0:0:0:
40,368,121857,1,0,0:0:0:0:
272,80,122015,1,8,0:0:0:0:
488,376,122173,1,0,0:0:0:0:
176,136,122331,5,8,0:0:0:0:
256,336,122488,1,0,0:0:0:0:
256,336,122567,1,0,0:0:0:0:
256,336,122646,1,8,0:0:0:0:
352,8,122804,5,0,0:0:0:0:
480,352,122962,1,8,0:0:0:0:
480,352,123041,1,0,0:0:0:0:
480,352,123120,1,0,0:0:0:0:
272,32,123278,5,8,0:0:0:0:
16,200,123436,1,0,0:0:0:0:
480,352,123594,1,4,0:0:0:0:
