osu file format v14

[General]
AudioFilename: zero.mp3
AudioLeadIn: 0
PreviewTime: 62974
Countdown: 0
SampleSet: Soft
StackLeniency: 0.7
Mode: 3
LetterboxInBreaks: 0
SpecialStyle: 1
WidescreenStoryboard: 0

[Editor]
Bookmarks: 3163,9239,15315,27372,30505,33543,36581,39619,45695,51771,57847,63163,63923,66581,66961,72657,73037,76075,88037
DistanceSpacing: 1.3
BeatDivisor: 4
GridSize: 4
TimelineZoom: 1.6

[Metadata]
Title:&Z (TV size)
TitleUnicode:&Z (TV size)
Artist:SawanoHiroyuki[nZk]:mizuki
ArtistUnicode:SawanoHiroyuki[nZk]:mizuki
Creator:[Shana Lesus]
Version:Kawawa's Hyper
Source:アルドノア・ゼロ
Tags:Aldnoah.Zero kawawa opening 2nd season 2 s2
BeatmapID:713566
BeatmapSetID:316961

[Difficulty]
HPDrainRate:7.5
CircleSize:8
OverallDifficulty:7.5
ApproachRate:5
SliderMultiplier:1.4
SliderTickRate:1

[Events]
//Background and Video events
0,0,"aldnoah.jpg",0,0
Video,-282,"video.avi"
//Break Periods
//Storyboard Layer 0 (Background)
//Storyboard Layer 1 (Fail)
//Storyboard Layer 2 (Pass)
//Storyboard Layer 3 (Foreground)
//Storyboard Sound Samples

[TimingPoints]
126,379.746835443038,4,2,1,50,1,0
3163,-100,4,2,1,50,0,1
15315,-100,4,2,1,50,0,0
63923,-100,4,2,1,50,0,1
88227,-100,4,2,1,50,0,0

[HitObjects]
32,192,3163,5,8,0:0:0:0:
96,192,3163,1,8,0:0:0:0:
288,192,3163,1,2,0:0:0:0:
480,192,3163,1,0,0:0:0:0:
352,192,3353,1,8,0:0:0:0:
224,192,3543,1,2,0:0:0:0:
352,192,3733,1,2,0:0:0:0:
288,192,3923,1,0,0:0:0:0:
224,192,3923,1,8,0:0:0:0:
352,192,4113,1,2,0:0:0:0:
224,192,4303,1,2,0:0:0:0:
480,192,4493,1,8,0:0:0:0:
352,192,4493,1,0,0:0:0:0:
160,192,4682,1,2,0:0:0:0:
288,192,4872,1,2,0:0:0:0:
480,192,5062,1,8,0:0:0:0:
416,192,5062,1,0,0:0:0:0:
288,192,5252,1,2,0:0:0:0:
160,192,5442,1,0,0:0:0:0:
96,192,5442,1,8,0:0:0:0:
288,192,5632,1,2,0:0:0:0:
416,192,5822,1,2,0:0:0:0:
288,192,6012,1,2,0:0:0:0:
160,192,6201,1,0,0:0:0:0:
96,192,6201,1,8,0:0:0:0:
352,192,6391,1,0,0:0:0:0:
480,192,6391,1,8,0:0:0:0:
224,192,6581,1,2,0:0:0:0:
416,192,6771,1,2,0:0:0:0:
160,192,6961,1,8,0:0:0:0:
288,192,6961,1,0,0:0:0:0:
416,192,7151,1,2,0:0:0:0:
224,192,7341,1,2,0:0:0:0:
480,192,7531,1,8,0:0:0:0:
352,192,7531,1,0,0:0:0:0:
224,192,7720,1,2,0:0:0:0:
96,192,7910,1,2,0:0:0:0:
416,192,8100,1,8,0:0:0:0:
288,192,8100,1,0,0:0:0:0:
160,192,8290,1,2,0:0:0:0:
416,192,8480,1,8,0:0:0:0:
288,192,8480,1,0,0:0:0:0:
96,192,8670,1,2,0:0:0:0:
224,192,8860,1,2,0:0:0:0:
352,192,9050,1,2,0:0:0:0:
32,192,9239,1,8,0:0:0:0:
96,192,9239,1,0,0:0:0:0:
224,192,9239,1,0,0:0:0:0:
480,192,9429,1,8,0:0:0:0:
352,192,9429,1,2,0:0:0:0:
160,192,9619,1,2,0:0:0:0:
288,192,9809,1,2,0:0:0:0:
160,192,9999,1,0,0:0:0:0:
96,192,9999,1,8,0:0:0:0:
288,192,10189,1,2,0:0:0:0:
416,192,10379,1,2,0:0:0:0:
224,192,10569,1,0,0:0:0:0:
96,192,10569,1,8,0:0:0:0:
352,192,10758,1,2,0:0:0:0:
352,192,10948,1,2,0:0:0:0:
96,192,11138,1,8,0:0:0:0:
160,192,11138,1,0,0:0:0:0:
416,192,11328,1,2,0:0:0:0:
224,192,11518,1,0,0:0:0:0:
96,192,11518,1,8,0:0:0:0:
480,192,11708,1,2,0:0:0:0:
480,192,11898,1,2,0:0:0:0:
480,192,12088,1,2,0:0:0:0:
352,192,12277,1,0,0:0:0:0:
416,192,12277,1,8,0:0:0:0:
224,192,12467,1,0,0:0:0:0:
96,192,12467,1,8,0:0:0:0:
480,192,12657,1,2,0:0:0:0:
352,192,12847,1,2,0:0:0:0:
224,192,13037,1,0,0:0:0:0:
160,192,13037,1,8,0:0:0:0:
416,192,13227,1,2,0:0:0:0:
416,192,13417,1,2,0:0:0:0:
224,192,13607,1,0,0:0:0:0:
96,192,13607,1,8,0:0:0:0:
352,192,13796,1,2,0:0:0:0:
480,192,13986,1,2,0:0:0:0:
224,192,14176,1,0,0:0:0:0:
160,192,14176,1,8,0:0:0:0:
416,192,14366,1,2,0:0:0:0:
224,192,14556,1,0,0:0:0:0:
96,192,14556,1,8,0:0:0:0:
352,192,14746,1,2,0:0:0:0:
224,192,14936,1,2,0:0:0:0:
416,192,15126,1,2,0:0:0:0:
96,192,15315,1,0,0:0:0:0:
224,192,15315,1,0,0:0:0:0:
32,192,15315,1,8,0:0:0:0:
288,192,15695,1,2,0:0:0:0:
352,192,16075,1,8,0:0:0:0:
480,192,16075,1,0,0:0:0:0:
224,192,16265,1,2,0:0:0:0:
224,192,16455,1,2,0:0:0:0:
416,192,16834,1,2,0:0:0:0:
416,192,17214,1,2,0:0:0:0:
288,192,17594,1,8,0:0:0:0:
160,192,17594,1,0,0:0:0:0:
416,192,17974,1,2,0:0:0:0:
96,192,18353,1,2,0:0:0:0:
96,192,18733,1,2,0:0:0:0:
352,192,19113,1,8,0:0:0:0:
224,192,19113,1,0,0:0:0:0:
480,192,19303,1,2,0:0:0:0:
480,192,19493,1,2,0:0:0:0:
160,192,19872,1,2,0:0:0:0:
160,192,20252,1,2,0:0:0:0:
288,192,20632,1,8,0:0:0:0:
416,192,20632,1,0,0:0:0:0:
160,192,21012,1,2,0:0:0:0:
352,192,21391,1,2,0:0:0:0:
352,192,21771,1,2,0:0:0:0:
288,192,22151,1,8,0:0:0:0:
224,192,22151,1,0,0:0:0:0:
96,192,22341,1,2,0:0:0:0:
96,192,22531,1,2,0:0:0:0:
416,192,22910,1,2,0:0:0:0:
416,192,23290,1,2,0:0:0:0:
160,192,23670,1,8,0:0:0:0:
224,192,23670,1,0,0:0:0:0:
416,192,24050,1,2,0:0:0:0:
288,192,24429,1,2,0:0:0:0:
288,192,24809,1,2,0:0:0:0:
480,192,25189,1,8,0:0:0:0:
416,192,25189,1,0,0:0:0:0:
160,192,25379,1,2,0:0:0:0:
160,192,25569,1,2,0:0:0:0:
352,192,25948,1,2,0:0:0:0:
352,192,26328,1,2,0:0:0:0:
224,192,26708,1,8,0:0:0:0:
96,192,26708,1,0,0:0:0:0:
352,192,27088,1,2,0:0:0:0:
32,192,27467,1,8,0:0:0:0:
288,192,27467,1,8,0:0:0:0:
480,192,27467,1,0,0:0:0:0:
96,192,27467,1,0,0:0:0:0:
96,192,27657,1,0,0:0:0:0:
96,192,27847,1,2,0:0:0:0:
96,192,28037,1,0,0:0:0:0:
96,192,28227,1,0,0:0:0:0:
352,192,28227,1,8,0:0:0:0:
480,192,28227,1,0,0:0:0:0:
352,192,28417,1,2,0:0:0:0:
352,192,28607,1,2,0:0:0:0:
352,192,28796,1,0,0:0:0:0:
224,192,28986,1,2,0:0:0:0:
160,192,28986,1,0,0:0:0:0:
416,192,29176,1,0,0:0:0:0:
224,192,29366,1,2,0:0:0:0:
160,192,29366,1,0,0:0:0:0:
416,192,29556,1,0,0:0:0:0:
160,192,29746,1,0,0:0:0:0:
96,192,29746,1,8,0:0:0:0:
288,192,29746,1,0,0:0:0:0:
480,192,29936,1,0,0:0:0:0:
352,192,30126,1,2,0:0:0:0:
224,192,30315,1,0,0:0:0:0:
96,192,30505,1,2,0:0:0:0:
480,192,30505,1,0,0:0:0:0:
480,192,30695,1,0,0:0:0:0:
480,192,30885,1,2,0:0:0:0:
480,192,31075,1,0,0:0:0:0:
480,192,31265,1,8,0:0:0:0:
224,192,31265,1,8,0:0:0:0:
96,192,31265,1,0,0:0:0:0:
224,192,31455,1,2,0:0:0:0:
224,192,31644,1,2,0:0:0:0:
224,192,31834,1,0,0:0:0:0:
352,192,32024,1,2,0:0:0:0:
416,192,32024,1,0,0:0:0:0:
160,192,32214,1,0,0:0:0:0:
352,192,32404,1,2,0:0:0:0:
416,192,32404,1,0,0:0:0:0:
160,192,32594,1,0,0:0:0:0:
416,192,32784,1,0,0:0:0:0:
480,192,32784,1,8,0:0:0:0:
288,192,32784,1,0,0:0:0:0:
96,192,32974,1,0,0:0:0:0:
224,192,33163,1,2,0:0:0:0:
352,192,33353,1,0,0:0:0:0:
480,192,33543,1,2,0:0:0:0:
160,192,33543,1,0,0:0:0:0:
160,192,33733,1,0,0:0:0:0:
160,192,33923,1,2,0:0:0:0:
160,192,34113,1,0,0:0:0:0:
416,192,34303,1,8,0:0:0:0:
288,192,34303,1,0,0:0:0:0:
160,192,34303,1,0,0:0:0:0:
416,192,34493,1,2,0:0:0:0:
416,192,34682,1,2,0:0:0:0:
416,192,34872,1,0,0:0:0:0:
160,192,35062,1,2,0:0:0:0:
96,192,35062,1,0,0:0:0:0:
352,192,35252,1,0,0:0:0:0:
96,192,35442,1,2,0:0:0:0:
160,192,35442,1,0,0:0:0:0:
352,192,35632,1,0,0:0:0:0:
96,192,35822,1,8,0:0:0:0:
480,192,35822,1,0,0:0:0:0:
224,192,35822,1,0,0:0:0:0:
288,192,36012,1,0,0:0:0:0:
352,192,36201,1,2,0:0:0:0:
224,192,36391,1,0,0:0:0:0:
416,192,36581,1,2,0:0:0:0:
96,192,36581,1,0,0:0:0:0:
416,192,36771,1,0,0:0:0:0:
416,192,36961,1,2,0:0:0:0:
416,192,37151,1,0,0:0:0:0:
288,192,37341,1,0,0:0:0:0:
416,192,37341,1,8,0:0:0:0:
160,192,37341,1,0,0:0:0:0:
160,192,37531,1,2,0:0:0:0:
160,192,37720,1,2,0:0:0:0:
160,192,37910,1,0,0:0:0:0:
480,192,38100,1,2,0:0:0:0:
416,192,38100,1,0,0:0:0:0:
224,192,38290,1,0,0:0:0:0:
416,192,38480,1,2,0:0:0:0:
480,192,38480,1,0,0:0:0:0:
224,192,38670,1,0,0:0:0:0:
480,192,38860,1,8,0:0:0:0:
352,192,38860,1,0,0:0:0:0:
96,192,38860,1,0,0:0:0:0:
288,192,39050,1,0,0:0:0:0:
224,192,39239,1,2,0:0:0:0:
352,192,39429,1,0,0:0:0:0:
480,192,39619,1,2,0:0:0:0:
32,192,39619,1,2,0:0:0:0:
96,192,39619,1,0,0:0:0:0:
224,192,39619,1,0,0:0:0:0:
288,192,39999,1,2,0:0:0:0:
96,192,40379,1,2,0:0:0:0:
288,192,40758,1,2,0:0:0:0:
96,192,41138,1,2,0:0:0:0:
352,192,41518,1,2,0:0:0:0:
96,192,41898,1,2,0:0:0:0:
352,192,42277,1,2,0:0:0:0:
96,192,42657,1,2,0:0:0:0:
416,192,43037,1,2,0:0:0:0:
96,192,43417,1,2,0:0:0:0:
416,192,43796,1,2,0:0:0:0:
96,192,44176,1,2,0:0:0:0:
480,192,44556,1,2,0:0:0:0:
96,192,44936,1,2,0:0:0:0:
480,192,45315,1,2,0:0:0:0:
96,192,45695,1,2,0:0:0:0:
288,192,45695,1,0,0:0:0:0:
480,192,45885,1,0,0:0:0:0:
96,192,46075,1,2,0:0:0:0:
416,192,46265,1,0,0:0:0:0:
96,192,46455,1,2,0:0:0:0:
352,192,46644,1,0,0:0:0:0:
96,192,46834,1,2,0:0:0:0:
288,192,47024,1,0,0:0:0:0:
480,192,47214,1,2,0:0:0:0:
224,192,47404,1,0,0:0:0:0:
480,192,47594,1,2,0:0:0:0:
160,192,47784,1,0,0:0:0:0:
480,192,47974,1,2,0:0:0:0:
96,192,48163,1,0,0:0:0:0:
480,192,48353,1,2,0:0:0:0:
160,192,48543,1,0,0:0:0:0:
480,192,48733,1,2,0:0:0:0:
288,192,48733,1,0,0:0:0:0:
416,192,48923,1,0,0:0:0:0:
96,192,49113,1,2,0:0:0:0:
352,192,49303,1,0,0:0:0:0:
160,192,49493,1,2,0:0:0:0:
288,192,49682,1,0,0:0:0:0:
224,192,49872,1,2,0:0:0:0:
480,192,50062,1,0,0:0:0:0:
160,192,50252,1,2,0:0:0:0:
416,192,50442,1,0,0:0:0:0:
224,192,50632,1,2,0:0:0:0:
352,192,50822,1,0,0:0:0:0:
288,192,51012,1,2,0:0:0:0:
416,192,51201,1,0,0:0:0:0:
224,192,51391,1,2,0:0:0:0:
96,192,51391,1,0,0:0:0:0:
480,192,51581,1,0,0:0:0:0:
160,192,51771,1,2,0:0:0:0:
288,192,51771,1,0,0:0:0:0:
352,192,52151,1,2,0:0:0:0:
416,192,52151,1,0,0:0:0:0:
288,192,52341,1,0,0:0:0:0:
96,192,52531,1,8,0:0:0:0:
224,192,52531,1,0,0:0:0:0:
480,192,52531,1,0,0:0:0:0:
416,192,52910,1,2,0:0:0:0:
288,192,52910,1,0,0:0:0:0:
160,192,53100,1,0,0:0:0:0:
416,192,53290,1,2,0:0:0:0:
288,192,53290,1,0,0:0:0:0:
224,192,53670,1,2,0:0:0:0:
160,192,53670,1,0,0:0:0:0:
288,192,53860,1,0,0:0:0:0:
480,192,54050,1,0,0:0:0:0:
96,192,54050,1,8,0:0:0:0:
352,192,54050,1,0,0:0:0:0:
160,192,54429,1,2,0:0:0:0:
288,192,54429,1,0,0:0:0:0:
416,192,54619,1,0,0:0:0:0:
288,192,54809,1,2,0:0:0:0:
160,192,54809,1,0,0:0:0:0:
224,192,55189,1,2,0:0:0:0:
352,192,55189,1,0,0:0:0:0:
480,192,55569,1,8,0:0:0:0:
288,192,55569,1,0,0:0:0:0:
96,192,55569,1,0,0:0:0:0:
224,192,55948,1,2,0:0:0:0:
352,192,55948,1,0,0:0:0:0:
160,192,56138,1,0,0:0:0:0:
96,192,56328,1,2,0:0:0:0:
480,192,56328,1,0,0:0:0:0:
224,192,56708,1,2,0:0:0:0:
352,192,56708,1,0,0:0:0:0:
288,192,57088,1,0,0:0:0:0:
96,192,57088,1,8,0:0:0:0:
480,192,57088,1,0,0:0:0:0:
224,192,57467,1,2,0:0:0:0:
352,192,57467,1,0,0:0:0:0:
160,192,57657,1,0,0:0:0:0:
96,192,57847,1,2,0:0:0:0:
288,192,57847,1,0,0:0:0:0:
416,192,58037,1,0,0:0:0:0:
160,192,58227,1,2,0:0:0:0:
224,192,58227,1,0,0:0:0:0:
352,192,58417,1,0,0:0:0:0:
480,192,58607,1,8,0:0:0:0:
160,192,58607,1,0,0:0:0:0:
96,192,58607,1,0,0:0:0:0:
224,192,58796,1,0,0:0:0:0:
352,192,58986,1,2,0:0:0:0:
416,192,58986,1,0,0:0:0:0:
224,192,59176,1,0,0:0:0:0:
96,192,59366,1,2,0:0:0:0:
160,192,59366,1,0,0:0:0:0:
288,192,59556,1,0,0:0:0:0:
224,192,59746,1,2,0:0:0:0:
416,192,59746,1,0,0:0:0:0:
352,192,59936,1,0,0:0:0:0:
288,192,60126,1,0,0:0:0:0:
96,192,60126,1,8,0:0:0:0:
480,192,60126,1,0,0:0:0:0:
224,192,60315,1,0,0:0:0:0:
352,192,60505,5,2,0:0:0:0:
416,192,60505,1,0,0:0:0:0:
224,192,60695,1,0,0:0:0:0:
160,192,60885,1,0,0:0:0:0:
96,192,60885,1,2,0:0:0:0:
288,192,61075,1,0,0:0:0:0:
224,192,61265,1,2,0:0:0:0:
416,192,61265,1,0,0:0:0:0:
352,192,61455,1,0,0:0:0:0:
96,192,61644,5,8,0:0:0:0:
288,192,61644,1,0,0:0:0:0:
480,192,61644,1,0,0:0:0:0:
224,192,61834,1,0,0:0:0:0:
160,192,62024,5,2,0:0:0:0:
352,192,62024,1,0,0:0:0:0:
96,192,62214,1,8,0:0:0:0:
288,192,62214,1,0,0:0:0:0:
480,192,62214,1,0,0:0:0:0:
160,192,63163,1,4,0:0:0:0:
288,192,63163,1,4,0:0:0:0:
416,192,63163,1,0,0:0:0:0:
224,192,63733,1,2,0:0:0:0:
32,192,63923,1,8,0:0:0:0:
96,192,63923,1,0,0:0:0:0:
288,192,63923,1,8,0:0:0:0:
480,192,63923,1,0,0:0:0:0:
352,192,64113,1,2,0:0:0:0:
352,192,64303,1,2,0:0:0:0:
96,192,64493,1,0,0:0:0:0:
480,192,64493,1,8,0:0:0:0:
224,192,64493,1,0,0:0:0:0:
352,192,64682,1,2,0:0:0:0:
288,192,64872,1,2,0:0:0:0:
160,192,65062,1,0,0:0:0:0:
416,192,65062,1,8,0:0:0:0:
96,192,65062,1,0,0:0:0:0:
352,192,65252,1,2,0:0:0:0:
288,192,65442,1,0,0:0:0:0:
480,192,65442,1,8,0:0:0:0:
96,192,65442,1,0,0:0:0:0:
224,192,65632,1,2,0:0:0:0:
224,192,65822,1,2,0:0:0:0:
352,192,66012,1,0,0:0:0:0:
480,192,66012,1,8,0:0:0:0:
96,192,66012,1,0,0:0:0:0:
224,192,66201,1,2,0:0:0:0:
288,192,66391,1,2,0:0:0:0:
352,192,66581,1,0,0:0:0:0:
96,192,66581,1,8,0:0:0:0:
480,192,66581,1,0,0:0:0:0:
96,192,66771,1,8,0:0:0:0:
288,192,66771,1,0,0:0:0:0:
224,192,66961,1,0,0:0:0:0:
96,192,66961,1,8,0:0:0:0:
416,192,66961,1,0,0:0:0:0:
480,192,67151,1,2,0:0:0:0:
480,192,67341,1,2,0:0:0:0:
352,192,67531,1,8,0:0:0:0:
224,192,67531,1,0,0:0:0:0:
160,192,67531,1,0,0:0:0:0:
416,192,67720,1,2,0:0:0:0:
288,192,67910,1,2,0:0:0:0:
480,192,68100,1,8,0:0:0:0:
352,192,68100,1,0,0:0:0:0:
96,192,68100,1,0,0:0:0:0:
224,192,68290,1,2,0:0:0:0:
224,192,68480,1,2,0:0:0:0:
480,192,68670,1,8,0:0:0:0:
416,192,68670,1,0,0:0:0:0:
160,192,68670,1,0,0:0:0:0:
224,192,68860,1,2,0:0:0:0:
96,192,69050,1,2,0:0:0:0:
480,192,69239,1,8,0:0:0:0:
352,192,69239,1,0,0:0:0:0:
160,192,69239,1,0,0:0:0:0:
288,192,69429,1,2,0:0:0:0:
224,192,69619,1,0,0:0:0:0:
96,192,69619,1,8,0:0:0:0:
416,192,69619,1,0,0:0:0:0:
288,192,69809,1,2,0:0:0:0:
480,192,69999,1,8,0:0:0:0:
352,192,69999,1,0,0:0:0:0:
32,192,69999,1,0,0:0:0:0:
96,192,69999,1,0,0:0:0:0:
160,192,70189,1,2,0:0:0:0:
160,192,70379,1,2,0:0:0:0:
480,192,70569,1,8,0:0:0:0:
416,192,70569,1,0,0:0:0:0:
288,192,70569,1,0,0:0:0:0:
96,192,70758,1,2,0:0:0:0:
224,192,70948,1,2,0:0:0:0:
352,192,71138,1,0,0:0:0:0:
480,192,71138,1,8,0:0:0:0:
96,192,71138,1,0,0:0:0:0:
288,192,71328,1,2,0:0:0:0:
96,192,71518,1,8,0:0:0:0:
224,192,71518,1,0,0:0:0:0:
480,192,71518,1,0,0:0:0:0:
352,192,71708,1,2,0:0:0:0:
352,192,71898,1,2,0:0:0:0:
416,192,72088,1,0,0:0:0:0:
480,192,72088,1,8,0:0:0:0:
160,192,72088,1,0,0:0:0:0:
288,192,72277,1,2,0:0:0:0:
480,192,72467,1,2,0:0:0:0:
96,192,72657,1,8,0:0:0:0:
416,192,72657,1,0,0:0:0:0:
224,192,72657,1,0,0:0:0:0:
288,192,72847,1,0,0:0:0:0:
96,192,72847,1,8,0:0:0:0:
480,192,73037,1,0,0:0:0:0:
96,192,73037,1,8,0:0:0:0:
352,192,73037,1,0,0:0:0:0:
224,192,73227,1,2,0:0:0:0:
224,192,73417,1,2,0:0:0:0:
288,192,73607,1,8,0:0:0:0:
480,192,73607,1,0,0:0:0:0:
416,192,73607,1,0,0:0:0:0:
160,192,73796,1,2,0:0:0:0:
96,192,73986,1,2,0:0:0:0:
480,192,74176,1,8,0:0:0:0:
352,192,74176,1,0,0:0:0:0:
224,192,74176,1,0,0:0:0:0:
160,192,74366,1,2,0:0:0:0:
160,192,74556,1,2,0:0:0:0:
480,192,74746,1,8,0:0:0:0:
96,192,74746,1,0,0:0:0:0:
416,192,74746,1,0,0:0:0:0:
352,192,74936,1,2,0:0:0:0:
288,192,75126,1,2,0:0:0:0:
96,192,75315,1,8,0:0:0:0:
480,192,75315,1,0,0:0:0:0:
224,192,75315,1,0,0:0:0:0:
416,192,75505,1,0,0:0:0:0:
352,192,75505,1,2,0:0:0:0:
160,192,75600,1,0,0:0:0:0:
224,192,75600,1,2,0:0:0:0:
352,192,75695,1,0,0:0:0:0:
480,192,75695,1,2,0:0:0:0:
96,192,75790,1,0,0:0:0:0:
224,192,75790,1,2,0:0:0:0:
352,192,75885,1,2,0:0:0:0:
416,192,75885,1,0,0:0:0:0:
224,192,75980,1,2,0:0:0:0:
160,192,75980,1,0,0:0:0:0:
288,192,76075,1,0,0:0:0:0:
480,192,76075,1,8,0:0:0:0:
32,192,76075,1,0,0:0:0:0:
96,192,76075,1,0,0:0:0:0:
416,192,76265,1,0,0:0:0:0:
160,192,76265,1,2,0:0:0:0:
480,192,76455,1,0,0:0:0:0:
288,192,76455,1,0,0:0:0:0:
96,192,76455,1,8,0:0:0:0:
416,192,76644,1,2,0:0:0:0:
224,192,76644,1,0,0:0:0:0:
160,192,76834,1,0,0:0:0:0:
352,192,76834,1,2,0:0:0:0:
288,192,77024,1,0,0:0:0:0:
480,192,77024,1,2,0:0:0:0:
224,192,77214,1,0,0:0:0:0:
416,192,77214,1,2,0:0:0:0:
96,192,77404,1,0,0:0:0:0:
480,192,77404,1,8,0:0:0:0:
288,192,77404,1,0,0:0:0:0:
160,192,77594,1,0,0:0:0:0:
416,192,77594,1,2,0:0:0:0:
352,192,77784,1,2,0:0:0:0:
224,192,77784,1,0,0:0:0:0:
480,192,77974,1,0,0:0:0:0:
288,192,77974,1,0,0:0:0:0:
96,192,77974,1,8,0:0:0:0:
160,192,78163,1,2,0:0:0:0:
224,192,78163,1,0,0:0:0:0:
352,192,78353,1,0,0:0:0:0:
416,192,78353,1,2,0:0:0:0:
224,192,78543,1,0,0:0:0:0:
160,192,78543,1,2,0:0:0:0:
352,192,78733,1,0,0:0:0:0:
416,192,78733,1,2,0:0:0:0:
288,192,78923,1,0,0:0:0:0:
224,192,78923,1,8,0:0:0:0:
96,192,78923,1,0,0:0:0:0:
416,192,79113,1,0,0:0:0:0:
480,192,79113,1,2,0:0:0:0:
352,192,79303,1,0,0:0:0:0:
288,192,79303,1,2,0:0:0:0:
224,192,79493,1,0,0:0:0:0:
96,192,79493,1,8,0:0:0:0:
160,192,79493,1,0,0:0:0:0:
416,192,79682,1,2,0:0:0:0:
352,192,79682,1,0,0:0:0:0:
288,192,79872,1,0,0:0:0:0:
224,192,79872,1,2,0:0:0:0:
160,192,80062,1,0,0:0:0:0:
96,192,80062,1,2,0:0:0:0:
416,192,80252,1,0,0:0:0:0:
480,192,80252,1,8,0:0:0:0:
288,192,80252,1,0,0:0:0:0:
160,192,80442,1,0,0:0:0:0:
96,192,80442,1,2,0:0:0:0:
224,192,80632,1,0,0:0:0:0:
288,192,80632,1,2,0:0:0:0:
352,192,80822,1,0,0:0:0:0:
416,192,80822,1,2,0:0:0:0:
96,192,81012,1,8,0:0:0:0:
160,192,81012,1,0,0:0:0:0:
224,192,81012,1,0,0:0:0:0:
288,192,81201,1,2,0:0:0:0:
352,192,81201,1,0,0:0:0:0:
416,192,81391,1,0,0:0:0:0:
480,192,81391,1,2,0:0:0:0:
224,192,81581,1,0,0:0:0:0:
96,192,81581,1,2,0:0:0:0:
288,192,81771,1,0,0:0:0:0:
416,192,81771,1,8,0:0:0:0:
480,192,81771,1,0,0:0:0:0:
224,192,81961,1,0,0:0:0:0:
160,192,81961,1,2,0:0:0:0:
480,192,82151,1,2,0:0:0:0:
352,192,82151,1,8,0:0:0:0:
32,192,82151,1,0,0:0:0:0:
224,192,82341,1,2,0:0:0:0:
288,192,82341,1,0,0:0:0:0:
480,192,82531,1,8,0:0:0:0:
416,192,82531,1,0,0:0:0:0:
352,192,82531,1,0,0:0:0:0:
160,192,82720,1,2,0:0:0:0:
224,192,82720,1,0,0:0:0:0:
480,192,82910,1,2,0:0:0:0:
352,192,82910,1,0,0:0:0:0:
96,192,83100,1,8,0:0:0:0:
160,192,83100,1,0,0:0:0:0:
480,192,83290,1,2,0:0:0:0:
416,192,83290,1,0,0:0:0:0:
96,192,83480,1,8,0:0:0:0:
160,192,83480,1,0,0:0:0:0:
288,192,83480,1,0,0:0:0:0:
352,192,83670,1,0,0:0:0:0:
480,192,83670,1,2,0:0:0:0:
224,192,83860,1,0,0:0:0:0:
96,192,83860,1,2,0:0:0:0:
416,192,84050,1,8,0:0:0:0:
288,192,84050,1,0,0:0:0:0:
480,192,84050,1,0,0:0:0:0:
96,192,84239,1,2,0:0:0:0:
224,192,84239,1,0,0:0:0:0:
224,192,84429,1,0,0:0:0:0:
352,192,84429,1,2,0:0:0:0:
352,192,84619,1,0,0:0:0:0:
480,192,84619,1,2,0:0:0:0:
96,192,84809,1,0,0:0:0:0:
480,192,84809,1,2,0:0:0:0:
288,192,84999,1,0,0:0:0:0:
352,192,84999,1,8,0:0:0:0:
224,192,84999,1,0,0:0:0:0:
96,192,85189,1,2,0:0:0:0:
160,192,85189,1,0,0:0:0:0:
96,192,85379,1,2,0:0:0:0:
160,192,85379,1,0,0:0:0:0:
416,192,85569,1,0,0:0:0:0:
480,192,85569,1,8,0:0:0:0:
288,192,85569,1,0,0:0:0:0:
224,192,85758,1,0,0:0:0:0:
160,192,85758,1,2,0:0:0:0:
480,192,85948,1,2,0:0:0:0:
416,192,85948,1,0,0:0:0:0:
416,192,86138,1,0,0:0:0:0:
480,192,86138,1,2,0:0:0:0:
224,192,86328,1,8,0:0:0:0:
288,192,86328,1,0,0:0:0:0:
352,192,86328,1,0,0:0:0:0:
96,192,86518,1,2,0:0:0:0:
160,192,86518,1,0,0:0:0:0:
288,192,86708,1,2,0:0:0:0:
224,192,86708,1,0,0:0:0:0:
352,192,86898,1,0,0:0:0:0:
416,192,86898,1,2,0:0:0:0:
288,192,87088,1,0,0:0:0:0:
160,192,87088,1,8,0:0:0:0:
96,192,87088,1,0,0:0:0:0:
480,192,87277,1,2,0:0:0:0:
416,192,87277,1,0,0:0:0:0:
224,192,87467,1,0,0:0:0:0:
96,192,87467,1,8,0:0:0:0:
352,192,87562,1,0,0:0:0:0:
416,192,87562,1,8,0:0:0:0:
288,192,87657,1,2,0:0:0:0:
160,192,87657,1,0,0:0:0:0:
416,192,87752,1,0,0:0:0:0:
480,192,87752,1,2,0:0:0:0:
32,192,87847,1,0,0:0:0:0:
352,192,87847,1,8,0:0:0:0:
96,192,87847,1,0,0:0:0:0:
224,192,87847,1,0,0:0:0:0:
288,192,88037,1,0,0:0:0:0:
480,192,88037,1,8,0:0:0:0:
32,192,88037,1,0,0:0:0:0:
96,192,88037,1,0,0:0:0:0:
