osu file format v14

[General]
AudioFilename: 02.+sh0ut.mp3
AudioLeadIn: 0
PreviewTime: 63788
Countdown: 0
SampleSet: Soft
StackLeniency: 0.7
Mode: 0
LetterboxInBreaks: 0
WidescreenStoryboard: 0

[Editor]
DistanceSpacing: 1.1
BeatDivisor: 4
GridSize: 4
TimelineZoom: 1.800001

[Metadata]
Title:sh0ut
TitleUnicode:sh0ut
Artist:SawanoHiroyuki[nZk]:Tielle & Gemie
ArtistUnicode:SawanoHiroyuki[nZk]:Tielle & Gemie
Creator:Gaia
Version:Easy
Source:Re:CREATORS
Tags:milan- ely レクリエイターズ 澤野弘之 sawano hiroyuki shout recreators opening op 2V-ALK altair
BeatmapID:1370257
BeatmapSetID:641854

[Difficulty]
HPDrainRate:2
CircleSize:3
OverallDifficulty:2
ApproachRate:3
SliderMultiplier:1.6
SliderTickRate:2

[Events]
//Background and Video events
0,0,"alt.jpg",0,0
//Break Periods
2,41134,42890
2,102266,114211
2,158670,175343
2,190568,192324
//Storyboard Layer 0 (Background)
//Storyboard Layer 1 (Fail)
//Storyboard Layer 2 (Pass)
//Storyboard Layer 3 (Foreground)
//Storyboard Sound Samples

[TimingPoints]
180,566.037735849057,4,2,1,40,1,0
4708,-100,4,2,1,60,0,0
9236,-100,4,2,1,50,0,0
22821,-100,4,2,1,40,0,0
23670,-100,4,2,1,50,0,0
24378,-100,4,2,1,40,0,0
29613,-100,4,2,1,50,0,0
30746,-100,4,2,1,50,0,0
31312,-100,4,2,1,40,0,0
31595,-100,4,2,2,30,0,0
31878,-100,4,2,1,50,0,0
36406,-100,4,2,1,40,0,0
38670,-100,4,2,1,30,0,0
40934,-100,4,2,1,20,0,0
44330,-125,4,2,1,10,0,0
45463,-100,4,2,1,80,0,0
64708,-100,4,2,1,90,0,0
65840,-100,4,2,1,80,0,0
66972,-100,4,2,1,90,0,0
68104,-100,4,2,1,80,0,0
73764,-100,4,2,1,90,0,0
74896,-100,4,2,1,80,0,0
76029,-100,4,2,1,90,0,0
77161,-100,4,2,1,80,0,0
81689,-100,4,2,1,50,0,0
83953,-100,4,2,1,80,0,0
84095,-100,4,2,1,50,0,0
102066,-100,4,2,1,40,0,0
115651,-100,4,2,1,20,0,0
119330,-125,4,2,1,30,0,0
120180,-100,4,2,1,80,0,0
139425,-100,4,2,1,90,0,0
140557,-100,4,2,1,80,0,0
141689,-100,4,2,1,90,0,0
142821,-100,4,2,1,80,0,0
148481,-100,4,2,1,90,0,0
149613,-100,4,2,1,80,0,0
150746,-100,4,2,1,90,0,0
151878,-100,4,2,1,80,0,0
176783,-100,4,2,1,50,0,0
180180,-100,4,2,2,50,0,0
180746,-100,4,2,2,40,0,0
181029,-100,4,2,2,30,0,0
181312,-100,4,2,1,50,0,0
185840,-100,4,2,1,40,0,0
188104,-100,4,2,2,20,0,0
188387,-100,4,2,2,30,0,0
188670,-100,4,2,2,40,0,0
188953,-100,4,2,2,50,0,0
189236,-100,4,2,2,60,0,0
189519,-100,4,2,2,55,0,0
189802,-100,4,2,2,50,0,0
190085,-100,4,2,2,40,0,0
190368,-100,4,2,1,20,0,0
193764,-125,4,2,1,10,0,0
194755,-125,4,2,1,5,0,0
194896,-100,4,2,1,80,0,0
214142,-100,4,2,1,90,0,0
215274,-100,4,2,1,80,0,0
216406,-100,4,2,1,90,0,0
217538,-100,4,2,1,80,0,0
223198,-100,4,2,1,90,0,0
224330,-100,4,2,1,80,0,0
225463,-100,4,2,1,90,0,0
226595,-100,4,2,1,80,0,0
231406,-100,4,2,1,60,0,0
233387,-100,4,2,1,40,0,0
235651,-100,4,2,1,50,0,0

[Colours]
Combo1 : 255,255,255
Combo2 : 128,255,255
Combo3 : 237,243,122
Combo4 : 118,253,111
Combo5 : 255,198,111
Combo6 : 240,0,6

[HitObjects]
136,312,180,6,0,P|112:260|176:176,1,160,2|2,0:0|0:0,0:0:0:0:
296,68,1312,2,0,L|204:48,2,80,2|2|2,0:0|0:0|0:0,0:0:0:0:
376,28,2161,1,2,0:0:0:0:
436,92,2444,2,0,P|408:172|440:260,1,160,2|2,0:0|0:0,0:0:0:0:
304,360,3576,2,0,P|264:372|216:364,2,80,2|2|2,0:0|0:0|0:0,0:0:0:0:
340,284,4425,1,2,0:0:0:0:
256,284,4708,6,0,B|146:268|146:268|124:196,1,160,2|0,0:0|0:0,0:0:0:0:
88,144,5557,1,0,3:2:0:0:
172,120,5840,2,0,B|282:104|282:104|304:32,1,160,0|2,3:0|0:0,0:0:0:0:
460,120,6972,2,0,B|536:183|484:284|484:284|400:252,1,240,2|0,3:2|0:0,0:0:0:0:
376,194,8104,1,0,3:0:0:0:
288,196,8387,2,0,P|244:248|280:344,1,160,0|0,3:0|0:0,0:0:0:0:
336,380,9236,6,0,L|156:356,1,160,6|2,3:2|0:0,0:0:0:0:
92,372,10085,1,2,3:2:0:0:
36,304,10368,2,0,P|8:256|64:168,1,160,2|0,3:2|0:0,0:0:0:0:
196,68,11500,2,0,B|228:128|224:192|224:192|280:208|328:160,1,240,0|0,3:0|0:0,0:0:0:0:
380,96,12632,1,2,3:2:0:0:
428,168,12915,2,0,P|408:252|420:344,1,160,2|2,3:2|0:0,0:0:0:0:
340,368,13764,6,0,P|316:308|208:316,1,160,2|2,3:2|0:0,0:0:0:0:
180,372,14613,1,0,3:0:0:0:
104,324,14896,2,0,B|104:268|84:224|84:224|108:208|116:152,1,160,0|0,3:2|0:0,0:0:0:0:
20,28,16029,2,0,P|48:116|192:80,1,240,2|2,3:2|0:0,0:0:0:0:
256,72,17161,1,0,3:2:0:0:
340,96,17444,2,0,P|420:120|444:208,1,160,0|0,3:2|0:0,0:0:0:0:
468,272,18293,38,0,B|360:252|360:252|354:282|328:324,1,160,2|2,3:2|0:0,0:0:0:0:
260,332,19142,1,2,3:2:0:0:
268,244,19425,2,0,P|284:164|284:64,1,160,2|0,3:2|0:0,0:0:0:0:
120,32,20557,2,0,P|28:84|120:176,1,240,0|2,3:0|0:0,0:0:0:0:
172,200,21689,1,2,3:2:0:0:
108,264,21972,2,0,P|61:280|8:284,2,80,2|0|0,3:2|0:0|0:0,0:0:0:0:
192,292,22821,6,0,B|268:332|268:272|376:316,1,160,0|2,3:2|0:0,0:0:0:0:
428,340,23670,1,2,3:2:0:0:
488,272,23953,2,0,B|508:160|508:160|468:104|468:104,1,160,2|0,3:2|0:0,0:0:0:0:
332,32,25085,2,0,B|316:84|340:112|340:112|300:140|292:168|292:168|260:132|212:136|212:136,1,240,2|2,3:2|0:0,0:0:0:0:
164,68,26217,1,0,3:2:0:0:
80,92,26500,2,0,P|36:140|44:252,1,160,2|2,3:2|0:0,0:0:0:0:
72,312,27349,5,6,3:2:0:0:
224,220,27915,1,2,3:2:0:0:
300,380,28481,2,0,L|404:364,2,80,2|2|2,3:2|0:0|3:2,0:0:0:0:
156,280,29613,2,0,L|64:268,2,80,2|2|2,3:2|0:0|3:2,0:0:0:0:
308,192,30746,2,0,P|328:168|336:108,2,80,2|2|2,3:2|0:2|3:2,0:0:0:0:
160,92,31878,5,0,3:2:0:0:
240,248,32444,1,2,3:2:0:0:
348,108,33010,2,0,P|384:92|432:92,2,80,2|2|2,3:2|0:0|3:2,0:0:0:0:
406,173,33859,2,0,P|438:221|418:337,1,160,2|2,0:0|0:0,0:0:0:0:
356,368,34708,1,0,3:2:0:0:
268,361,34991,2,0,L|92:337,1,160,2|2,0:0|0:0,0:0:0:0:
24,315,35840,1,2,3:2:0:0:
176,232,36406,38,0,P|255:223|336:204,1,160,2|2,3:2|3:2,0:0:0:0:
404,44,37538,2,0,P|324:52|244:72,1,160,2|2,3:2|3:2,0:0:0:0:
164,44,38387,1,2,0:0:0:0:
100,108,38670,2,0,P|68:160|92:272,1,160,2|0,3:2|3:0,0:0:0:0:
224,356,39802,2,0,P|256:304|232:192,1,160,2|0,3:2|3:2,0:0:0:0:
284,132,40651,6,0,P|320:148|380:164,1,80,0|4,0:0|0:1,0:0:0:0:
172,212,44330,54,0,P|216:156|332:168,1,192,0|0,0:0|0:0,0:0:0:0:
396,104,45463,6,0,P|372:152|392:276,1,160,6|8,3:2|0:0,0:0:0:0:
444,316,46312,1,2,3:2:0:0:
368,364,46595,2,0,B|260:376|260:376|255:352|232:312,1,160,0|8,3:0|0:0,0:0:0:0:
108,216,47727,2,0,P|151:211|204:180,1,80,0|2,3:0|0:1,0:0:0:0:
128,127,48293,2,0,P|104:71|192:11,1,160,10|2,0:2|3:1,0:0:0:0:
252,32,49142,6,0,L|376:12,2,120,2|2|0,0:1|0:1|3:0,0:0:0:0:
216,112,50274,1,2,0:1:0:0:
300,140,50557,2,0,P|328:180|304:296,1,160,8|2,0:0|3:2,0:0:0:0:
160,368,51689,2,0,P|160:329|172:280,1,80,10|2,0:0|0:1,0:0:0:0:
136,208,52255,2,0,B|92:204|40:240|40:240|8:208|16:168,2,160,2|10|2,3:3|0:0|3:1,0:0:0:0:
196,144,53670,2,0,L|300:160,1,80,2|8,3:1|0:0,0:0:0:0:
448,120,54519,6,0,P|392:184|428:268,1,160,6|8,3:2|0:0,0:0:0:0:
448,328,55368,1,2,3:2:0:0:
360,344,55651,2,0,P|296:312|192:308,1,160,0|8,3:0|0:0,0:0:0:0:
32,296,56783,2,0,P|28:344|56:392,1,80,0|2,3:0|0:0,0:0:0:0:
112,324,57349,2,0,B|132:190|132:190|140:144,1,160,10|2,0:2|3:1,0:0:0:0:
56,128,58198,2,0,P|135:123|207:89,1,160,2|0,0:1|3:0,0:0:0:0:
284,44,59047,6,0,L|300:148,1,80,0|2,3:0|0:1,0:0:0:0:
376,164,59613,2,0,B|448:148|480:188|480:188|444:260,1,160,8|2,0:0|3:2,0:0:0:0:
324,344,60746,2,0,L|228:324,1,80,10|2,0:0|0:1,0:0:0:0:
176,272,61312,2,0,B|100:252|96:316|0:268,2,160,2|10|2,3:3|0:0|3:1,0:0:0:0:
252,228,62727,1,2,3:1:0:0:
208,152,63010,2,0,P|197:108|196:60,1,80,8|8,0:0|3:0,0:0:0:0:
260,12,63576,37,4,3:2:0:0:
384,136,64142,2,0,P|381:175|371:214,1,80,8|4,0:0|3:1,0:0:0:0:
384,300,64708,2,0,P|448:296|492:332,2,120,2|2|2,3:3|3:3|3:3,0:0:0:0:
316,356,65840,1,0,3:1:0:0:
168,260,66406,2,0,L|152:164,1,80,10|4,0:0|3:1,0:0:0:0:
84,128,66972,2,0,P|36:160|48:244,2,120,2|2|2,3:3|3:3|3:3,0:0:0:0:
140,60,68104,6,0,B|200:58|244:84|244:84|260:64|296:44,1,160,0|8,3:1|0:0,0:0:0:0:
368,24,68953,1,2,3:2:0:0:
428,88,69236,2,0,P|444:160|356:220,1,160,2|8,3:2|0:0,0:0:0:0:
228,144,70368,1,6,3:1:0:0:
180,220,70651,2,0,L|204:368,2,120,2|2|2,0:1|0:0|3:2,0:0:0:0:
108,172,71783,1,2,0:1:0:0:
52,240,72066,2,0,P|32:284|44:332,1,80,8|2,0:0|0:2,0:0:0:0:
112,360,72632,5,6,3:2:0:0:
280,304,73198,2,0,P|327:312|372:324,1,80,8|4,0:0|0:1,0:0:0:0:
444,296,73764,2,0,P|496:268|504:200,2,120,2|2|2,3:0|0:3|0:3,0:0:0:0:
380,236,74896,1,0,3:1:0:0:
208,188,75463,2,0,P|169:197|129:203,1,80,8|0,0:0|3:2,0:0:0:0:
60,152,76029,2,0,P|40:200|80:276,2,120,2|2|2,3:0|0:3|0:3,0:0:0:0:
132,100,77161,5,0,3:1:0:0:
300,52,77727,2,0,P|349:71|400:80,1,80,8|2,0:0|3:2,0:0:0:0:
432,144,78293,2,0,P|412:88|472:-4,2,160,2|8|2,3:2|0:0|3:2,0:0:0:0:
476,220,79708,2,0,P|436:256|392:268,1,80,2|8,0:1|0:0,0:0:0:0:
328,240,80274,2,0,P|320:172|300:120,2,120,2|8|8,3:1|0:0|0:0,0:0:0:0:
340,328,81406,22,0,P|304:318|252:308,1,80,2|4,0:1|0:1,0:0:0:0:
96,248,82255,2,0,P|68:304|132:388,2,160,4|4|4,0:1|0:1|0:1,0:0:0:0:
236,140,83953,6,0,P|156:136|112:56,1,160,2|2,3:3|0:0,0:0:0:0:
180,16,84802,1,2,3:2:0:0:
260,52,85085,2,0,B|368:32|368:32|375:58|408:88,1,160,2|0,3:2|0:0,0:0:0:0:
480,52,85934,1,2,0:0:0:0:
460,136,86217,2,0,L|440:304,1,160,0|2,3:0|0:0,0:0:0:0:
280,364,87349,1,2,3:2:0:0:
334,294,87632,2,0,P|278:274|194:346,1,160,2|2,3:2|0:0,0:0:0:0:
117,357,88481,6,0,P|77:355|25:333,1,80,2|2,3:2|0:0,0:0:0:0:
20,256,89047,2,0,P|59:254|112:232,1,80,2|0,0:0|3:0,0:0:0:0:
108,152,89613,2,0,B|88:72|88:72|124:32,2,120,2|2|2,3:2|0:0|0:0,0:0:0:0:
196,152,90746,2,0,P|220:96|324:96,1,160,2|2,3:2|0:0,0:0:0:0:
396,64,91595,2,0,L|404:152,1,80,2|2,0:0|3:2,0:0:0:0:
484,180,92161,2,0,P|477:258|460:364,1,160,0|0,3:2|0:0,0:0:0:0:
380,364,93010,6,0,B|276:344|276:344|274:320|252:260,1,160,2|2,3:2|0:0,0:0:0:0:
216,216,93859,1,2,3:2:0:0:
176,296,94142,2,0,P|116:308|52:312,2,120,2|2|2,3:2|0:0|0:0,0:0:0:0:
128,220,95274,2,0,P|88:168|160:88,1,160,0|2,3:0|0:0,0:0:0:0:
192,32,96123,2,0,L|296:48,1,80,2|2,0:0|3:2,0:0:0:0:
344,92,96689,2,0,L|480:72,2,120,2|2|0,3:2|0:0|3:2,0:0:0:0:
264,132,97821,5,2,0:0:0:0:
336,184,98104,2,0,P|348:224|348:276,1,80,2|2,0:0|3:2,0:0:0:0:
392,340,98670,2,0,P|444:352|508:296,2,120,2|2|2,3:2|0:0|0:0,0:0:0:0:
304,340,99802,2,0,L|124:372,1,160,2|2,3:2|0:0,0:0:0:0:
36,232,100934,1,0,3:2:0:0:
112,188,101217,2,0,P|176:236|268:212,1,160,2|2,3:2|0:0,0:0:0:0:
312,164,102066,37,6,0:2:0:0:
256,192,115651,12,0,117915,0:0:0:0:
324,120,119330,70,0,B|300:148|300:148|256:128|192:128,1,128,0|0,0:0|0:0,0:0:0:0:
140,76,120180,6,0,P|168:216|156:248,1,160,6|8,3:2|0:0,0:0:0:0:
84,268,121029,1,2,3:2:0:0:
128,344,121312,2,0,B|184:356|232:376|232:376|288:344,1,160,0|8,3:0|0:0,0:0:0:0:
268,176,122444,2,0,P|256:148|252:84,1,80,0|2,3:0|0:1,0:0:0:0:
308,32,123010,2,0,B|416:40|416:40|404:76|408:108,1,160,10|2,0:2|3:1,0:0:0:0:
388,176,123859,6,0,P|432:144|508:148,2,120,2|2|0,0:1|0:1|3:0,0:0:0:0:
388,264,124991,1,2,0:1:0:0:
324,324,125274,2,0,B|216:344|216:344|184:276,1,160,8|2,0:0|3:2,0:0:0:0:
96,152,126406,2,0,P|143:162|180:164,1,80,10|2,0:0|0:1,0:0:0:0:
252,120,126972,2,0,P|228:56|300:8,2,160,2|10|2,3:3|0:0|3:1,0:0:0:0:
332,160,128387,2,0,L|316:264,1,80,2|8,3:1|0:0,0:0:0:0:
264,308,128953,1,8,0:0:0:0:
336,356,129236,6,0,B|380:353|440:368|440:368|480:312,1,160,6|8,3:2|0:0,0:0:0:0:
504,240,130085,1,2,3:2:0:0:
468,160,130368,2,0,P|400:124|324:172,1,160,0|8,3:0|0:0,0:0:0:0:
244,312,131500,2,0,L|148:332,1,80,0|2,3:0|0:1,0:0:0:0:
92,376,132066,2,0,B|52:304|116:288|80:204,1,160,10|2,0:2|3:1,0:0:0:0:
112,136,132915,6,0,P|52:136|-8:120,2,120,2|2|0,0:1|0:1|3:0,0:0:0:0:
160,64,134047,1,2,0:1:0:0:
244,88,134330,2,0,P|326:66|412:66,1,160,8|2,0:0|3:2,0:0:0:0:
468,228,135463,2,0,P|424:228|384:192,1,80,10|2,0:0|0:1,0:0:0:0:
324,160,136029,2,0,P|364:220|348:320,2,160,2|10|2,3:3|0:0|3:1,0:0:0:0:
244,200,137444,1,2,3:1:0:0:
168,156,137727,2,0,L|68:144,1,80,8|8,0:0|3:0,0:0:0:0:
0,136,138293,37,4,3:2:0:0:
48,304,138859,2,0,L|148:292,1,80,8|4,0:0|3:1,0:0:0:0:
208,256,139425,2,0,P|176:312|204:392,2,120,2|2|2,3:3|0:3|0:3,0:0:0:0:
264,326,140557,1,0,3:1:0:0:
384,196,141123,2,0,P|380:152|348:104,1,80,10|4,0:0|3:1,0:0:0:0:
376,32,141689,2,0,P|436:46|504:48,2,120,2|2|2,3:3|0:3|0:3,0:0:0:0:
296,64,142821,6,0,P|258:77|200:88,1,80,0|2,3:1|0:0,0:0:0:0:
136,54,143387,2,0,P|98:40|40:30,1,80,8|2,0:0|3:2,0:0:0:0:
72,118,143953,2,0,B|87:233|87:233|144:262,1,160,2|8,3:2|0:0,0:0:0:0:
285,326,145085,1,6,3:1:0:0:
360,284,145368,2,0,P|425:278|484:256,2,120,2|2|2,0:1|0:0|3:2,0:0:0:0:
292,228,146500,1,2,0:1:0:0:
356,168,146783,2,0,P|368:128|368:80,1,80,8|8,0:0|0:2,0:0:0:0:
312,20,147349,5,6,3:2:0:0:
140,64,147915,2,0,P|140:111|176:156,1,80,8|4,0:0|0:1,0:0:0:0:
204,212,148481,2,0,L|76:232,2,120,2|2|2,3:0|0:3|0:3,0:0:0:0:
292,228,149613,1,0,3:1:0:0:
464,264,150180,2,0,P|472:316|440:368,1,80,8|0,0:0|3:2,0:0:0:0:
384,384,150746,2,0,L|265:365,2,120,2|2|2,3:0|3:0|3:0,0:0:0:0:
376,296,151878,6,0,P|372:232|464:172,1,160,0|8,3:1|0:0,0:0:0:0:
484,96,152727,1,2,3:2:0:0:
396,80,153010,2,0,L|240:112,1,160,2|8,3:2|0:0,0:0:0:0:
84,32,154142,1,2,3:2:0:0:
12,84,154425,2,0,P|-8:144|8:180,1,80,2|10,0:1|0:0,0:0:0:0:
60,216,154991,2,0,P|100:184|172:196,2,120,2|8|8,3:2|0:0|0:0,0:0:0:0:
36,300,156123,1,8,0:0:0:0:
348,104,176783,37,6,3:2:0:0:
444,252,177349,1,2,3:2:0:0:
272,284,177915,2,0,L|292:384,2,80,2|2|2,3:2|0:0|3:2,0:0:0:0:
308,112,179047,2,0,L|328:12,2,80,2|2|2,3:2|0:0|3:2,0:0:0:0:
144,180,180180,2,0,P|88:164|40:176,2,80,2|2|2,3:3|0:3|3:3,0:0:0:0:
252,320,181312,5,0,3:2:0:0:
92,248,181878,1,2,3:2:0:0:
192,104,182444,2,0,L|200:16,2,80,2|2|2,3:2|0:0|3:2,0:0:0:0:
280,96,183293,2,0,P|348:136|460:112,1,160,2|2,0:0|0:0,0:0:0:0:
492,192,184142,1,0,3:2:0:0:
426,253,184425,2,0,P|347:248|280:288,1,160,2|2,0:0|0:0,0:0:0:0:
220,352,185274,2,0,L|132:340,1,80,2|2,3:2|0:0,0:0:0:0:
56,360,185840,6,0,B|32:256|32:256|80:224,1,160,2|2,3:2|3:2,0:0:0:0:
192,92,186972,2,0,B|168:196|168:196|216:228,1,160,2|2,3:2|3:2,0:0:0:0:
280,287,187821,1,2,0:0:0:0:
364,256,188104,2,0,P|432:256|472:348,2,160,2|2|2,3:3|3:3|3:3,0:0:0:0:
300,192,189519,1,2,0:3:0:0:
372,140,189802,2,0,P|380:107|384:48,1,80,2|2,3:3|0:3,0:0:0:0:
312,12,190368,5,4,0:1:0:0:
344,104,193764,22,0,B|304:184|384:204|332:292,1,192,0|0,0:0|0:0,0:0:0:0:
376,364,194896,6,0,P|336:320|224:336,1,160,6|8,3:2|0:0,0:0:0:0:
160,292,195746,1,2,3:2:0:0:
80,328,196029,2,0,P|40:296|56:188,1,160,0|8,3:0|0:0,0:0:0:0:
160,60,197161,2,0,P|164:112|188:160,1,80,0|2,3:0|0:1,0:0:0:0:
260,124,197727,2,0,B|296:84|368:96|368:96|384:164,1,160,10|2,0:2|3:1,0:0:0:0:
380,228,198576,6,0,L|504:200,2,120,2|2|0,0:1|0:1|3:0,0:0:0:0:
320,292,199708,1,2,0:1:0:0:
232,280,199991,2,0,P|152:244|140:176,1,160,8|2,0:0|3:2,0:0:0:0:
56,24,201123,2,0,P|45:68|40:128,1,80,10|2,0:0|0:1,0:0:0:0:
8,184,201689,2,0,P|15:278|28:356,2,160,2|10|2,3:3|0:0|3:1,0:0:0:0:
68,120,203104,2,0,P|112:96|168:92,1,80,2|8,3:1|0:0,0:0:0:0:
216,44,203670,1,8,0:0:0:0:
276,108,203953,6,0,B|328:148|384:136|384:136|396:88,1,160,6|8,3:2|0:0,0:0:0:0:
472,48,204802,1,2,3:2:0:0:
488,136,205085,2,0,P|472:216|476:320,1,160,0|8,3:0|0:0,0:0:0:0:
312,364,206217,2,0,P|320:328|316:280,1,80,0|2,3:0|0:1,0:0:0:0:
252,228,206783,1,10,0:2:0:0:
184,284,207066,2,0,B|100:300|100:300|64:272,2,120,2|10|8,3:1|0:0|0:0,0:0:0:0:
228,208,208198,1,2,0:0:0:0:
168,144,208481,6,0,P|158:110|148:44,1,80,0|0,3:0|0:0,0:0:0:0:
220,12,209047,2,0,B|328:16|328:16|340:44|320:92,1,160,8|2,0:0|3:2,0:0:0:0:
416,220,210180,2,0,P|484:240|516:268,1,80,10|2,0:0|0:1,0:0:0:0:
452,324,210746,2,0,L|276:348,1,160,2|14,3:3|0:0,0:0:0:0:
116,336,211878,5,10,3:2:0:0:
76,260,212161,1,10,3:2:0:0:
136,196,212444,2,0,P|151:161|152:104,1,80,8|8,0:0|3:0,0:0:0:0:
120,40,213010,21,4,3:2:0:0:
292,76,213576,2,0,P|307:110|308:168,1,80,8|4,0:0|3:1,0:0:0:0:
364,220,214142,2,0,P|432:192|496:216,2,120,2|2|2,3:3|0:3|0:3,0:0:0:0:
340,304,215274,1,0,3:1:0:0:
168,348,215840,2,0,P|153:313|152:256,1,80,10|4,0:0|3:1,0:0:0:0:
188,192,216406,2,0,P|120:224|56:224,2,120,2|2|2,3:3|0:3|0:3,0:0:0:0:
224,112,217538,6,0,P|176:88|192:-8,1,160,0|8,3:1|0:0,0:0:0:0:
264,36,218387,1,2,3:2:0:0:
348,4,218670,2,0,L|368:180,1,160,2|8,3:2|0:0,0:0:0:0:
340,336,219802,1,6,3:1:0:0:
400,272,220085,2,0,P|452:248|532:264,2,120,2|2|2,0:1|0:0|3:2,0:0:0:0:
248,356,221500,1,8,0:0:0:0:
168,320,221783,1,8,0:3:0:0:
88,356,222066,5,6,3:2:0:0:
16,196,222632,2,0,P|4:159|0:100,1,80,8|4,0:0|0:1,0:0:0:0:
88,132,223198,2,0,P|140:172|212:164,2,120,2|2|2,3:0|0:3|0:3,0:0:0:0:
64,48,224330,1,0,3:1:0:0:
236,16,224896,2,0,P|252:57|256:112,1,80,8|0,0:0|3:2,0:0:0:0:
336,128,225463,2,0,P|344:78|364:0,2,120,2|2|2,3:0|3:0|3:0,0:0:0:0:
384,200,226595,6,0,B|424:180|464:196|464:196|488:244|468:284,1,160,6|8,3:2|0:0,0:0:0:0:
428,348,227444,1,6,0:1:0:0:
356,296,227727,2,0,P|326:284|252:280,1,80,2|2,3:2|0:1,0:0:0:0:
212,336,228293,2,0,P|182:347|108:352,1,80,8|0,0:0|0:0,0:0:0:0:
64,300,228859,1,2,3:2:0:0:
120,232,229142,2,0,P|149:243|224:248,2,80,2|8|2,0:1|0:0|3:1,0:0:0:0:
76,156,229991,5,10,3:2:0:0:
84,68,230274,1,10,0:2:0:0:
168,40,230557,1,8,0:0:0:0:
244,84,230840,1,8,0:0:0:0:
240,172,231123,6,0,P|268:136|392:144,1,160,6|2,3:2|3:2,0:0:0:0:
476,272,232255,2,0,P|435:284|376:292,1,80,0|2,3:0|0:0,0:0:0:0:
344,360,232821,2,0,P|304:353|266:341,1,80,2|2,3:2|0:0,0:0:0:0:
188,300,233387,2,0,P|96:332|48:328,1,120,2|2,0:0|0:0,0:0:0:0:
24,260,234095,2,0,L|4:164,2,80,2|2|2,0:0|0:0|0:0,0:0:0:0:
108,240,234944,2,0,B|136:108|136:108|103:94|80:64,1,200,2|4,0:0|3:2,0:0:0:0:
