osu file format v14

[General]
AudioFilename: 02.+sh0ut.mp3
AudioLeadIn: 0
PreviewTime: 63788
Countdown: 0
SampleSet: Soft
StackLeniency: 0.7
Mode: 0
LetterboxInBreaks: 0
WidescreenStoryboard: 0

[Editor]
DistanceSpacing: 0.1
BeatDivisor: 8
GridSize: 32
TimelineZoom: 1.800001

[Metadata]
Title:sh0ut
TitleUnicode:sh0ut
Artist:SawanoHiroyuki[nZk]:Tielle & Gemie
ArtistUnicode:SawanoHiroyuki[nZk]:Tielle & Gemie
Creator:Gaia
Version:Collab Extra
Source:Re:CREATORS
Tags:milan- ely レクリエイターズ 澤野弘之 sawano hiroyuki shout recreators opening op 2V-ALK altair
BeatmapID:1428482
BeatmapSetID:641854

[Difficulty]
HPDrainRate:6
CircleSize:4
OverallDifficulty:8.6
ApproachRate:9.2
SliderMultiplier:2.8
SliderTickRate:2

[Events]
//Background and Video events
0,0,"alt.jpg",0,0
//Break Periods
2,41134,42345
2,115851,117062
2,190568,191779
//Storyboard Layer 0 (Background)
//Storyboard Layer 1 (Fail)
//Storyboard Layer 2 (Pass)
//Storyboard Layer 3 (Foreground)
//Storyboard Sound Samples

[TimingPoints]
180,566.037735849057,4,2,1,40,1,0
4708,-100,4,2,1,60,0,0
6901,-100,4,2,1,5,0,0
6972,-100,4,2,1,60,0,0
9236,-125,4,2,1,50,0,0
10014,-125,4,2,1,5,0,0
10085,-125,4,2,1,50,0,0
10580,-125,4,2,1,5,0,0
10651,-125,4,2,1,50,0,0
22821,-125,4,2,1,40,0,0
23670,-125,4,2,1,50,0,0
24378,-125,4,2,1,40,0,0
27349,-142.857142857143,4,2,1,40,0,0
29613,-142.857142857143,4,2,1,50,0,0
30746,-142.857142857143,4,2,2,50,0,0
31312,-142.857142857143,4,2,2,40,0,0
31595,-142.857142857143,4,2,2,30,0,0
31878,-142.857142857143,4,2,1,50,0,0
36406,-142.857142857143,4,2,1,40,0,0
38670,-142.857142857143,4,2,1,30,0,0
40934,-142.857142857143,4,2,1,20,0,0
42915,-142.857142857143,4,2,1,10,0,0
44330,-200,4,2,1,10,0,0
45392,-200,4,2,1,5,0,0
45463,-66.6666666666667,4,2,1,80,0,0
49354,-66.6666666666667,4,2,1,5,0,0
49425,-66.6666666666667,4,2,1,80,0,0
52467,-66.6666666666667,4,2,1,5,0,0
52538,-66.6666666666667,4,2,1,80,0,0
53033,-66.6666666666667,4,2,1,5,0,0
53104,-66.6666666666667,4,2,1,80,0,0
53599,-66.6666666666667,4,2,1,5,0,0
53670,-55.5555555555556,4,2,1,80,0,0
53882,-55.5555555555556,4,2,1,5,0,0
53953,-55.5555555555556,4,2,1,80,0,0
54307,-55.5555555555556,4,2,1,5,0,0
54378,-55.5555555555556,4,2,1,80,0,0
54448,-55.5555555555556,4,2,1,5,0,0
54519,-66.6666666666667,4,2,1,80,0,0
62939,-66.6666666666667,4,2,1,5,0,0
63010,-66.6666666666667,4,2,1,80,0,0
63080,-66.6666666666667,4,2,1,5,0,0
63151,-66.6666666666667,4,2,1,80,0,0
63222,-66.6666666666667,4,2,1,5,0,0
63293,-66.6666666666667,4,2,1,80,0,0
63363,-66.6666666666667,4,2,1,5,0,0
63434,-66.6666666666667,4,2,1,80,0,0
63505,-66.6666666666667,4,2,1,5,0,0
63576,-76.9230769230769,4,2,1,80,0,0
64708,-62.5,4,2,1,90,0,1
65840,-76.9230769230769,4,2,1,80,0,0
66972,-62.5,4,2,1,90,0,1
68104,-76.9230769230769,4,2,1,80,0,0
73764,-62.5,4,2,1,90,0,1
74896,-76.9230769230769,4,2,1,80,0,0
76029,-62.5,4,2,1,90,0,1
77161,-76.9230769230769,4,2,1,80,0,0
81689,-76.9230769230769,4,2,1,50,0,0
83953,-111.111111111111,4,2,1,80,0,0
84095,-111.111111111111,4,2,1,50,0,0
102066,-142.857142857143,4,2,1,40,0,0
105746,-142.857142857143,4,2,2,40,0,0
106029,-142.857142857143,4,2,2,35,0,0
106312,-142.857142857143,4,2,2,30,0,0
106595,-142.857142857143,4,2,1,40,0,0
111123,-142.857142857143,4,2,1,30,0,0
117632,-142.857142857143,4,2,1,10,0,0
119330,-166.666666666667,4,2,1,30,0,0
119613,-166.666666666667,4,2,1,20,0,0
120109,-200,4,2,1,5,0,0
120180,-66.6666666666667,4,2,1,80,0,0
127184,-66.6666666666667,4,2,1,5,0,0
127255,-66.6666666666667,4,2,1,80,0,0
127750,-66.6666666666667,4,2,1,5,0,0
127821,-66.6666666666667,4,2,1,80,0,0
128316,-66.6666666666667,4,2,1,5,0,0
128387,-55.5555555555556,4,2,1,80,0,0
128599,-55.5555555555556,4,2,1,5,0,0
128670,-100,4,2,1,80,0,0
128741,-55.5555555555556,4,2,1,5,0,0
128953,-55.5555555555556,4,2,1,80,0,0
129024,-55.5555555555556,4,2,1,5,0,0
129095,-55.5555555555556,4,2,1,80,0,0
129165,-55.5555555555556,4,2,1,5,0,0
129236,-66.6666666666667,4,2,1,80,0,0
137656,-66.6666666666667,4,2,1,5,0,0
137727,-66.6666666666667,4,2,1,80,0,0
137797,-66.6666666666667,4,2,1,5,0,0
137868,-66.6666666666667,4,2,1,80,0,0
137939,-66.6666666666667,4,2,1,5,0,0
138010,-66.6666666666667,4,2,1,80,0,0
138080,-66.6666666666667,4,2,1,5,0,0
138151,-66.6666666666667,4,2,1,80,0,0
138222,-66.6666666666667,4,2,1,5,0,0
138293,-76.9230769230769,4,2,1,80,0,0
139425,-62.5,4,2,1,90,0,1
140557,-76.9230769230769,4,2,1,80,0,0
141689,-62.5,4,2,1,90,0,1
142821,-76.9230769230769,4,2,1,80,0,0
147066,-62.5,4,2,1,80,0,0
147137,-62.5,4,2,1,5,0,0
147208,-62.5,4,2,1,80,0,0
147279,-62.5,4,2,1,5,0,0
147349,-76.9230769230769,4,2,1,80,0,0
148481,-62.5,4,2,1,90,0,1
149613,-76.9230769230769,4,2,1,80,0,0
150746,-62.5,4,2,1,90,0,1
151878,-76.9230769230769,4,2,1,80,0,0
156406,-76.9230769230769,4,2,1,50,0,0
158104,-250,4,2,1,80,0,0
158599,-250,4,2,1,5,0,0
158670,-76.9230769230769,4,2,1,90,0,0
158812,-76.9230769230769,4,2,2,80,0,0
167302,-111.111111111111,4,2,2,80,0,0
167727,-76.9230769230769,4,2,1,90,0,0
167868,-76.9230769230769,4,2,2,80,0,0
176217,-111.111111111111,4,2,2,80,0,0
176430,-62.5,4,2,2,5,0,0
176500,-62.5,4,2,2,80,0,0
176571,-62.5,4,2,2,5,0,0
176642,-62.5,4,2,2,80,0,0
176713,-62.5,4,2,2,5,0,0
176783,-142.857142857143,4,2,1,50,0,0
180180,-142.857142857143,4,2,2,50,0,0
180746,-142.857142857143,4,2,2,40,0,0
181029,-142.857142857143,4,2,2,30,0,0
181312,-142.857142857143,4,2,1,50,0,0
185840,-142.857142857143,4,2,1,40,0,0
186689,-142.857142857143,4,2,2,30,0,0
186972,-142.857142857143,4,2,1,40,0,0
187255,-142.857142857143,4,2,2,30,0,0
187538,-142.857142857143,4,2,1,40,0,0
187821,-142.857142857143,4,2,2,30,0,0
188104,-142.857142857143,4,2,2,20,0,0
188387,-142.857142857143,4,2,2,30,0,0
188670,-142.857142857143,4,2,2,40,0,0
188953,-142.857142857143,4,2,2,50,0,0
189236,-125,4,2,2,60,0,0
189519,-125,4,2,2,55,0,0
189802,-125,4,2,2,50,0,0
190085,-125,4,2,2,40,0,0
190368,-125,4,2,1,20,0,0
192349,-125,4,2,1,10,0,0
193764,-200,4,2,1,10,0,0
194826,-200,4,2,1,5,0,0
194896,-200,4,2,1,80,0,0
194897,-66.6666666666667,4,2,1,80,0,0
201901,-66.6666666666667,4,2,1,5,0,0
201972,-66.6666666666667,4,2,1,80,0,0
202467,-66.6666666666667,4,2,1,5,0,0
202538,-66.6666666666667,4,2,1,80,0,0
203033,-66.6666666666667,4,2,1,5,0,0
203104,-55.5555555555556,4,2,1,80,0,0
203316,-55.5555555555556,4,2,1,5,0,0
203387,-100,4,2,1,80,0,0
203458,-55.5555555555556,4,2,1,5,0,0
203670,-55.5555555555556,4,2,1,80,0,0
203741,-55.5555555555556,4,2,1,5,0,0
203812,-55.5555555555556,4,2,1,80,0,0
203882,-55.5555555555556,4,2,1,5,0,0
203953,-66.6666666666667,4,2,1,80,0,0
211595,-90.9090909090909,4,2,1,80,0,0
212444,-66.6666666666667,4,2,1,80,0,0
212514,-66.6666666666667,4,2,1,5,0,0
212585,-66.6666666666667,4,2,1,80,0,0
212656,-66.6666666666667,4,2,1,5,0,0
212727,-66.6666666666667,4,2,1,80,0,0
212797,-66.6666666666667,4,2,1,5,0,0
212868,-66.6666666666667,4,2,1,80,0,0
212939,-66.6666666666667,4,2,1,5,0,0
213010,-76.9230769230769,4,2,1,80,0,0
214142,-62.5,4,2,1,90,0,1
215274,-76.9230769230769,4,2,1,80,0,0
216406,-62.5,4,2,1,90,0,1
217538,-76.9230769230769,4,2,1,80,0,0
221500,-62.5,4,2,1,80,0,0
221571,-62.5,4,2,1,5,0,0
221642,-62.5,4,2,1,80,0,0
221713,-62.5,4,2,1,5,0,0
221783,-62.5,4,2,1,80,0,0
221854,-62.5,4,2,1,5,0,0
221925,-62.5,4,2,1,80,0,0
221996,-62.5,4,2,1,5,0,0
222066,-62.5,4,2,1,80,0,0
223198,-62.5,4,2,1,90,0,1
224330,-76.9230769230769,4,2,1,80,0,0
225463,-62.5,4,2,1,90,0,1
226595,-76.9230769230769,4,2,1,80,0,0
231123,-125,4,2,1,80,0,0
231406,-125,4,2,1,60,0,0
232113,-100,4,2,1,60,0,0
232538,-125,4,2,1,60,0,0
233387,-125,4,2,1,40,0,0
235368,-100,4,2,1,40,0,0
235580,-100,4,2,1,5,0,0
235651,-100,4,2,1,50,0,0
235722,-100,4,2,1,20,0,0
236500,-100,4,2,1,5,0,0

[Colours]
Combo1 : 255,255,255
Combo2 : 128,255,255
Combo3 : 237,243,122
Combo4 : 118,253,111
Combo5 : 255,198,111
Combo6 : 240,0,6

[HitObjects]
422,211,4708,6,0,P|437:129|450:69,1,140,2|0,0:0|0:0,0:0:0:0:
295,50,5132,1,2,0:0:0:0:
283,154,5274,2,0,P|320:153|366:128,1,70,0|2,0:0|0:0,0:0:0:0:
185,118,5557,1,0,3:2:0:0:
206,220,5698,1,2,0:0:0:0:
228,322,5840,6,0,B|189:312|189:312|135:328|135:328|83:311,1,140,0|2,3:0|0:0,0:0:0:0:
42,180,6264,1,0,0:0:0:0:
206,220,6406,2,0,L|115:198,1,70,2|0,0:0|0:0,0:0:0:0:
13,81,6689,2,0,P|74:81|122:122,1,105,2|0,0:0|0:0,0:0:0:0:
118,119,6972,6,0,L|261:93,1,140,2|2,3:2|0:0,0:0:0:0:
447,62,7396,1,2,0:0:0:0:
355,11,7538,2,0,L|340:99,1,70,0|2,0:0|0:0,0:0:0:0:
306,213,7821,1,0,0:0:0:0:
255,93,7963,1,2,0:0:0:0:
306,213,8104,6,0,B|272:222|272:222|235:213,1,70,0|2,3:0|0:0,0:0:0:0:
354,333,8387,1,0,3:0:0:0:
258,360,8529,2,0,B|202:373|202:373|107:338,1,140,2|0,0:0|0:0,0:0:0:0:
380,231,8953,1,2,0:0:0:0:
380,231,9236,38,0,L|397:297,1,56,6|0,3:2|0:0,0:0:0:0:
258,360,9519,2,0,L|243:298,1,56,2|0,0:0|0:0,0:0:0:0:
155,196,9802,2,0,L|254:217,1,84,2|0,0:0|0:0,0:0:0:0:
250,216,10085,1,2,3:2:0:0:
78,272,10227,1,2,0:0:0:0:
269,133,10368,6,0,P|299:144|339:202,1,84,2|0,3:2|0:0,0:0:0:0:
336,195,10651,1,2,0:0:0:0:
155,196,10793,2,0,P|145:138|139:72,1,112,2|2,0:0|0:0,0:0:0:0:
325,13,11217,1,0,0:0:0:0:
269,133,11359,1,2,0:0:0:0:
140,84,11500,5,2,3:2:0:0:
253,27,11642,2,0,L|307:51,2,56,2|2|2,0:0|0:0|0:0,0:0:0:0:
37,110,12066,2,0,P|88:81|154:90,1,112,2|0,0:0|0:0,0:0:0:0:
288,212,12491,1,2,0:0:0:0:
125,291,12632,6,0,B|100:220|100:220|111:180,1,112,2|2,3:2|3:2,0:0:0:0:
288,212,13057,2,0,B|231:251|231:251|242:204,1,112,2|2,0:0|0:0,0:0:0:0:
278,67,13481,2,0,L|261:132,1,56,2|0,0:0|0:0,0:0:0:0:
212,317,13764,38,0,L|244:194,1,112,2|2,3:2|0:0,0:0:0:0:
117,229,14189,1,0,0:0:0:0:
70,100,14330,2,0,L|189:115,1,112,2|2,0:0|3:2,0:0:0:0:
13,194,14755,1,2,0:0:0:0:
61,44,14896,6,0,L|70:100,1,56,2|2,3:2|0:0,0:0:0:0:
180,113,15180,1,0,0:0:0:0:
247,30,15321,2,0,P|205:59|179:130,1,112,2|0,0:0|0:0,0:0:0:0:
456,93,15746,2,0,L|411:126,1,56,2|2,0:0|0:0,0:0:0:0:
246,29,16029,6,0,L|358:38,1,112,0|2,3:2|0:0,0:0:0:0:
322,186,16453,1,0,0:0:0:0:
309,132,16595,2,0,L|324:193,1,56,2|0,0:0|0:0,0:0:0:0:
433,305,16878,2,0,L|456:231,1,56,2|0,0:0|0:0,0:0:0:0:
323,328,17161,6,0,L|441:303,1,112,2|2,3:2|3:2,0:0:0:0:
322,186,17585,1,2,0:0:0:0:
215,242,17727,2,0,P|186:289|187:365,1,112,2|0,0:0|0:0,0:0:0:0:
323,328,18151,1,2,0:0:0:0:
215,242,18293,38,0,L|152:260,1,56,2|2,3:2|0:0,0:0:0:0:
61,344,18576,2,0,L|-2:331,1,56,2|2,0:0|0:0,0:0:0:0:
51,234,18859,2,0,L|166:258,1,112,2|2,0:0|3:2,0:0:0:0:
250,114,19283,1,0,0:0:0:0:
322,186,19425,6,0,L|302:254,1,56,2|0,3:2|0:0,0:0:0:0:
172,160,19708,1,2,0:0:0:0:
265,60,19849,2,0,L|245:128,1,56,2|0,0:0|0:0,0:0:0:0:
354,95,20132,1,2,0:0:0:0:
247,25,20274,1,0,0:0:0:0:
172,160,20415,1,2,0:0:0:0:
69,84,20557,6,0,L|8:95,2,56,2|2|2,3:2|0:0|0:0,0:0:0:0:
265,60,20981,1,2,0:0:0:0:
156,23,21123,2,0,P|149:77|170:132,1,112,2|2,0:0|0:0,0:0:0:0:
255,200,21547,1,2,0:0:0:0:
362,97,21689,6,0,B|337:67|337:67|262:59,1,112,2|2,3:2|3:2,0:0:0:0:
144,215,22113,2,0,L|273:197,1,112,2|2,0:0|0:0,0:0:0:0:
362,97,22538,2,0,L|339:170,1,56,2|0,0:0|0:0,0:0:0:0:
471,44,22821,38,0,L|427:174,1,112,2|2,3:2|0:0,0:0:0:0:
496,286,23246,1,0,0:0:0:0:
393,341,23387,2,0,P|377:289|392:230,1,112,2|2,0:0|3:2,0:0:0:0:
512,167,23812,1,0,0:0:0:0:
389,234,23953,5,2,3:2:0:0:
306,120,24095,1,2,0:0:0:0:
306,120,24378,2,0,L|268:234,1,112,2|0,0:0|0:0,0:0:0:0:
118,89,24802,1,2,0:0:0:0:
226,56,24944,1,2,0:0:0:0:
111,211,25085,6,0,P|67:177|-5:163,1,112,2|0,3:2|0:0,0:0:0:0:
226,56,25510,1,0,0:0:0:0:
108,33,25651,2,0,L|119:98,1,56,2|0,0:0|0:0,0:0:0:0:
235,167,25934,2,0,L|206:220,1,56,2|0,0:0|0:0,0:0:0:0:
65,289,26217,5,2,3:2:0:0:
65,289,26500,1,2,3:2:0:0:
65,289,26783,2,0,L|142:271,1,56,2|0,0:0|0:0,0:0:0:0:
228,366,27066,2,0,L|294:379,1,56,2|2,0:0|0:0,0:0:0:0:
401,209,27349,38,0,L|263:241,1,97.9999970092774,6|2,3:2|0:0,0:0:0:0:
477,293,27774,1,2,0:0:0:0:
512,128,27915,1,2,3:2:0:0:
512,128,28198,2,0,L|446:145,1,48.9999985046387,2|2,0:0|0:0,0:0:0:0:
305,231,28481,6,0,L|272:124,1,97.9999970092774,2|2,3:2|0:0,0:0:0:0:
245,39,28906,1,0,0:0:0:0:
87,124,29047,2,0,P|123:170|172:192,1,97.9999970092774,2|2,3:2|0:0,0:0:0:0:
305,231,29472,1,2,0:0:0:0:
340,58,29613,6,0,L|281:48,1,48.9999985046387,2|2,3:2|0:0,0:0:0:0:
157,188,29896,2,0,L|223:163,1,48.9999985046387,2|2,0:0|0:0,0:0:0:0:
144,5,30180,2,0,L|185:124,1,97.9999970092774,2|0,3:2|0:0,0:0:0:0:
67,220,30604,1,2,0:0:0:0:
212,293,30746,6,0,L|226:241,1,48.9999985046387,2|2,3:3|0:3,0:0:0:0:
80,173,31029,2,0,L|66:225,1,48.9999985046387,2|2,0:3|0:3,0:0:0:0:
175,97,31312,5,2,3:3:0:0:
224,245,31453,1,2,0:3:0:0:
80,173,31595,5,2,0:3:0:0:
224,245,31736,1,2,0:3:0:0:
251,148,31878,6,0,L|123:189,1,97.9999970092774,0|2,3:2|0:0,0:0:0:0:
332,231,32302,1,2,0:0:0:0:
332,92,32444,2,0,P|286:58|236:52,1,97.9999970092774,2|2,3:2|0:0,0:0:0:0:
157,177,32868,1,0,0:0:0:0:
125,47,33010,6,0,L|141:116,1,48.9999985046387,2|2,3:2|0:0,0:0:0:0:
321,139,33293,2,0,L|334:81,1,48.9999985046387,2|2,0:0|0:0,0:0:0:0:
352,1,33576,1,2,3:2:0:0:
352,1,33859,2,0,L|340:60,1,48.9999985046387,2|2,0:0|0:0,0:0:0:0:
227,160,34142,6,0,P|281:140|343:143,1,97.9999970092774,2|2,3:2|0:0,0:0:0:0:
424,225,34566,1,2,0:0:0:0:
320,328,34708,2,0,L|295:225,1,97.9999970092774,0|2,3:2|0:0,0:0:0:0:
428,140,35132,1,0,0:0:0:0:
394,292,35274,6,0,L|380:233,1,48.9999985046387,0|2,3:2|0:0,0:0:0:0:
428,140,35557,2,0,L|415:86,1,48.9999985046387,2|2,0:0|0:0,0:0:0:0:
296,109,35840,2,0,L|316:183,1,48.9999985046387,2|0,3:2|0:0,0:0:0:0:
297,268,36123,1,2,0:0:0:0:
297,268,36406,38,0,B|236:248|236:248|196:262,1,97.9999970092774,2|0,3:2|0:0,0:0:0:0:
123,323,36830,1,2,0:0:0:0:
87,186,36972,1,2,3:2:0:0:
87,186,37255,2,0,P|102:162|110:125,1,48.9999985046387,0|0,0:0|0:0,0:0:0:0:
7,23,37538,6,0,P|50:54|106:59,1,97.9999970092774,2|0,3:2|0:0,0:0:0:0:
264,18,37963,1,2,0:0:0:0:
193,90,38104,1,2,3:2:0:0:
193,90,38387,2,0,P|200:122|213:153,1,48.9999985046387,2|2,0:0|0:0,0:0:0:0:
291,223,38670,6,0,P|318:187|324:124,1,97.9999970092774,2|0,3:2|0:0,0:0:0:0:
479,205,39095,1,2,0:0:0:0:
325,135,39236,1,0,3:0:0:0:
325,135,39519,2,0,P|304:152|286:180,1,48.9999985046387,0|2,0:0|0:0,0:0:0:0:
170,290,39802,6,0,B|215:271|267:278|267:278|237:274|209:244,1,146.999995513916,2|2,3:2|0:0,0:0:0:0:
106,346,40368,2,0,P|91:313|80:282,1,48.9999985046387,0|2,3:2|0:0,0:0:0:0:
184,188,40651,2,0,P|199:154|205:135,1,48.9999985046387,0|2,0:0|0:0,0:0:0:0:
91,45,40934,1,4,0:1:0:0:
256,192,42915,12,0,44260,0:0:0:0:
291,62,44330,22,0,P|417:59|379:153,1,262.5,0|0,0:0|0:0,0:0:0:0:
291,62,45463,6,0,B|249:22|249:22|296:197,1,210.000008010865,6|2,3:2|0:0,0:0:0:0:
158,384,45887,1,2,3:1:0:0:
309,245,46029,2,0,P|366:250|429:282,1,105.000004005432,8|2,0:0|0:1,0:0:0:0:
158,384,46312,2,0,L|136:259,1,105.000004005432,2|8,3:2|0:1,0:0:0:0:
95,56,46595,1,0,3:0:0:0:
95,56,46878,5,2,0:1:0:0:
1,190,47019,1,2,0:0:0:0:
139,280,47161,2,0,P|193:255|261:243,1,105.000004005432,8|2,0:0|0:0,0:0:0:0:
367,384,47444,2,0,P|388:335|409:276,1,105.000004005432,2|8,0:1|0:1,0:0:0:0:
139,280,47727,6,0,P|131:207|98:71,1,210.000008010865,0|2,3:0|0:1,0:0:0:0:
255,1,48151,1,2,3:2:0:0:
103,211,48293,2,0,P|53:197|-17:189,1,105.000004005432,10|8,0:2|0:1,0:0:0:0:
255,1,48576,2,0,L|235:122,1,105.000004005432,2|8,3:1|0:1,0:0:0:0:
191,360,48859,5,2,3:1:0:0:
103,211,49000,1,2,0:0:0:0:
291,292,49142,2,0,B|456:268,1,157.500006008148,10|0,0:1|0:0,0:0:0:0:
473,266,49425,1,8,0:0:0:0:
385,103,49566,1,10,0:1:0:0:
328,202,49708,1,0,0:0:0:0:
428,12,49849,1,10,0:1:0:0:
328,202,49991,38,0,B|233:253|208:158|106:223,1,210.000008010865,0|2,3:0|0:1,0:0:0:0:
175,320,50415,1,2,3:2:0:0:
321,63,50557,2,0,B|287:7|287:7|250:93|250:93|285:174,1,210.000008010865,8|2,0:0|3:1,0:0:0:0:
120,255,50981,1,8,0:1:0:0:
50,176,51123,6,0,P|99:154|159:158,1,105.000004005432,2|2,3:2|0:0,0:0:0:0:
446,210,51406,2,0,P|397:232|337:228,1,105.000004005432,8|2,0:1|0:1,0:0:0:0:
176,360,51689,1,10,0:0:0:0:
346,230,51830,1,0,0:1:0:0:
149,155,51972,1,10,0:1:0:0:
286,342,52113,1,2,0:0:0:0:
486,93,52255,6,0,L|308:56,1,157.500006008148,2|0,3:3|0:0,0:0:0:0:
305,57,52538,2,0,L|348:165,1,105.000004005432,2|2,0:1|3:2,0:0:0:0:
252,312,52821,6,0,P|169:312|74:349,1,157.500006008148,10|0,0:0|0:0,0:0:0:0:
62,348,53104,2,0,P|90:301|105:240,1,105.000004005432,2|8,3:1|0:1,0:0:0:0:
87,48,53387,38,0,P|29:90|45:193,1,157.500006008148,2|0,3:1|0:0,0:0:0:0:
131,229,53670,2,0,B|199:217|199:217|253:238|253:238|322:224,1,188.999994232178,2|0,3:1|0:0,0:0:0:0:
503,192,53953,69,8,0:0:0:0:
313,225,54095,1,0,0:0:0:0:
432,349,54236,70,0,L|422:286,1,62.9999980773926,2|0,0:0|0:0,0:0:0:0:
396,106,54378,2,0,L|406:171,1,62.9999980773926,2|0,0:1|0:0,0:0:0:0:
217,366,54519,22,0,P|124:323|130:229,1,210.000008010865,6|2,3:2|0:0,0:0:0:0:
422,286,54944,1,2,3:1:0:0:
354,122,55085,2,0,L|241:144,1,105.000004005432,8|2,0:0|0:1,0:0:0:0:
40,48,55368,2,0,L|170:20,1,105.000004005432,2|8,3:2|0:1,0:0:0:0:
316,220,55651,5,0,3:0:0:0:
316,220,55934,1,8,0:1:0:0:
392,30,56076,1,2,0:0:0:0:
192,333,56217,2,0,L|140:96,1,210.000008010865,8|2,0:0|0:1,0:0:0:0:
472,0,56642,1,8,0:1:0:0:
472,0,56713,1,0,0:0:0:0:
472,0,56783,6,0,P|444:100|331:91,1,210.000008010865,0|2,3:0|0:1,0:0:0:0:
168,16,57208,1,2,3:2:0:0:
3,203,57349,2,0,P|106:223|207:255,1,210.000008010865,10|2,0:2|3:1,0:0:0:0:
392,30,57774,1,8,0:1:0:0:
269,163,57915,6,0,L|311:286,1,105.000004005432,2|2,3:1|0:0,0:0:0:0:
421,365,58198,2,0,P|447:306|493:161,1,210.000008010865,10|8,0:1|0:0,0:0:0:0:
302,262,58623,1,0,0:0:0:0:
236,63,58764,2,0,L|274:178,1,105.000004005432,0|10,3:0|0:1,0:0:0:0:
461,268,59047,38,0,L|495:157,1,105.000004005432,0|2,3:0|0:0,0:0:0:0:
205,276,59330,2,0,L|244:383,1,105.000004005432,2|2,0:1|3:2,0:0:0:0:
491,167,59613,2,0,B|447:154|447:154|344:186|344:186|282:169,1,210.000008010865,8|2,0:0|3:1,0:0:0:0:
144,22,60038,1,8,0:1:0:0:
53,125,60180,6,0,L|91:236,1,105.000004005432,2|0,3:2|0:0,0:0:0:0:
325,30,60463,2,0,L|214:-1,1,105.000004005432,8|2,0:1|0:1,0:0:0:0:
489,146,60746,1,10,0:0:0:0:
233,215,60887,1,0,0:1:0:0:
370,372,61029,2,0,L|389:259,1,105.000004005432,8|2,0:1|0:0,0:0:0:0:
233,215,61312,6,0,P|135:217|43:160,1,210.000008010865,2|10,3:3|0:1,0:0:0:0:
255,20,61736,1,2,3:2:0:0:
293,347,61878,2,0,L|264:109,1,210.000008010865,10|2,0:0|3:1,0:0:0:0:
382,182,62302,1,8,0:1:0:0:
249,277,62444,6,0,P|197:272|145:247,1,105.000004005432,2|8,3:1|0:1,0:0:0:0:
512,52,62727,2,0,L|488:212,1,157.500006008148,2|0,3:1|0:0,0:0:0:0:
485,233,63010,6,0,L|427:251,1,52.5000020027161,8|0,0:0|0:0,0:0:0:0:
301,146,63151,2,0,L|364:161,1,52.5000020027161,8|0,0:0|0:0,0:0:0:0:
512,52,63293,2,0,L|467:102,1,52.5000020027161,8|0,3:0|0:0,0:0:0:0:
313,61,63434,2,0,L|294:11,1,52.5000020027161,8|0,3:0|0:0,0:0:0:0:
198,196,63576,6,0,L|267:389,1,181.999991668702,4|2,3:2|0:1,0:0:0:0:
91,84,64000,1,2,3:2:0:0:
0,235,64142,2,0,P|41:256|97:265,1,90.9999958343508,8|2,0:0|0:1,0:0:0:0:
301,146,64425,1,4,3:1:0:0:
167,23,64566,1,2,0:1:0:0:
167,23,64637,1,0,0:0:0:0:
167,23,64708,69,2,3:3:0:0:
329,172,64849,1,8,0:1:0:0:
138,170,64991,1,4,0:1:0:0:
356,198,65132,1,2,3:3:0:0:
302,4,65274,1,8,3:1:0:0:
243,255,65415,1,4,0:1:0:0:
483,197,65557,2,0,L|506:82,1,112,2|8,3:3|0:1,0:0:0:0:
243,255,65840,6,0,P|286:318|401:350,1,181.999991668702,4|2,3:1|0:1,0:0:0:0:
483,197,66264,1,2,3:2:0:0:
382,351,66406,2,0,P|356:307|341:257,1,90.9999958343508,10|2,0:0|0:1,0:0:0:0:
404,30,66689,1,4,3:1:0:0:
245,146,66830,1,0,0:0:0:0:
245,146,66901,1,0,0:0:0:0:
245,146,66972,69,2,3:3:0:0:
483,197,67113,1,8,0:1:0:0:
322,88,67255,1,4,0:1:0:0:
512,204,67396,1,2,3:3:0:0:
300,232,67538,1,8,3:1:0:0:
404,30,67680,1,4,0:1:0:0:
214,210,67821,2,0,L|191:92,1,112,2|8,3:3|0:1,0:0:0:0:
70,187,68104,22,0,P|60:274|129:329,1,181.999991668702,4|2,3:1|0:0,0:0:0:0:
316,121,68529,1,2,3:1:0:0:
300,319,68670,2,0,P|228:266|141:240,1,181.999991668702,8|2,0:0|3:2,0:0:0:0:
378,248,69095,1,8,0:1:0:0:
210,22,69236,6,0,P|198:68|187:135,1,90.9999958343508,2|0,3:2|0:0,0:0:0:0:
377,247,69519,2,0,P|420:231|461:211,1,90.9999958343508,2|8,0:1|0:1,0:0:0:0:
239,371,69802,2,0,P|219:324|190:268,1,90.9999958343508,8|8,0:0|0:1,0:0:0:0:
425,46,70085,2,0,P|404:86|387:128,1,90.9999958343508,2|2,0:1|0:1,0:0:0:0:
201,288,70368,6,0,P|118:270|9:253,1,181.999991668702,6|2,3:1|0:1,0:0:0:0:
289,123,70793,1,8,3:1:0:0:
363,374,70934,2,0,P|334:315|304:191,1,181.999991668702,8|2,0:0|3:2,0:0:0:0:
113,46,71359,1,8,0:1:0:0:
23,255,71500,6,0,P|94:233|134:226,1,90.9999958343508,2|2,3:2|0:0,0:0:0:0:
360,65,71783,2,0,P|313:55|257:36,1,90.9999958343508,10|0,0:1|0:0,0:0:0:0:
445,232,72066,2,0,P|484:192|448:73,1,181.999991668702,8|2,0:0|0:2,0:0:0:0:
254,293,72491,1,10,0:1:0:0:
302,7,72632,22,0,P|289:94|271:208,1,181.999991668702,6|2,3:2|0:1,0:0:0:0:
132,69,73057,1,2,3:2:0:0:
36,293,73198,2,0,P|17:246|-3:204,1,90.9999958343508,8|2,0:0|0:1,0:0:0:0:
274,186,73481,1,4,0:1:0:0:
172,302,73623,1,2,0:1:0:0:
172,302,73694,1,0,0:0:0:0:
172,302,73764,69,2,3:0:0:0:
367,239,73906,1,8,0:1:0:0:
146,201,74047,1,4,0:1:0:0:
403,249,74189,1,2,3:0:0:0:
312,102,74330,1,8,3:1:0:0:
259,359,74472,1,4,0:1:0:0:
450,215,74613,2,0,L|333:186,1,112,2|8,3:0|0:1,0:0:0:0:
164,207,74896,6,0,P|111:133|107:43,1,181.999991668702,4|2,0:1|0:1,0:0:0:0:
349,71,75321,1,2,3:2:0:0:
313,330,75463,2,0,L|224:355,1,90.9999958343508,8|2,0:0|0:1,0:0:0:0:
87,148,75746,1,0,3:2:0:0:
239,96,75887,1,0,0:0:0:0:
239,96,75958,1,0,0:0:0:0:
239,96,76029,69,2,3:0:0:0:
279,242,76170,1,8,0:1:0:0:
283,31,76312,1,4,0:1:0:0:
196,194,76453,1,2,3:3:0:0:
282,5,76595,1,8,3:1:0:0:
357,190,76736,1,4,0:1:0:0:
512,62,76878,2,0,P|464:30|404:22,1,112,2|8,3:3|0:1,0:0:0:0:
283,31,77161,22,0,P|261:101|174:187,1,181.999991668702,4|2,3:1|0:1,0:0:0:0:
2,111,77586,1,2,3:2:0:0:
86,337,77727,2,0,B|176:368|173:280|274:304,1,181.999991668702,8|2,0:0|3:2,0:0:0:0:
393,380,78152,1,8,0:1:0:0:
117,260,78293,6,0,P|104:217|96:172,1,90.9999958343508,2|0,3:2|0:0,0:0:0:0:
307,10,78576,2,0,P|355:20|420:41,1,90.9999958343508,2|8,0:1|0:1,0:0:0:0:
326,241,78859,2,0,P|291:273|247:306,1,90.9999958343508,8|8,0:0|0:1,0:0:0:0:
77,59,79142,2,0,P|125:67|174:85,1,90.9999958343508,2|2,0:1|0:0,0:0:0:0:
380,328,79425,6,0,P|420:284|406:167,1,181.999991668702,2|2,3:2|0:1,0:0:0:0:
237,44,79850,1,2,3:2:0:0:
147,277,79991,2,0,L|347:236,1,181.999991668702,8|2,0:0|3:1,0:0:0:0:
71,29,80416,1,8,0:1:0:0:
3,229,80557,6,0,L|113:208,1,90.9999958343508,2|8,3:2|0:0,0:0:0:0:
255,4,80840,2,0,P|235:52|219:103,1,90.9999958343508,0|2,0:0|0:1,0:0:0:0:
309,324,81123,2,0,B|346:327|382:312|382:312|426:327|426:327|506:307,1,181.999991668702,8|2,0:0|0:1,0:0:0:0:
330,87,81548,1,2,0:1:0:0:
173,300,81689,37,4,0:1:0:0:
204,317,82255,5,4,0:1:0:0:
205,280,82821,5,4,0:1:0:0:
173,300,83387,37,4,0:1:0:0:
173,300,83953,6,0,L|96:283,1,62.9999980773926,2|0,3:3|0:0,0:0:0:0:
264,193,84236,2,0,L|325:206,1,62.9999980773926,2|0,0:0|0:0,0:0:0:0:
166,134,84519,2,0,P|142:97|165:28,1,94.499997116089,2|0,0:0|0:0,0:0:0:0:
166,29,84802,1,2,3:2:0:0:
50,163,84944,1,2,0:0:0:0:
269,78,85085,6,0,P|316:69|366:54,1,94.499997116089,2|0,3:2|0:0,0:0:0:0:
370,44,85368,1,2,0:0:0:0:
325,206,85510,2,0,P|314:268|308:330,1,125.999996154785,2|2,0:0|0:0,0:0:0:0:
410,285,85934,1,0,0:0:0:0:
229,263,86076,1,2,0:0:0:0:
342,183,86217,5,0,3:0:0:0:
138,260,86359,2,0,P|145:298|159:335,2,62.9999980773926,2|2|2,0:0|0:0|0:0,0:0:0:0:
204,133,86783,2,0,P|153:162|87:153,1,125.999996154785,2|2,0:0|0:0,0:0:0:0:
24,57,87208,1,0,0:0:0:0:
254,23,87349,6,0,P|315:14|369:43,1,125.999996154785,2|2,3:2|3:2,0:0:0:0:
484,123,87774,2,0,B|403:145|403:145|439:187,1,125.999996154785,2|2,0:0|0:0,0:0:0:0:
479,338,88198,2,0,L|464:267,1,62.9999980773926,2|2,0:0|0:0,0:0:0:0:
325,206,88481,38,0,L|314:336,1,125.999996154785,2|2,3:2|0:0,0:0:0:0:
430,268,88906,1,0,0:0:0:0:
210,254,89047,2,0,L|221:384,1,125.999996154785,2|0,0:0|3:0,0:0:0:0:
105,316,89472,1,2,0:0:0:0:
312,345,89613,5,2,3:2:0:0:
74,306,89755,2,0,L|-3:287,1,62.9999980773926,2|0,0:0|0:0,0:0:0:0:
128,208,90038,2,0,P|188:208|243:148,1,125.999996154785,2|0,0:0|0:0,0:0:0:0:
128,50,90463,2,0,P|139:89|152:114,1,62.9999980773926,2|2,0:0|0:0,0:0:0:0:
320,197,90746,6,0,L|448:174,1,125.999996154785,2|2,3:2|0:0,0:0:0:0:
351,93,91170,1,2,0:0:0:0:
445,267,91312,2,0,P|454:237|460:206,1,62.9999980773926,2|0,0:0|0:0,0:0:0:0:
243,57,91595,2,0,L|257:126,1,62.9999980773926,2|0,0:0|0:0,0:0:0:0:
287,314,91878,6,0,L|415:291,1,125.999996154785,2|0,3:2|3:2,0:0:0:0:
320,197,92302,1,2,0:0:0:0:
215,230,92444,2,0,P|179:273|173:347,1,125.999996154785,2|0,0:0|0:0,0:0:0:0:
320,197,92868,1,2,0:0:0:0:
287,314,93010,38,0,L|300:394,1,62.9999980773926,2|2,3:2|0:0,0:0:0:0:
130,202,93293,2,0,L|119:139,1,62.9999980773926,2|2,0:0|0:0,0:0:0:0:
320,197,93576,2,0,P|376:233|446:226,1,125.999996154785,2|2,0:0|3:2,0:0:0:0:
498,142,94000,1,0,0:0:0:0:
317,103,94142,6,0,L|250:121,1,62.9999980773926,2|0,3:2|0:0,0:0:0:0:
400,34,94425,1,2,0:0:0:0:
431,251,94566,2,0,L|498:269,1,62.9999980773926,2|0,0:0|0:0,0:0:0:0:
304,307,94849,2,0,L|292:233,1,62.9999980773926,2|0,0:0|0:0,0:0:0:0:
402,138,95132,1,2,0:0:0:0:
194,191,95274,6,0,L|179:265,2,62.9999980773926,0|2|2,3:0|0:0|0:0,0:0:0:0:
305,69,95698,1,2,0:0:0:0:
402,138,95840,2,0,P|466:132|529:105,1,125.999996154785,2|2,0:0|0:0,0:0:0:0:
478,231,96264,1,2,0:0:0:0:
305,69,96406,6,0,P|246:45|184:39,1,125.999996154785,2|2,3:2|3:2,0:0:0:0:
86,202,96830,2,0,B|129:229|129:229|215:178,1,125.999996154785,2|2,0:0|0:0,0:0:0:0:
304,182,97255,2,0,L|290:263,1,62.9999980773926,2|0,0:0|0:0,0:0:0:0:
412,376,97538,38,0,P|364:340|288:350,1,125.999996154785,0|2,3:2|0:0,0:0:0:0:
186,234,97963,1,0,0:0:0:0:
384,247,98104,2,0,L|493:228,1,94.499997116089,2|0,0:0|0:0,0:0:0:0:
492,227,98387,1,2,3:2:0:0:
390,102,98529,5,0,0:0:0:0:
354,216,98670,1,2,3:2:0:0:
270,151,98812,1,2,0:0:0:0:
270,151,99095,2,0,P|274:222|287:292,1,125.999996154785,2|2,0:0|0:0,0:0:0:0:
379,365,99519,1,2,0:0:0:0:
478,306,99661,1,0,0:0:0:0:
255,285,99802,6,0,P|216:247|136:247,1,125.999996154785,2|2,3:2|0:0,0:0:0:0:
73,157,100227,1,2,0:0:0:0:
7,247,100368,2,0,L|18:312,1,62.9999980773926,2|0,0:0|0:0,0:0:0:0:
180,318,100651,2,0,L|169:383,1,62.9999980773926,2|0,0:0|0:0,0:0:0:0:
163,93,100934,5,0,3:2:0:0:
163,93,101217,1,2,3:2:0:0:
163,93,101500,2,0,L|241:81,1,62.9999980773926,2|0,0:0|0:0,0:0:0:0:
310,14,101783,2,0,L|375:33,1,62.9999980773926,2|2,0:0|0:0,0:0:0:0:
315,123,102066,38,0,P|296:170|290:224,1,97.9999970092774,6|2,0:2|0:0,0:0:0:0:
400,301,102491,1,2,0:0:0:0:
492,176,102632,1,2,0:2:0:0:
492,176,102915,2,0,L|426:193,1,48.9999985046387,2|2,0:0|0:0,0:0:0:0:
299,315,103198,6,0,P|352:320|417:333,1,97.9999970092774,2|2,0:2|0:0,0:0:0:0:
306,221,103623,1,0,0:0:0:0:
207,341,103764,2,0,P|149:355|88:356,1,97.9999970092774,2|2,0:2|0:0,0:0:0:0:
290,217,104189,1,2,0:0:0:0:
145,251,104330,6,0,L|86:241,1,48.9999985046387,2|2,0:2|0:0,0:0:0:0:
241,135,104613,2,0,L|307:110,1,48.9999985046387,2|2,0:0|0:0,0:0:0:0:
128,50,104897,2,0,P|117:102|138:155,1,97.9999970092774,2|0,0:2|0:0,0:0:0:0:
290,217,105321,1,2,0:0:0:0:
82,239,105463,6,0,L|23:229,1,48.9999985046387,2|2,0:2|0:0,0:0:0:0:
227,270,105746,2,0,L|213:322,1,48.9999985046387,2|2,0:3|0:3,0:0:0:0:
134,159,106029,5,2,0:3:0:0:
304,112,106170,1,2,0:3:0:0:
290,217,106312,5,2,0:3:0:0:
198,51,106453,1,2,0:3:0:0:
355,120,106595,6,0,P|406:134|470:144,1,97.9999970092774,2|2,0:2|0:0,0:0:0:0:
418,49,107019,1,2,0:0:0:0:
290,217,107161,2,0,P|238:233|175:238,1,97.9999970092774,2|2,0:2|0:0,0:0:0:0:
134,159,107585,1,0,0:0:0:0:
98,275,107727,6,0,L|117:342,1,48.9999985046387,2|2,0:2|0:0,0:0:0:0:
228,148,108010,2,0,L|241:90,1,48.9999985046387,2|2,0:0|0:0,0:0:0:0:
47,131,108293,1,2,0:2:0:0:
47,131,108576,2,0,L|-16:144,1,48.9999985046387,2|2,0:0|0:0,0:0:0:0:
228,148,108859,6,0,P|249:103|252:43,1,97.9999970092774,2|2,0:2|0:0,0:0:0:0:
161,14,109283,1,2,0:0:0:0:
144,191,109425,2,0,L|163:258,1,48.9999985046387,0|2,0:2|0:0,0:0:0:0:
135,341,109708,6,0,P|177:324|244:317,1,97.9999970092774,2|2,0:0|0:2,0:0:0:0:
318,255,110132,1,2,0:0:0:0:
392,333,110274,2,0,P|389:367|378:389,1,48.9999985046387,2|2,0:0|0:0,0:0:0:0:
318,255,110557,1,2,0:2:0:0:
477,172,110698,1,0,0:0:0:0:
410,91,110840,1,2,0:0:0:0:
410,91,111123,38,0,B|351:109|351:109|306:80,1,97.9999970092774,2|0,0:2|0:0,0:0:0:0:
222,24,111547,1,2,0:0:0:0:
288,198,111689,1,2,0:2:0:0:
288,198,111972,2,0,P|303:222|311:259,1,48.9999985046387,0|0,0:0|0:0,0:0:0:0:
344,367,112255,6,0,P|301:336|245:331,1,97.9999970092774,2|0,0:2|0:0,0:0:0:0:
98,185,112680,1,2,0:0:0:0:
82,293,112821,1,2,0:2:0:0:
82,293,113104,2,0,P|112:287|145:274,1,48.9999985046387,2|2,0:0|0:0,0:0:0:0:
288,198,113387,6,0,L|180:174,1,97.9999970092774,2|2,0:2|0:0,0:0:0:0:
31,112,113812,1,2,0:0:0:0:
98,185,113953,1,2,0:0:0:0:
98,185,114236,2,0,P|108:208|113:231,1,48.9999985046387,0|2,0:0|0:0,0:0:0:0:
233,345,114519,6,0,B|201:325|143:323|143:323|178:313|192:280,1,146.999995513916,2|2,0:2|0:0,0:0:0:0:
332,178,115085,2,0,P|299:193|268:204,1,48.9999985046387,2|2,0:2|0:0,0:0:0:0:
109,81,115368,2,0,P|131:91|154:99,1,48.9999985046387,2|2,0:0|0:0,0:0:0:0:
240,18,115651,1,2,0:0:0:0:
256,192,117632,12,0,119260,0:0:0:0:
309,233,119330,22,0,B|299:227|299:227|287:236|287:236|270:223|270:223|253:234|253:234|179:223|156:328|213:352,1,230.99999295044,2|0,0:0|0:0,0:0:0:0:
309,233,120180,6,0,B|375:181|336:93|336:93|264:107,1,210.000008010865,6|2,3:2|0:0,0:0:0:0:
109,93,120604,1,2,3:1:0:0:
87,240,120746,2,0,P|141:232|207:203,1,105.000004005432,8|2,0:0|0:1,0:0:0:0:
453,131,121029,2,0,L|434:234,1,105.000004005432,2|8,3:2|0:1,0:0:0:0:
310,346,121312,1,0,3:0:0:0:
310,346,121595,5,2,0:1:0:0:
463,252,121736,1,2,0:0:0:0:
200,343,121878,2,0,P|147:333|101:307,1,105.000004005432,8|2,0:0|0:0,0:0:0:0:
289,115,122161,2,0,P|298:178|298:250,1,105.000004005432,2|8,0:1|0:1,0:0:0:0:
413,336,122444,6,0,P|439:234|452:130,1,210.000008010865,0|2,3:0|0:1,0:0:0:0:
299,219,122868,1,2,3:2:0:0:
351,105,123010,2,0,P|341:56|321:-17,1,105.000004005432,10|8,0:2|0:1,0:0:0:0:
84,113,123293,2,0,P|129:105|205:86,1,105.000004005432,2|8,3:1|0:1,0:0:0:0:
299,219,123576,6,0,P|253:210|183:202,1,105.000004005432,2|2,3:1|0:0,0:0:0:0:
37,255,123859,2,0,B|16:324|88:377|88:377|133:363|178:308,1,210.000008010865,10|8,0:1|0:0,0:0:0:0:
295,178,124283,2,0,B|316:109|244:56|244:56|199:70|154:125,1,210.000008010865,10|10,0:1|0:1,0:0:0:0:
402,127,124708,38,0,P|461:114|505:90,1,105.000004005432,0|0,3:0|0:0,0:0:0:0:
195,202,124991,2,0,P|148:178|96:168,1,105.000004005432,2|2,0:1|3:2,0:0:0:0:
262,342,125274,2,0,B|305:378|305:378|375:307|307:211,1,210.000008010865,8|2,0:0|3:1,0:0:0:0:
186,90,125698,1,8,0:1:0:0:
298,163,125840,6,0,L|409:149,1,105.000004005432,2|2,3:2|0:0,0:0:0:0:
145,83,126123,2,0,L|34:69,1,105.000004005432,10|2,0:1|0:1,0:0:0:0:
92,191,126406,1,10,0:0:0:0:
278,69,126547,1,0,0:1:0:0:
88,215,126689,2,0,P|93:281|130:332,1,105.000004005432,8|2,0:1|0:0,0:0:0:0:
246,223,126972,6,0,L|278:68,1,157.500006008148,2|0,3:3|0:0,0:0:0:0:
285,50,127255,2,0,L|398:33,1,105.000004005432,2|2,0:1|3:2,0:0:0:0:
512,220,127538,6,0,P|461:182|366:186,1,157.500006008148,10|0,0:0|0:0,0:0:0:0:
353,200,127821,2,0,P|379:247|371:327,1,105.000004005432,2|8,3:1|0:1,0:0:0:0:
237,282,128104,38,0,P|186:320|91:316,1,157.500006008148,2|0,3:1|0:0,0:0:0:0:
42,384,128387,2,0,B|71:295|8:289|47:192,1,188.999994232178,2|0,3:1|0:0,0:0:0:0:
39,59,128670,70,0,P|17:65|-7:69,1,35,8|0,0:0|0:0,0:0:0:0:
6,68,128953,70,0,P|36:74|66:83,1,62.9999980773926,8|0,0:0|0:0,0:0:0:0:
217,84,129095,2,0,P|247:77|277:68,1,62.9999980773926,8|0,0:0|0:0,0:0:0:0:
439,48,129236,22,0,P|369:101|393:228,1,210.000008010865,6|2,3:2|0:0,0:0:0:0:
470,330,129661,1,2,3:1:0:0:
283,254,129802,2,0,L|170:273,1,105.000004005432,8|8,0:0|0:1,0:0:0:0:
22,161,130085,2,0,L|125:143,1,105.000004005432,2|8,3:2|0:1,0:0:0:0:
258,27,130368,5,0,3:0:0:0:
258,27,130651,2,0,P|227:103|237:186,1,157.500006008148,8|0,0:1|0:0,0:0:0:0:
248,190,130934,1,8,0:0:0:0:
351,106,131076,1,2,0:0:0:0:
137,110,131217,1,2,0:1:0:0:
188,285,131359,1,8,0:1:0:0:
188,285,131430,1,0,0:0:0:0:
188,285,131500,6,0,P|252:272|348:261,1,157.500006008148,0|0,3:0|0:0,0:0:0:0:
377,259,131783,2,0,L|353:376,1,105.000004005432,2|2,0:1|3:2,0:0:0:0:
233,176,132066,2,0,B|189:123|213:47|213:47|242:18|310:59,1,210.000008010865,10|2,0:2|3:1,0:0:0:0:
368,146,132491,1,8,0:1:0:0:
106,146,132632,6,0,P|73:145|-1:120,1,105.000004005432,2|2,3:1|0:0,0:0:0:0:
96,341,132915,2,0,B|148:305|237:325|237:325|241:287|285:253,1,210.000008010865,10|8,0:1|0:0,0:0:0:0:
344,149,133340,2,0,B|291:113|202:133|202:133|198:95|173:77,1,210.000008010865,8|10,0:1|0:1,0:0:0:0:
373,58,133764,38,0,P|424:52|483:32,1,105.000004005432,0|2,3:0|0:0,0:0:0:0:
313,333,134047,2,0,P|294:295|276:226,1,105.000004005432,2|2,0:1|3:2,0:0:0:0:
155,41,134330,2,0,B|186:116|119:179|119:179|42:124,1,210.000008010865,8|2,0:0|3:1,0:0:0:0:
23,278,134755,1,8,0:1:0:0:
255,222,134897,6,0,P|302:216|360:195,1,105.000004005432,2|0,3:2|0:0,0:0:0:0:
309,0,135180,2,0,P|290:43|279:104,1,105.000004005432,8|2,0:1|0:1,0:0:0:0:
313,333,135463,1,10,0:0:0:0:
440,200,135604,1,0,0:1:0:0:
296,343,135746,2,0,P|241:331|188:306,1,105.000004005432,10|2,0:1|0:0,0:0:0:0:
78,30,136029,6,0,P|166:107|136:205,1,210.000008010865,2|2,3:3|0:1,0:0:0:0:
61,276,136453,1,2,3:2:0:0:
269,250,136595,2,0,L|60:275,1,210.000008010865,10|2,0:0|3:1,0:0:0:0:
198,349,137019,1,8,0:1:0:0:
67,133,137161,6,0,P|43:87|38:27,1,105.000004005432,2|8,3:1|0:1,0:0:0:0:
278,66,137444,2,0,L|254:226,1,157.500006008148,2|0,3:1|0:0,0:0:0:0:
269,250,137727,6,0,P|296:245|319:234,1,52.5000020027161,8|0,0:0|0:0,0:0:0:0:
480,152,137868,2,0,P|456:140|430:136,1,52.5000020027161,8|0,0:0|0:0,0:0:0:0:
278,66,138010,2,0,L|291:128,1,52.5000020027161,8|0,3:0|0:0,0:0:0:0:
413,289,138151,2,0,L|423:237,1,52.5000020027161,8|0,3:0|0:0,0:0:0:0:
254,221,138293,6,0,P|122:193|47:192,1,181.999991668702,4|2,3:2|0:1,0:0:0:0:
0,108,138717,1,2,3:2:0:0:
47,306,138859,2,0,P|95:303|152:276,1,90.9999958343508,8|2,0:0|0:1,0:0:0:0:
293,136,139142,1,4,3:1:0:0:
217,322,139283,1,2,0:1:0:0:
217,322,139354,1,0,0:0:0:0:
217,322,139425,69,2,3:3:0:0:
340,243,139566,1,8,0:1:0:0:
153,155,139708,1,4,0:1:0:0:
304,336,139849,1,2,3:3:0:0:
400,154,139991,1,8,3:1:0:0:
225,227,140132,1,4,0:1:0:0:
391,351,140274,2,0,L|508:328,1,112,2|8,3:3|0:1,0:0:0:0:
225,227,140557,6,0,P|153:178|26:188,1,181.999991668702,4|2,3:1|0:1,0:0:0:0:
219,361,140981,1,2,3:2:0:0:
109,298,141123,2,0,P|56:304|-1:321,1,90.9999958343508,10|2,0:0|0:1,0:0:0:0:
304,336,141406,1,4,3:1:0:0:
153,155,141547,1,0,0:0:0:0:
153,155,141618,1,0,0:0:0:0:
153,155,141689,69,2,3:3:0:0:
217,321,141830,1,8,0:1:0:0:
344,191,141972,1,4,0:1:0:0:
186,77,142113,1,2,3:3:0:0:
261,244,142255,1,8,3:1:0:0:
387,78,142397,1,4,0:1:0:0:
129,11,142538,2,0,P|69:22|-3:27,1,112,2|8,3:3|0:1,0:0:0:0:
255,161,142821,22,0,P|292:43|252:-3,1,181.999991668702,4|2,3:1|0:0,0:0:0:0:
62,127,143246,1,2,3:1:0:0:
172,238,143387,2,0,P|266:247|348:285,1,181.999991668702,8|2,0:0|3:2,0:0:0:0:
410,173,143812,1,8,0:1:0:0:
231,340,143953,6,0,P|185:360|121:369,1,90.9999958343508,2|0,3:2|0:0,0:0:0:0:
446,302,144236,2,0,P|442:249|424:209,1,90.9999958343508,2|8,0:1|0:1,0:0:0:0:
263,5,144519,2,0,P|246:47|244:92,1,90.9999958343508,8|8,0:0|0:1,0:0:0:0:
69,245,144802,2,0,P|115:263|161:268,1,90.9999958343508,2|2,0:1|0:1,0:0:0:0:
334,112,145085,6,0,P|244:126|155:145,1,181.999991668702,6|2,3:1|0:1,0:0:0:0:
263,5,145510,1,8,3:1:0:0:
379,191,145651,2,0,P|364:126|432:12,1,181.999991668702,8|2,0:0|3:2,0:0:0:0:
496,129,146076,1,8,0:1:0:0:
405,304,146217,6,0,P|360:293|317:278,1,90.9999958343508,2|0,3:2|0:0,0:0:0:0:
244,92,146500,2,0,P|265:131|275:195,1,90.9999958343508,10|0,0:1|0:0,0:0:0:0:
62,283,146783,2,0,P|118:268|234:257,1,136.499993751526,8|0,0:0|0:0,0:0:0:0:
205,281,147066,6,0,L|217:339,1,56,8|0,0:2|0:0,0:0:0:0:
110,171,147208,2,0,L|98:116,1,56,8|0,0:2|0:0,0:0:0:0:
274,176,147349,6,0,P|336:225|466:218,1,181.999991668702,6|2,3:2|0:1,0:0:0:0:
500,96,147774,1,2,3:2:0:0:
338,326,147915,2,0,P|292:339|242:348,1,90.9999958343508,8|2,0:0|0:1,0:0:0:0:
65,193,148198,1,4,0:1:0:0:
216,335,148340,1,2,0:1:0:0:
216,335,148411,1,0,0:0:0:0:
216,335,148481,69,2,3:0:0:0:
268,168,148623,1,8,0:1:0:0:
110,171,148764,1,4,0:1:0:0:
275,262,148906,1,2,3:3:0:0:
252,47,149047,1,8,3:1:0:0:
115,205,149189,1,4,0:1:0:0:
340,195,149330,2,0,P|393:211|450:220,1,112,2|8,3:3|0:1,0:0:0:0:
200,39,149613,6,0,B|89:66|89:66|69:98|83:145,1,181.999991668702,4|2,3:1|0:1,0:0:0:0:
252,180,150038,1,2,3:2:0:0:
98,297,150180,2,0,P|53:289|0:270,1,90.9999958343508,8|2,0:0|0:1,0:0:0:0:
228,163,150463,1,0,3:2:0:0:
191,353,150604,1,0,0:0:0:0:
191,353,150675,1,0,0:0:0:0:
191,353,150746,69,2,3:0:0:0:
332,232,150887,1,8,0:1:0:0:
137,191,151029,1,4,0:1:0:0:
273,343,151170,1,2,3:0:0:0:
322,112,151312,1,8,3:1:0:0:
115,205,151453,1,4,0:1:0:0:
357,331,151595,2,0,P|421:350|466:360,1,112,2|8,3:0|0:1,0:0:0:0:
407,131,151878,22,0,P|276:151|221:165,1,181.999991668702,4|2,3:1|0:1,0:0:0:0:
24,162,152303,1,2,3:2:0:0:
185,269,152444,2,0,P|200:203|105:126,1,181.999991668702,8|2,0:0|3:2,0:0:0:0:
11,44,152869,1,8,0:1:0:0:
0,252,153010,6,0,P|41:246|108:216,1,90.9999958343508,2|0,3:2|0:0,0:0:0:0:
322,112,153293,2,0,P|279:95|234:88,1,90.9999958343508,2|8,0:1|0:1,0:0:0:0:
228,329,153576,2,0,P|234:291|249:241,1,90.9999958343508,8|8,0:0|0:1,0:0:0:0:
105,39,153859,2,0,P|118:82|126:127,1,90.9999958343508,2|2,0:1|0:0,0:0:0:0:
282,228,154142,6,0,B|376:199|380:261|475:210,1,181.999991668702,2|8,3:2|0:1,0:0:0:0:
435,29,154566,2,0,P|408:62|407:128,1,90.9999958343508,2|8,3:2|0:0,0:0:0:0:
492,229,154849,1,8,0:1:0:0:
292,124,154991,2,0,P|248:112|187:106,1,90.9999958343508,2|8,3:1|0:1,0:0:0:0:
13,202,155274,5,2,3:2:0:0:
129,332,155415,2,0,B|213:320|213:320|246:284|226:213,1,181.999991668702,8|2,0:0|0:0,0:0:0:0:
105,39,155840,5,8,0:0:0:0:
137,179,155981,1,8,0:0:0:0:
271,0,156123,5,8,0:0:0:0:
258,148,156264,1,8,0:0:0:0:
401,108,156406,5,4,0:1:0:0:
432,125,156972,5,4,0:1:0:0:
433,88,157538,5,4,0:1:0:0:
401,108,158104,38,0,P|403:177|421:208,1,98,8|0,0:3|0:0,0:0:0:0:
469,289,158670,6,0,B|382:316|383:249|261:291,1,181.999991668702,6|2,3:2|0:0,0:0:0:0:
96,266,159095,1,0,3:1:0:0:
191,343,159236,2,0,P|234:342|288:305,1,90.9999958343508,0|0,1:3|0:0,0:0:0:0:
20,203,159519,2,0,P|2:246|5:300,1,90.9999958343508,2|4,3:2|0:3,0:0:0:0:
182,185,159802,6,0,B|165:61|165:61|104:44,1,181.999991668702,0|2,3:3|0:0,0:0:0:0:
92,57,160368,1,0,1:2:0:0:
257,82,160510,1,4,0:3:0:0:
88,171,160651,2,0,P|36:162|-1:150,1,90.9999958343508,2|0,0:0|0:3,0:0:0:0:
159,260,160934,6,0,B|206:222|274:228|274:228|291:257|288:307,1,181.999991668702,0|2,3:2|0:0,0:0:0:0:
391,363,161359,1,0,3:0:0:0:
381,220,161500,2,0,P|370:185|364:126,1,90.9999958343508,0|0,1:0|0:0,0:0:0:0:
241,2,161783,2,0,P|228:45|224:90,1,90.9999958343508,2|4,0:0|0:3,0:0:0:0:
288,285,162066,6,0,P|376:273|472:253,1,181.999991668702,0|2,3:0|0:0,0:0:0:0:
464,228,162632,1,0,1:0:0:0:
324,161,162774,1,4,0:3:0:0:
391,363,162915,2,0,P|436:373|507:372,1,90.9999958343508,2|0,0:0|0:3,0:0:0:0:
458,194,163198,38,0,P|438:119|428:3,1,181.999991668702,2|2,3:1|0:0,0:0:0:0:
324,161,163623,1,2,3:1:0:0:
324,161,163764,2,0,P|319:208|307:273,1,90.9999958343508,0|0,1:0|0:0,0:0:0:0:
255,74,164047,2,0,L|360:48,1,90.9999958343508,6|4,0:2|0:3,0:0:0:0:
218,181,164330,6,0,P|153:148|73:175,1,136.499993751526,2|0,3:1|0:0,0:0:0:0:
68,176,164613,2,0,L|89:289,1,90.9999958343508,6|4,0:0|0:3,0:0:0:0:
223,360,164896,1,0,1:2:0:0:
306,273,165038,1,4,0:3:0:0:
202,221,165180,1,6,0:0:0:0:
321,367,165321,1,0,0:0:0:0:
321,367,165392,1,0,0:0:0:0:
321,367,165463,6,0,B|446:344|446:344|455:326|456:282,1,181.999991668702,2|2,3:1|0:0,0:0:0:0:
384,110,165887,1,2,3:1:0:0:
384,110,166029,2,0,P|368:155|368:209,1,90.9999958343508,0|4,1:0|0:3,0:0:0:0:
223,360,166312,2,0,P|220:314|205:272,1,90.9999958343508,6|0,0:0|0:0,0:0:0:0:
81,144,166595,6,0,P|147:140|240:112,1,136.499993751526,2|0,3:1|0:0,0:0:0:0:
208,92,166878,2,0,L|193:2,1,90.9999958343508,6|0,0:0|0:0,0:0:0:0:
413,95,167161,1,8,1:3:0:0:
324,161,167302,22,0,P|308:214|325:307,1,125.999996154785,4|8,0:3|0:3,0:0:0:0:
413,358,167656,1,0,0:0:0:0:
404,331,167727,6,0,B|346:321|346:321|296:348|296:348|203:330,1,181.999991668702,6|2,3:2|0:0,0:0:0:0:
75,155,168151,1,0,3:1:0:0:
50,272,168293,2,0,P|94:268|152:247,1,90.9999958343508,0|0,1:3|0:0,0:0:0:0:
230,6,168576,2,0,P|208:50|210:105,1,90.9999958343508,2|4,3:2|0:3,0:0:0:0:
315,283,168859,6,0,P|314:190|284:153,1,136.499993751526,0|0,3:3|0:0,0:0:0:0:
286,140,169142,2,0,P|337:156|385:156,1,90.9999958343508,2|4,0:0|0:3,0:0:0:0:
413,358,169425,1,0,1:2:0:0:
488,251,169566,1,4,0:3:0:0:
227,237,169708,2,0,P|181:239|138:254,1,90.9999958343508,2|0,0:0|0:3,0:0:0:0:
49,52,169991,6,0,B|15:115|60:166|60:166|105:167|129:137,1,181.999991668702,0|2,3:2|0:0,0:0:0:0:
239,36,170415,1,0,3:0:0:0:
152,166,170557,2,0,P|136:211|143:269,1,90.9999958343508,0|0,1:0|0:0,0:0:0:0:
359,249,170840,2,0,L|235:235,1,90.9999958343508,2|4,3:2|0:3,0:0:0:0:
357,130,171123,6,0,P|435:123|507:108,1,136.499993751526,0|0,3:0|0:0,0:0:0:0:
506,93,171406,2,0,L|490:-3,1,90.9999958343508,2|0,0:0|0:0,0:0:0:0:
321,127,171689,1,0,1:0:0:0:
469,227,171830,1,4,0:3:0:0:
234,61,171972,2,0,L|218:157,1,90.9999958343508,2|0,0:0|0:3,0:0:0:0:
296,340,172255,38,0,B|240:293|196:303|196:303|166:364|105:356,1,181.999991668702,2|2,3:1|0:0,0:0:0:0:
15,236,172680,1,2,3:1:0:0:
15,236,172821,2,0,P|55:254|115:262,1,90.9999958343508,0|0,1:0|0:0,0:0:0:0:
388,198,173104,2,0,P|343:205|301:224,1,90.9999958343508,6|4,0:2|0:3,0:0:0:0:
148,166,173387,6,0,P|138:105|203:66,1,136.499993751526,2|0,3:1|0:0,0:0:0:0:
234,61,173670,2,0,L|342:81,1,90.9999958343508,6|4,0:0|0:3,0:0:0:0:
512,116,173953,1,0,1:2:0:0:
384,174,174095,1,4,0:3:0:0:
428,38,174236,1,6,0:0:0:0:
469,227,174378,1,0,0:0:0:0:
469,227,174448,1,0,0:0:0:0:
469,227,174519,6,0,P|395:232|286:247,1,181.999991668702,2|2,3:1|0:0,0:0:0:0:
119,339,174944,1,2,3:1:0:0:
281,370,175085,2,0,P|284:332|267:267,1,90.9999958343508,0|4,1:0|0:3,0:0:0:0:
165,134,175368,1,6,0:0:0:0:
288,246,175510,1,0,0:0:0:0:
39,231,175651,21,2,3:1:0:0:
201,136,175793,2,0,P|290:124|389:94,1,181.999991668702,4|0,1:3|0:0,0:0:0:0:
507,211,176217,6,0,P|472:187|406:193,1,94.499997116089,4|0,1:3|0:0,0:0:0:0:
397,207,176500,70,0,L|409:280,1,56,0|0,1:2|0:0,0:0:0:0:
210,191,176642,2,0,L|200:135,1,56,0|0,1:3|0:0,0:0:0:0:
39,231,176783,21,6,3:2:0:0:
39,231,177066,2,0,P|67:241|107:247,1,48.9999985046387,2|0,0:0|0:0,0:0:0:0:
247,121,177349,2,0,P|223:126|200:135,1,48.9999985046387,2|0,3:2|0:0,0:0:0:0:
234,313,177632,2,0,P|242:264|246:197,1,97.9999970092774,2|2,0:0|3:2,0:0:0:0:
382,103,178057,5,0,0:0:0:0:
288,49,178198,2,0,P|280:84|277:116,1,48.9999985046387,2|0,0:0|0:0,0:0:0:0:
408,98,178481,2,0,P|454:91|525:72,1,97.9999970092774,2|2,3:2|0:0,0:0:0:0:
222,203,179047,6,0,L|157:189,1,48.9999985046387,2|2,3:2|0:0,0:0:0:0:
90,260,179330,2,0,L|25:274,1,48.9999985046387,2|2,0:0|0:0,0:0:0:0:
82,158,179613,2,0,P|92:111|93:50,1,97.9999970092774,2|0,3:2|0:0,0:0:0:0:
286,278,180180,6,0,L|351:264,1,48.9999985046387,2|2,3:3|0:3,0:0:0:0:
396,352,180463,2,0,L|443:362,1,48.9999985046387,2|2,0:3|0:3,0:0:0:0:
504,268,180746,5,2,3:3:0:0:
395,181,180887,1,2,0:3:0:0:
393,327,181029,5,2,0:3:0:0:
493,246,181170,1,2,0:3:0:0:
270,195,181312,5,0,3:2:0:0:
270,195,181595,2,0,P|261:231|265:261,1,48.9999985046387,2|0,0:0|0:0,0:0:0:0:
164,162,181878,2,0,L|154:101,1,48.9999985046387,2|0,3:2|0:0,0:0:0:0:
275,78,182161,2,0,P|317:97|339:102,1,48.9999985046387,2|0,0:0|0:2,0:0:0:0:
490,158,182444,6,0,P|443:166|377:188,1,97.9999970092774,2|2,3:2|0:0,0:0:0:0:
250,333,182868,1,2,0:0:0:0:
270,195,183010,1,2,3:2:0:0:
360,292,183151,1,0,0:0:0:0:
150,274,183293,2,0,P|139:320|144:363,1,73.4999977569581,2|0,0:0|0:0,0:0:0:0:
149,353,183576,5,2,3:2:0:0:
82,77,183859,1,2,0:0:0:0:
144,143,184000,1,2,0:0:0:0:
168,51,184142,2,0,L|149:-15,1,48.9999985046387,0|2,3:2|0:0,0:0:0:0:
265,38,184425,2,0,P|321:51|380:57,1,97.9999970092774,2|2,0:0|3:2,0:0:0:0:
496,164,184991,5,2,0:0:0:0:
496,164,185132,1,2,0:0:0:0:
406,206,185274,1,2,3:2:0:0:
417,109,185415,1,0,0:0:0:0:
489,255,185557,2,0,P|485:281|478:306,1,48.9999985046387,2|2,0:0|0:0,0:0:0:0:
401,354,185840,21,2,3:2:0:0:
401,354,186406,2,0,P|366:336|293:325,1,97.9999970092774,2|2,3:2|0:0,0:0:0:0:
100,342,186972,2,0,P|133:320|179:262,1,97.9999970092774,2|2,3:2|0:0,0:0:0:0:
240,103,187538,2,0,P|241:142|268:211,1,97.9999970092774,2|2,3:2|0:0,0:0:0:0:
286,208,188104,6,0,L|339:214,1,48.9999985046387,2|2,3:3|0:3,0:0:0:0:
357,70,188387,2,0,P|336:98|329:129,1,48.9999985046387,2|2,0:3|0:3,0:0:0:0:
374,286,188670,2,0,P|371:259|357:222,1,48.9999985046387,2|2,3:3|0:3,0:0:0:0:
229,55,188953,2,0,P|236:92|248:119,1,48.9999985046387,2|2,0:3|0:3,0:0:0:0:
424,184,189236,6,0,P|387:190|356:207,1,56,2|2,3:3|0:3,0:0:0:0:
172,277,189519,2,0,P|198:287|225:290,1,56,2|2,0:3|0:3,0:0:0:0:
364,238,189802,37,2,3:3:0:0:
250,119,189944,1,2,0:3:0:0:
253,251,190085,5,2,0:3:0:0:
370,197,190227,1,2,0:3:0:0:
333,77,190368,5,4,0:1:0:0:
256,192,192349,12,0,193694,0:0:0:0:
289,231,193764,70,0,P|273:310|406:281,1,262.5,0|0,0:0|0:0,0:0:0:0:
289,231,194897,6,0,B|231:260|231:260|204:100,1,210.000008010865,6|2,3:2|0:0,0:0:0:0:
88,46,195321,1,2,3:1:0:0:
325,14,195463,2,0,P|330:68|312:115,1,105.000004005432,8|2,0:0|0:1,0:0:0:0:
137,341,195746,2,0,L|115:216,1,105.000004005432,2|8,3:2|0:1,0:0:0:0:
88,46,196029,1,0,3:0:0:0:
88,46,196312,5,2,0:1:0:0:
1,190,196453,1,2,0:0:0:0:
213,176,196595,2,0,P|267:151|335:139,1,105.000004005432,8|2,0:0|0:0,0:0:0:0:
186,358,196878,2,0,P|107:352|42:269,1,157.500006008148,2|0,0:1|0:0,0:0:0:0:
38,282,197161,6,0,P|12:332|18:391,1,105.000004005432,0|0,3:0|0:0,0:0:0:0:
135,153,197444,2,0,P|130:109|112:45,1,105.000004005432,2|2,0:1|3:2,0:0:0:0:
289,231,197727,2,0,P|344:291|474:260,1,210.000008010865,10|2,0:2|3:1,0:0:0:0:
461,272,198293,6,0,P|442:326|445:379,1,105.000004005432,2|2,3:1|0:0,0:0:0:0:
388,175,198576,2,0,B|403:92|336:44|336:44|261:98,1,210.000008010865,10|8,0:1|0:0,0:0:0:0:
125,212,199000,2,0,B|110:295|177:343|177:343|252:289,1,210.000008010865,10|0,0:1|0:0,0:0:0:0:
244,150,199425,38,0,P|195:141|132:127,1,105.000004005432,0|0,3:0|0:0,0:0:0:0:
358,292,199708,2,0,P|409:280|460:271,1,105.000004005432,2|2,0:1|3:2,0:0:0:0:
464,55,199991,2,0,B|373:44|350:127|350:127|397:187,1,210.000008010865,8|2,0:0|3:1,0:0:0:0:
430,356,200415,1,8,0:1:0:0:
264,365,200557,6,0,P|261:308|232:262,1,105.000004005432,2|2,3:2|0:0,0:0:0:0:
82,59,200840,2,0,P|56:104|55:156,1,105.000004005432,10|2,0:1|0:1,0:0:0:0:
176,340,201123,1,10,0:0:0:0:
366,203,201264,1,0,0:1:0:0:
103,252,201406,2,0,P|51:246|-11:233,1,105.000004005432,8|2,0:1|0:0,0:0:0:0:
244,150,201689,6,0,B|349:123|349:123|371:150|381:192,1,157.500006008148,2|0,3:3|0:0,0:0:0:0:
366,203,201972,2,0,L|347:335,1,105.000004005432,2|2,0:1|3:2,0:0:0:0:
147,246,202255,6,0,P|117:177|126:91,1,157.500006008148,10|0,0:0|0:0,0:0:0:0:
141,88,202538,2,0,L|37:57,1,105.000004005432,2|8,3:1|0:1,0:0:0:0:
230,7,202821,38,0,P|265:76|243:150,1,157.500006008148,2|0,3:1|0:0,0:0:0:0:
189,272,203104,2,0,B|147:245|147:245|293:221,1,188.999994232178,2|0,3:1|0:0,0:0:0:0:
395,265,203387,70,0,L|384:308,1,35,8|0,0:0|0:0,0:0:0:0:
387,299,203670,70,0,P|379:276|374:232,1,62.9999980773926,8|0,0:0|0:0,0:0:0:0:
433,141,203812,2,0,P|441:118|446:74,1,62.9999980773926,8|0,0:0|0:0,0:0:0:0:
311,27,203953,22,0,P|247:98|127:77,1,210.000008010865,6|2,3:2|0:0,0:0:0:0:
44,176,204378,1,2,3:1:0:0:
263,223,204519,2,0,P|306:209|366:202,1,105.000004005432,8|8,0:0|0:1,0:0:0:0:
172,370,204802,2,0,P|158:325|145:247,1,105.000004005432,2|8,3:2|0:1,0:0:0:0:
207,15,205085,5,0,3:0:0:0:
207,15,205368,2,0,P|206:90|196:174,1,157.500006008148,8|0,0:1|0:0,0:0:0:0:
181,180,205651,1,8,0:0:0:0:
114,58,205793,1,2,0:0:0:0:
293,95,205934,1,2,0:1:0:0:
44,176,206076,1,8,0:1:0:0:
44,176,206147,1,0,0:0:0:0:
44,176,206217,6,0,B|74:320|74:320|139:328,1,210.000008010865,0|2,3:0|0:1,0:0:0:0:
401,244,206642,1,2,3:2:0:0:
285,329,206783,2,0,P|271:285|270:217,1,105.000004005432,10|8,0:2|0:1,0:0:0:0:
322,41,207066,2,0,P|277:60|218:74,1,105.000004005432,2|8,3:1|0:1,0:0:0:0:
106,31,207349,5,2,3:1:0:0:
387,151,207491,1,10,0:0:0:0:
194,215,207632,2,0,B|163:210|133:190|133:190|94:268|135:327,1,210.000008010865,0|8,0:0|0:0,0:0:0:0:
387,151,208057,2,0,B|428:92|389:14|389:14|356:36|313:41,1,210.000008010865,8|10,0:1|0:1,0:0:0:0:
290,182,208481,38,0,L|312:287,1,105.000004005432,0|2,3:0|0:0,0:0:0:0:
322,69,208764,2,0,L|205:94,1,105.000004005432,2|2,0:1|3:2,0:0:0:0:
7,263,209047,2,0,B|36:262|77:246|77:246|102:279|102:279|146:255|196:254,1,210.000008010865,8|2,0:0|3:1,0:0:0:0:
400,256,209472,1,8,0:1:0:0:
185,382,209614,6,0,P|187:337|206:280,1,105.000004005432,2|0,3:2|0:0,0:0:0:0:
411,382,209897,2,0,P|371:366|300:351,1,105.000004005432,8|2,0:1|0:1,0:0:0:0:
199,174,210180,1,10,0:0:0:0:
285,350,210321,1,0,0:1:0:0:
412,232,210463,2,0,P|463:221|512:202,1,105.000004005432,10|2,0:1|0:0,0:0:0:0:
199,174,210746,6,0,P|101:176|23:100,1,210.000008010865,2|2,3:3|0:1,0:0:0:0:
269,51,211170,1,2,3:2:0:0:
286,348,211312,22,0,P|299:255|368:210,1,157.500006008148,14|0,0:0|0:0,0:0:0:0:
380,217,211595,2,0,L|470:227,1,77.0000023498536,2|8,3:1|0:1,0:0:0:0:
512,99,211878,5,10,3:2:0:0:
448,254,212019,1,8,0:2:0:0:
353,75,212161,1,10,3:2:0:0:
466,191,212302,1,10,0:2:0:0:
247,269,212444,70,0,P|237:247|231:215,1,52.5000020027161,8|0,0:0|0:0,0:0:0:0:
353,75,212585,2,0,L|340:145,1,52.5000020027161,8|0,0:0|0:0,0:0:0:0:
176,132,212727,2,0,P|207:119|246:116,1,52.5000020027161,8|0,3:0|0:0,0:0:0:0:
381,218,212868,2,0,L|316:204,1,52.5000020027161,8|0,3:0|0:0,0:0:0:0:
99,60,213010,6,0,P|94:196|139:240,1,181.999991668702,4|2,3:2|0:1,0:0:0:0:
334,303,213434,1,2,3:2:0:0:
116,263,213576,2,0,P|75:246|1:243,1,90.9999958343508,8|2,0:0|0:1,0:0:0:0:
309,203,213859,1,4,3:1:0:0:
173,361,214000,1,2,0:1:0:0:
173,361,214071,1,0,0:0:0:0:
173,361,214142,69,2,3:3:0:0:
174,153,214283,1,8,0:1:0:0:
300,310,214425,1,4,0:1:0:0:
116,263,214566,1,2,3:3:0:0:
335,177,214708,1,8,3:1:0:0:
270,329,214849,1,4,0:1:0:0:
77,169,214991,2,0,L|100:54,1,112,2|8,3:3|0:1,0:0:0:0:
243,255,215274,6,0,P|286:318|408:328,1,181.999991668702,4|2,3:1|0:1,0:0:0:0:
504,202,215698,1,2,3:2:0:0:
346,235,215840,2,0,P|336:198|323:134,1,90.9999958343508,10|2,0:0|0:1,0:0:0:0:
482,204,216123,1,4,3:1:0:0:
234,140,216264,1,0,0:0:0:0:
234,140,216335,1,0,0:0:0:0:
234,140,216406,69,2,3:3:0:0:
375,42,216547,1,8,0:1:0:0:
407,277,216689,1,4,0:1:0:0:
325,146,216830,1,2,3:3:0:0:
510,89,216972,1,8,3:1:0:0:
338,294,217114,1,4,0:1:0:0:
414,155,217255,2,0,L|531:133,1,112,2|8,3:3|0:1,0:0:0:0:
300,319,217538,22,0,P|252:258|119:268,1,181.999991668702,4|2,3:1|0:0,0:0:0:0:
51,161,217963,1,2,3:1:0:0:
111,369,218104,2,0,P|169:359|206:322,1,90.9999958343508,8|0,0:0|0:0,0:0:0:0:
435,250,218387,2,0,L|333:232,1,90.9999958343508,2|8,3:2|0:1,0:0:0:0:
222,26,218670,6,0,P|186:70|199:200,1,181.999991668702,2|2,3:2|0:1,0:0:0:0:
297,320,219095,1,8,0:1:0:0:
124,271,219236,2,0,L|32:257,1,90.9999958343508,8|8,0:0|0:1,0:0:0:0:
291,132,219519,2,0,L|383:118,1,90.9999958343508,2|2,0:1|0:1,0:0:0:0:
351,252,219802,6,0,P|337:301|332:351,1,90.9999958343508,6|8,3:1|0:1,0:0:0:0:
191,189,220085,2,0,P|175:129|196:88,1,90.9999958343508,2|8,0:1|3:1,0:0:0:0:
322,34,220368,1,8,0:0:0:0:
257,271,220510,2,0,P|212:284|132:295,1,90.9999958343508,10|2,0:1|3:2,0:0:0:0:
70,161,220793,1,8,0:1:0:0:
343,152,220934,6,0,P|440:161|514:171,1,136.499993751526,2|0,3:2|0:0,0:0:0:0:
408,48,221217,2,0,P|340:56|272:61,1,136.499993751526,10|0,0:1|0:0,0:0:0:0:
173,48,221500,6,0,P|179:77|184:105,1,56,8|0,0:0|0:0,0:0:0:0:
125,234,221642,2,0,P|148:220|194:217,1,56,10|0,0:2|0:0,0:0:0:0:
73,130,221783,2,0,P|45:125|18:116,1,56,8|0,0:3|0:0,0:0:0:0:
267,199,221925,2,0,P|266:223|258:254,1,56,8|0,0:3|0:0,0:0:0:0:
112,346,222066,6,0,P|191:304|326:303,1,224,6|2,3:2|0:1,0:0:0:0:
500,352,222491,1,2,3:2:0:0:
381,196,222632,2,0,P|319:191|273:163,1,112,8|2,0:0|0:1,0:0:0:0:
205,19,222915,1,4,0:1:0:0:
359,92,223057,1,2,0:1:0:0:
359,92,223128,1,0,0:0:0:0:
359,92,223198,69,2,3:0:0:0:
257,271,223340,1,8,0:1:0:0:
146,119,223481,1,4,0:1:0:0:
381,196,223623,1,2,3:3:0:0:
187,229,223764,1,8,3:1:0:0:
255,47,223906,1,4,0:1:0:0:
397,295,224047,2,0,L|279:279,1,112,2|8,3:3|0:1,0:0:0:0:
102,333,224330,6,0,P|49:259|73:169,1,181.999991668702,4|2,3:1|0:1,0:0:0:0:
237,36,224755,1,2,3:2:0:0:
257,271,224897,2,0,L|236:367,1,90.9999958343508,8|2,0:0|0:1,0:0:0:0:
379,175,225180,1,0,3:2:0:0:
170,147,225321,1,0,0:0:0:0:
170,147,225392,1,0,0:0:0:0:
170,147,225463,69,2,3:0:0:0:
287,248,225604,1,8,0:1:0:0:
317,36,225746,1,4,0:1:0:0:
88,170,225887,1,2,3:0:0:0:
289,148,226029,1,8,3:1:0:0:
124,32,226170,1,4,0:1:0:0:
5,190,226312,2,0,P|13:253|26:301,1,112,2|8,3:0|0:1,0:0:0:0:
286,290,226595,22,0,B|324:237|398:251|398:251|429:328,1,181.999991668702,6|2,3:2|0:1,0:0:0:0:
488,161,227020,1,2,3:2:0:0:
265,181,227161,2,0,P|212:227|92:220,1,181.999991668702,8|6,0:0|0:1,0:0:0:0:
165,120,227585,1,0,0:0:0:0:
77,247,227727,6,0,P|84:291|98:335,1,90.9999958343508,2|0,3:2|0:0,0:0:0:0:
289,148,228010,2,0,P|296:103|298:57,1,90.9999958343508,2|8,0:1|0:1,0:0:0:0:
74,129,228293,2,0,L|165:119,1,90.9999958343508,8|8,0:0|0:1,0:0:0:0:
345,267,228576,2,0,P|310:258|253:254,1,90.9999958343508,2|2,0:1|0:0,0:0:0:0:
404,364,228859,6,0,P|444:320|430:203,1,181.999991668702,2|8,3:2|0:1,0:0:0:0:
262,159,229284,1,2,3:2:0:0:
404,104,229425,2,0,P|452:93|525:75,1,90.9999958343508,8|8,0:0|0:1,0:0:0:0:
242,271,229708,2,0,P|193:260|121:242,1,90.9999958343508,2|8,3:1|0:1,0:0:0:0:
28,112,229991,37,10,3:2:0:0:
184,128,230132,1,10,0:2:0:0:
113,272,230274,1,10,0:2:0:0:
125,54,230415,1,10,0:2:0:0:
242,271,230557,69,10,3:2:0:0:
64,148,230698,1,10,0:2:0:0:
337,96,230840,1,10,0:2:0:0:
230,325,230981,1,10,0:2:0:0:
184,128,231123,22,0,P|169:67|201:23,1,112,6|2,3:2|0:0,0:0:0:0:
325,42,231547,2,0,L|342:117,1,56,2|0,0:0|3:0,0:0:0:0:
230,325,231830,2,0,L|242:270,1,56,2|0,0:0|0:0,0:0:0:0:
364,190,232113,6,0,B|301:207|293:158|215:179,1,140,2|0,0:0|0:0,0:0:0:0:
104,232,232538,2,0,L|169:241,1,56,2|0,0:0|0:0,0:0:0:0:
225,88,232821,2,0,P|215:122|210:161,1,56,2|0,3:2|0:0,0:0:0:0:
340,350,233104,2,0,P|334:322|326:295,1,56,2|0,0:0|0:0,0:0:0:0:
364,190,233387,6,0,P|401:232|471:227,1,112,2|0,0:0|0:0,0:0:0:0:
408,123,233812,2,0,P|351:137|292:149,1,112,2|2,0:0|0:0,0:0:0:0:
298,147,234378,6,0,P|266:140|222:137,1,56,2|0,0:0|0:0,0:0:0:0:
195,236,234661,2,0,P|163:242|119:246,1,56,2|0,0:0|0:0,0:0:0:0:
63,146,234944,2,0,P|44:94|93:40,1,112,2|0,0:0|0:0,0:0:0:0:
214,118,235368,6,0,P|209:172|199:240,1,105,2|0,0:0|0:0,0:0:0:0:
195,236,235651,5,4,3:2:0:0:
