osu file format v14

[General]
AudioFilename: audio.mp3
AudioLeadIn: 0
PreviewTime: 32348
Countdown: 0
SampleSet: Soft
StackLeniency: 0.4
Mode: 0
LetterboxInBreaks: 0
WidescreenStoryboard: 1

[Editor]
Bookmarks: 393,8598,25008,33213,49623,52444,66034,68085,84495
DistanceSpacing: 1.2
BeatDivisor: 4
GridSize: 8
TimelineZoom: 1.4

[Metadata]
Title:gravityWall
TitleUnicode:gravityWall
Artist:SawanoHiroyuki[nZk]: Tielle & Gemie
ArtistUnicode:SawanoHiroyuki[nZk]: Tielle & Gemie
Creator:Shogud
Version:Hard
Source:Re:CREATORS
Tags:anime op opening short ver version tv size re creators recreators gravity wall
BeatmapID:1313969
BeatmapSetID:622538

[Difficulty]
HPDrainRate:5.8
CircleSize:3.8
OverallDifficulty:6.4
ApproachRate:7.9
SliderMultiplier:1.6
SliderTickRate:1

[Events]
//Background and Video events
0,0,"background.jpg",0,0
Video,-150,"op.mp4"
//Break Periods
2,25240,31186
2,66009,67353
//Storyboard Layer 0 (Background)
//Storyboard Layer 1 (Fail)
//Storyboard Layer 2 (Pass)
//Storyboard Layer 3 (Foreground)
//Storyboard Sound Samples

[TimingPoints]
425,512.820512820513,4,2,1,50,1,0
425,-100,4,2,1,50,0,0
8630,-100,4,2,1,50,0,0
24655,-100,4,2,0,50,0,0
24912,-100,4,2,1,50,0,0
25040,-100,4,2,1,30,0,0
31194,-100,4,2,1,30,0,0
32476,-76.9230769230769,4,2,1,70,0,0
32732,-76.9230769230769,4,2,1,70,0,0
32989,-76.9230769230769,4,2,1,70,0,0
33213,-76.9230769230769,4,2,1,80,0,0
66066,-100,4,2,1,30,0,0
68117,-76.9230769230769,4,2,1,80,0,1
84399,-76.9230769230769,4,2,1,80,0,0

[Colours]
Combo1 : 128,64,64
Combo2 : 0,128,0
Combo3 : 0,64,128
Combo4 : 128,128,128
Combo5 : 255,0,0

[HitObjects]
176,88,425,6,0,L|239:99,1,40,4|0,0:0|0:0,0:0:0:0:
303,88,681,2,0,P|307:127|331:158,2,80,2|10|2,0:0|0:0|0:0,0:0:0:0:
402,206,1450,2,0,P|416:169|409:130,1,80,2|0,0:0|0:0,0:0:0:0:
331,158,1835,2,0,P|272:159|233:126,1,80,10|0,0:0|0:0,0:0:0:0:
213,221,2219,2,0,L|197:307,1,80,2|0,0:0|0:0,0:0:0:0:
117,128,2732,6,0,L|125:80,1,40,2|0,0:0|0:0,0:0:0:0:
177,21,2989,2,0,L|214:51,1,40,10|0,0:0|0:0,0:0:0:0:
200,140,3245,2,0,L|237:125,1,40,2|0,0:0|0:0,0:0:0:0:
314,104,3501,2,0,P|314:160|286:199,1,80,2|0,0:0|0:0,0:0:0:0:
367,231,3886,2,0,P|318:259|270:254,1,80,10|0,0:0|0:0,0:0:0:0:
281,341,4271,2,0,P|232:313|212:269,1,80,2|0,0:0|0:0,0:0:0:0:
264,104,4783,6,0,L|342:117,2,80,2|10|2,0:0|0:0|0:0,0:0:0:0:
144,112,5553,2,0,L|125:214,1,80,2|0,0:0|0:0,0:0:0:0:
230,255,5937,2,0,L|211:152,1,80,10|0,0:0|0:0,0:0:0:0:
318,115,6322,2,0,L|299:218,1,80,2|0,0:0|0:0,0:0:0:0:
444,269,6835,38,0,B|420:293|420:293|372:293,1,80,2|8,0:0|0:0,0:0:0:0:
303,193,7219,2,0,B|326:216|326:216|374:216,1,80,2|0,0:0|0:0,0:0:0:0:
403,60,7604,2,0,L|389:138,1,80,2|0,0:0|0:0,0:0:0:0:
476,114,7989,2,0,L|462:192,1,80,10|0,0:0|0:0,0:0:0:0:
373,216,8373,2,0,L|363:268,1,40,2|0,0:0|0:0,0:0:0:0:
224,232,8630,5,4,0:0:0:0:
120,72,8886,2,0,L|175:81,1,40,2|0,0:0|0:0,0:0:0:0:
238,116,9142,2,0,P|198:156|145:156,1,80,10|0,0:0|0:0,0:0:0:0:
96,200,9527,1,2,0:0:0:0:
96,200,9655,2,0,L|96:272,1,40,2|0,0:0|0:0,0:0:0:0:
176,256,9912,2,0,L|195:308,1,40,2|0,0:0|0:0,0:0:0:0:
272,272,10168,1,10,0:0:0:0:
272,272,10296,2,0,L|333:345,1,80,2|0,0:0|0:0,0:0:0:0:
408,312,10681,5,0,0:0:0:0:
440,177,10937,2,0,L|384:177,1,40,2|0,0:0|0:0,0:0:0:0:
367,93,11194,1,10,0:0:0:0:
367,93,11322,2,0,L|415:93,1,40,2|0,0:0|0:0,0:0:0:0:
440,8,11578,2,0,L|400:8,1,40,2|0,0:0|0:0,0:0:0:0:
320,16,11835,1,2,0:0:0:0:
320,16,11963,2,0,B|288:16|288:16|240:32|240:32,1,80,2|8,0:0|0:0,0:0:0:0:
168,80,12348,2,0,L|159:32,2,40
112,184,12732,37,4,0:0:0:0:
112,184,12860,2,0,P|107:208|112:240,1,40,2|0,0:0|0:0,0:0:0:0:
127,305,13117,2,0,P|146:299|163:289,1,40,2|8,0:0|0:0,0:0:0:0:
226,229,13373,2,0,P|211:215|194:205,1,40,2|0,0:0|0:0,0:0:0:0:
208,120,13630,1,2,0:0:0:0:
208,120,13758,2,0,L|255:128,1,40,2|0,0:0|0:0,0:0:0:0:
310,186,14014,2,0,L|319:241,1,40,2|0,0:0|0:0,0:0:0:0:
408,238,14271,1,10,0:0:0:0:
408,238,14399,2,0,L|394:159,1,80,2|0,0:0|0:0,0:0:0:0:
430,79,14783,6,0,P|390:71|351:82,1,80,2|2,0:0|0:0,0:0:0:0:
264,90,15168,2,0,P|277:128|306:156,1,80,10|2,0:0|0:0,0:0:0:0:
358,227,15553,2,0,P|384:196|394:157,1,80,2|2,0:0|0:0,0:0:0:0:
487,135,15937,2,0,L|466:253,1,120,2|8,0:0|0:0,0:0:0:0:
416,328,16450,2,0,L|471:337,2,40
272,336,16835,5,4,0:0:0:0:
220,190,17091,2,0,P|197:204|177:225,1,40,2|0,0:0|0:0,0:0:0:0:
196,296,17348,2,0,P|160:340|127:350,1,80,10|0,0:0|0:0,0:0:0:0:
120,264,17732,1,2,0:0:0:0:
120,264,17860,2,0,L|72:255,1,40,2|0,0:0|0:0,0:0:0:0:
73,171,18117,2,0,L|128:180,1,40,2|0,0:0|0:0,0:0:0:0:
144,96,18373,1,10,0:0:0:0:
144,96,18501,2,0,L|57:80,1,80,2|0,0:0|0:0,0:0:0:0:
80,0,18886,38,0,B|135:10|135:10|190:8|190:8|246:38,1,160,2|10,0:0|0:0,0:0:0:0:
328,80,19655,2,0,P|328:144|304:104,1,160,2|2,0:0|0:0,0:0:0:0:
273,210,20296,1,0,0:0:0:0:
273,210,20425,2,0,P|234:171|223:128,1,80,10|0,0:0|0:0,0:0:0:0:
112,80,20937,5,4,0:0:0:0:
8,152,21194,2,0,L|16:199,1,40,2|0,0:0|0:0,0:0:0:0:
80,240,21450,2,0,L|88:287,1,40,10|0,0:0|0:0,0:0:0:0:
168,256,21707,2,0,L|179:192,1,40,2|0,0:0|0:0,0:0:0:0:
259,208,21963,2,0,L|274:121,1,80,2|2,0:0|0:0,0:0:0:0:
336,304,22476,5,10,0:0:0:0:
336,304,22604,2,0,L|349:382,1,80,2|0,0:0|0:0,0:0:0:0:
434,346,22989,2,0,B|424:290|424:290|434:256|434:256|426:209,1,120,2|0,0:0|0:0,0:0:0:0:
414,146,23501,2,0,L|350:134,1,40,10|0,0:0|0:0,0:0:0:0:
290,108,23758,2,0,L|331:58,1,40,2|0,0:0|0:0,0:0:0:0:
384,19,24014,2,0,L|405:78,1,40,2|0,0:0|0:0,0:0:0:0:
374,139,24271,38,0,P|230:170|206:90,1,240,2|0,0:0|0:0,0:0:0:0:
256,80,32476,70,0,L|256:152,1,51.999997619629,2|0,0:0|0:0,0:0:0:0:
189,240,32732,2,0,B|181:224|181:224|173:184,1,51.999997619629,2|0,0:0|0:0,0:0:0:0:
338,193,32989,2,0,B|332:227|332:227|324:243,1,51.999997619629,2|0,0:0|0:0,0:0:0:0:
256,183,33245,6,0,L|255:78,2,103.999995239258,6|2|10,0:0|0:0|0:0,0:0:0:0:
173,54,34014,2,0,L|172:118,1,51.999997619629,2|0,0:0|0:0,0:0:0:0:
100,158,34271,1,0,0:0:0:0:
267,223,34527,2,0,P|212:186|146:215,1,103.999995239258,2|8,0:0|0:0,0:0:0:0:
144,281,34912,1,2,0:0:0:0:
144,281,35040,2,0,L|199:270,1,51.999997619629,2|0,0:0|0:0,0:0:0:0:
267,223,35296,6,0,B|292:254|292:254|308:335,2,103.999995239258,6|2|2,0:0|0:0|0:0,0:0:0:0:
208,133,36066,2,0,L|263:142,1,51.999997619629,2|0,0:0|0:0,0:0:0:0:
328,91,36322,1,0,0:0:0:0:
438,178,36578,1,2,0:0:0:0:
438,178,36707,1,0,0:0:0:0:
438,178,36835,2,0,B|403:188|403:188|301:170,1,103.999995239258,10|2,0:0|0:0,0:0:0:0:
328,91,37348,38,0,B|288:84|288:84|176:121,1,155.999992858887,6|0,0:0|0:0,0:0:0:0:
254,183,37860,2,0,B|147:219|147:219|116:250,1,155.999992858887,10|0,0:0|0:0,0:0:0:0:
193,292,38373,2,0,L|300:255,2,103.999995239258,2|2|10,0:0|0:0|0:0,0:0:0:0:
37,305,39142,2,0,B|84:335|84:335|131:348,1,103.999995239258,2|4,0:0|0:0,0:0:0:0:
109,209,39655,6,0,L|120:272,1,51.999997619629,2|0,0:0|0:0,0:0:0:0:
160,134,39912,2,0,L|99:112,1,51.999997619629,10|0,0:0|0:0,0:0:0:0:
198,216,40168,2,0,L|246:174,1,51.999997619629,2|0,0:0|0:0,0:0:0:0:
305,120,40425,1,0,0:0:0:0:
408,256,40681,6,0,P|416:288|408:320,1,51.999997619629,2|0,0:0|0:0,0:0:0:0:
331,289,40937,2,0,P|299:279|275:257,1,51.999997619629,10|0,0:0|0:0,0:0:0:0:
343,204,41194,2,0,P|366:181|398:172,1,51.999997619629,2|0,0:0|0:0,0:0:0:0:
460,39,41450,38,0,P|422:83|380:93,2,103.999995239258,6|2|10,0:0|0:0|0:0,0:0:0:0:
381,8,42219,2,0,L|310:20,1,51.999997619629,2|0,0:0|0:0,0:0:0:0:
247,33,42476,1,0,0:0:0:0:
185,165,42732,2,0,L|166:62,1,103.999995239258,2|8,0:0|0:0,0:0:0:0:
92,108,43117,1,2,2:0:0:0:
92,108,43245,2,0,L|101:159,1,51.999997619629,2|0,0:0|2:0,2:0:0:0:
166,62,43501,6,0,P|127:28|76:24,2,103.999995239258,6|2|10,0:0|0:0|0:0,0:0:0:0:
16,144,44271,2,0,L|25:199,1,51.999997619629,2|0,0:0|0:0,0:0:0:0:
96,242,44527,2,0,B|198:223,1,103.999995239258
341,74,45040,2,0,B|312:149|312:149|316:173,1,103.999995239258,10|2,0:0|0:0,0:0:0:0:
418,274,45553,6,0,B|397:159|397:159|410:121,1,155.999992858887,6|0,0:0|0:0,0:0:0:0:
316,173,46066,2,0,B|335:283|335:283|295:331,1,155.999992858887,10|0,0:0|0:0,0:0:0:0:
248,259,46578,2,0,P|223:308|244:371,2,103.999995239258,2|2|10,0:0|0:0|0:0,0:0:0:0:
144,356,47348,2,0,P|153:252|216:186,1,155.999992858887,6|0,0:0|0:0,0:0:0:0:
212,41,47860,38,0,L|178:80,1,51.999997619629,2|0,0:0|0:0,0:0:0:0:
181,211,48117,2,0,L|162:162,1,51.999997619629,10|0,0:0|0:0,0:0:0:0:
51,101,48373,2,0,L|102:109,1,51.999997619629,2|0,0:0|0:0,0:0:0:0:
240,134,48630,2,0,L|350:153,1,103.999995239258
336,331,49142,2,0,P|338:299|345:276,1,51.999997619629,10|0,0:0|0:0,0:0:0:0:
430,268,49399,2,0,P|426:297|419:321,1,51.999997619629,2|0,0:0|0:0,0:0:0:0:
256,285,49655,6,0,L|282:135,2,103.999995239258,6|2|10,0:0|0:0|0:0,0:0:0:0:
166,319,50425,2,2,L|202:114,1,207.999990478516,6|2,0:0|0:0,0:0:0:0:
296,18,51194,1,10,0:0:0:0:
352,136,51450,6,0,L|139:173,1,207.999990478516,6|0,0:0|0:0,0:0:0:0:
220,283,52219,1,8,0:0:0:0:
89,305,52476,2,0,L|51:92,1,207.999990478516,6|0,0:0|0:0,0:0:0:0:
163,72,53245,1,10,0:0:0:0:
240,144,53501,1,2,0:0:0:0:
344,48,53758,38,0,B|354:82|354:82|323:255,1,207.999990478516,6|10,0:0|0:0,0:0:0:0:
434,239,54527,2,0,L|213:200,1,207.999990478516,6|2,0:0|0:0,0:0:0:0:
187,331,55296,1,10,0:0:0:0:
74,222,55553,6,0,P|57:270|74:326,1,103.999995239258,6|0,0:0|0:0,0:0:0:0:
153,184,56066,2,0,P|119:146|62:131,1,103.999995239258,2|8,0:0|0:0,0:0:0:0:
146,272,56578,2,0,P|195:261|238:157,1,155.999992858887,6|0,0:0|0:0,0:0:0:0:
176,88,57091,2,0,B|187:81|187:81|240:88,1,51.999997619629,2|0,0:0|0:0,0:0:0:0:
336,72,57348,2,0,B|335:85|335:85|304:127,1,51.999997619629,10|0,0:0|0:0,0:0:0:0:
269,218,57604,2,0,B|257:210|257:210|237:162,1,51.999997619629,2|0,0:0|0:0,0:0:0:0:
336,72,57860,6,0,P|371:132|343:198,2,103.999995239258,6|2|10,0:0|0:0|0:0,0:0:0:0:
285,141,58630,2,0,B|245:155|245:155|77:133,1,207.999990478516,6|2,0:0|0:0,0:0:0:0:
32,24,59399,1,10,0:0:0:0:
152,80,59655,38,0,L|189:292,1,207.999990478516,6|0,0:0|0:0,0:0:0:0:
256,184,60425,1,8,0:0:0:0:
323,284,60681,2,0,L|360:80,1,207.999990478516,6|2,0:0|0:0,0:0:0:0:
297,18,61450,2,0,P|353:-6|401:2,1,103.999995239258,10|2,0:0|0:0,0:0:0:0:
271,94,61963,6,0,L|234:298,1,207.999990478516,6|10,0:0|0:0,0:0:0:0:
290,369,62732,2,0,B|314:344|314:344|344:173,1,207.999990478516,6|2,0:0|0:0,0:0:0:0:
348,57,63501,1,10,0:0:0:0:
248,120,63758,6,0,L|114:96,1,103.999995239258,6|0,0:0|0:0,0:0:0:0:
224,280,64271,2,0,L|311:175,1,103.999995239258,2|8,0:0|0:0,0:0:0:0:
97,179,64783,2,0,L|143:306,1,103.999995239258,6|0,0:0|0:0,0:0:0:0:
190,191,65168,2,0,B|200:160|200:160|200:88,1,103.999995239258,2|0,0:0|0:0,0:0:0:0:
118,47,65553,2,0,L|118:103,1,51.999997619629,10|0,0:0|0:0,0:0:0:0:
277,51,65809,1,2,0:0:0:0:
352,144,68117,22,0,B|370:179|370:179|346:313,1,155.999992858887,6|0,0:0|0:0,0:0:0:0:
277,344,68630,2,0,B|258:309|258:309|279:195,1,155.999992858887,10|0,0:0|0:0,0:0:0:0:
187,218,69142,2,0,L|168:320,2,103.999995239258,2|2|10,0:0|0:0|0:0,0:0:0:0:
182,92,69912,54,0,L|394:129,1,207.999990478516,6|0,0:0|0:0,0:0:0:0:
468,148,70681,1,8,0:0:0:0:
413,217,70937,2,0,L|356:207,1,51.999997619629,2|0,0:0|0:0,0:0:0:0:
336,120,71194,2,0,L|391:129,1,51.999997619629,2|0,0:0|0:0,0:0:0:0:
260,146,71450,2,0,P|255:120|260:90,1,51.999997619629,2|0,0:0|0:0,0:0:0:0:
466,96,71707,2,0,P|471:122|466:152,1,51.999997619629,10|0,0:0|0:0,0:0:0:0:
416,248,71963,6,0,B|367:267|367:267|208:248,1,207.999990478516,6|0,0:0|0:0,0:0:0:0:
136,176,72732,1,8,0:0:0:0:
235,123,72989,2,0,L|290:113,1,51.999997619629,2|0,0:0|0:0,0:0:0:0:
186,54,73245,2,0,P|166:71|154:94,1,51.999997619629,2|0,0:0|0:0,0:0:0:0:
233,209,73501,2,0,L|290:198,1,51.999997619629,2|0,0:0|0:0,0:0:0:0:
318,22,73758,2,0,L|267:31,1,51.999997619629,10|0,0:0|0:0,0:0:0:0:
120,64,74014,54,0,L|156:268,1,207.999990478516,6|2,0:0|0:0,0:0:0:0:
233,209,74783,1,10,0:0:0:0:
307,282,75040,2,0,L|327:169,1,103.999995239258,6|0,0:0|0:0,0:0:0:0:
175,62,75553,2,0,L|262:135,1,103.999995239258,6|8,0:0|0:0,0:0:0:0:
325,179,76066,1,8,0:0:0:0:
456,174,76322,6,0,P|405:211|325:179,1,155.999992858887,6|0,0:0|0:0,0:0:0:0:
258,127,76835,2,0,P|309:90|389:122,1,155.999992858887,10|0,0:0|0:0,0:0:0:0:
325,179,77348,2,0,L|306:281,2,103.999995239258,2|2|10,0:0|0:0|0:0,0:0:0:0:
187,285,78117,54,0,B|214:265|214:265|396:297,1,207.999990478516,6|0,0:0|0:0,0:0:0:0:
396,142,78886,1,8,0:0:0:0:
324,76,79142,2,0,L|310:154,1,51.999997619629,2|0,0:0|0:0,0:0:0:0:
346,279,79399,2,0,B|375:265|375:265|396:143,1,155.999992858887,2|0,0:0|0:0,0:0:0:0:
249,216,79912,2,0,L|301:207,1,51.999997619629,10|0,0:0|0:0,0:0:0:0:
122,86,80168,6,0,P|101:159|156:255,1,155.999992858887,6|0,0:0|0:0,0:0:0:0:
199,296,80681,2,0,L|262:307,1,51.999997619629,2|0,0:0|0:0,0:0:0:0:
301,207,80937,2,0,L|249:216,1,51.999997619629,10|0,0:0|0:0,0:0:0:0:
383,231,81194,54,0,P|410:159|390:86,1,155.999992858887,6|0,0:0|0:0,0:0:0:0:
234,49,81707,2,0,L|223:112,1,51.999997619629,2|0,0:0|0:0,0:0:0:0:
301,207,81963,2,0,L|292:155,1,51.999997619629,10|0,0:0|0:0,0:0:0:0:
246,327,82219,6,0,P|258:352|282:288,1,155.999992858887,6|0,0:0|0:0,0:0:0:0:
118,249,82732,2,0,P|110:281|118:313,1,51.999997619629
232,203,82989,2,0,P|240:171|232:139,1,51.999997619629,8|0,0:0|0:0,0:0:0:0:
197,282,83245,2,0,P|229:290|261:282,1,51.999997619629
154,171,83501,2,0,P|114:163|42:219,1,103.999995239258,0|8,0:0|0:0,0:0:0:0:
110,297,84014,1,8,0:0:0:0:
112,281,84142,1,0,0:0:0:0:
115,265,84271,1,0,0:0:0:0:
118,249,84399,1,8,0:0:0:0:
