osu file format v14

[General]
AudioFilename: audio.mp3
AudioLeadIn: 0
PreviewTime: 32348
Countdown: 0
SampleSet: Soft
StackLeniency: 0.5
Mode: 0
LetterboxInBreaks: 0
WidescreenStoryboard: 1

[Editor]
Bookmarks: 393,8598,25008,33213,49623,66034,68085,84495
DistanceSpacing: 1
BeatDivisor: 4
GridSize: 8
TimelineZoom: 1.4

[Metadata]
Title:gravityWall
TitleUnicode:gravityWall
Artist:SawanoHiroyuki[nZk]: Tielle & Gemie
ArtistUnicode:SawanoHiroyuki[nZk]: Tielle & Gemie
Creator:Shogud
Version:Easy
Source:Re:CREATORS
Tags:anime op opening short ver version tv size re creators recreators gravity wall
BeatmapID:1365367
BeatmapSetID:622538

[Difficulty]
HPDrainRate:3
CircleSize:2.8
OverallDifficulty:2
ApproachRate:3
SliderMultiplier:1
SliderTickRate:1

[Events]
//Background and Video events
0,0,"background.jpg",0,0
Video,-150,"op.mp4"
//Break Periods
2,25239,31186
2,66009,66677
//Storyboard Layer 0 (Background)
//Storyboard Layer 1 (Fail)
//Storyboard Layer 2 (Pass)
//Storyboard Layer 3 (Foreground)
//Storyboard Sound Samples

[TimingPoints]
425,512.820512820513,4,2,1,50,1,0
425,-100,4,2,1,50,0,0
8630,-100,4,2,1,50,0,0
19783,-100,4,2,0,50,0,0
20040,-100,4,2,1,50,0,0
25040,-100,4,2,1,30,0,0
32476,-100,4,2,1,60,0,0
32732,-100,4,2,1,60,0,0
32989,-100,4,2,1,60,0,0
33213,-100,4,2,1,70,0,0
66066,-100,4,2,1,30,0,0
68117,-100,4,2,1,70,0,1
70296,-100,4,2,0,70,0,1
70553,-100,4,2,1,70,0,1
72348,-100,4,2,0,70,0,1
72604,-100,4,2,1,70,0,1
74399,-100,4,2,0,70,0,1
74655,-100,4,2,1,70,0,1
75425,-100,4,2,0,70,0,1
75681,-100,4,2,1,70,0,1
78501,-100,4,2,0,70,0,1
78758,-100,4,2,1,70,0,1
80553,-100,4,2,0,70,0,1
80809,-100,4,2,1,70,0,1
81578,-100,4,2,0,70,0,1
81835,-100,4,2,1,70,0,1
84399,-100,4,2,1,70,0,0

[Colours]
Combo1 : 128,64,64
Combo2 : 0,128,0
Combo3 : 0,64,128
Combo4 : 128,128,128
Combo5 : 255,0,0

[HitObjects]
264,112,425,6,0,B|320:112|320:112|460:146,2,200,4|2|0,0:0|0:0|0:0,0:0:0:0:
240,16,2989,1,10,0:0:0:0:
168,80,3501,2,0,P|168:144|290:211,1,200,2|0,0:0|0:0,0:0:0:0:
264,112,5040,5,10,0:0:0:0:
315,30,5553,2,0,B|352:55|352:55|379:213,2,200,2|0|2,0:0|0:0|0:0,0:0:0:0:
266,117,8117,1,10,0:0:0:0:
281,215,8630,6,0,L|262:317,1,100,6|10,0:0|0:0,0:0:0:0:
162,318,9655,2,0,L|180:215,1,100,2|10,0:0|0:0,0:0:0:0:
103,153,10681,2,0,B|58:242|58:242|68:349,2,200,2|2|4,0:0|0:0|0:0,0:0:0:0:
189,203,13245,37,10,0:0:0:0:
209,300,13758,2,0,P|276:255|290:223,1,100,2|10,0:0|0:0,0:0:0:0:
302,141,14783,2,0,P|370:191|354:310,2,200,2|2|4,0:0|0:0|0:0,0:0:0:0:
284,239,17348,5,10,0:0:0:0:
205,173,17860,2,0,P|206:114|238:65,1,100,2|10,0:0|0:0,0:0:0:0:
322,53,18886,2,0,B|402:113|402:113|374:209|374:209|406:309,1,300,2|10,0:0|0:0,0:0:0:0:
322,361,20937,6,0,L|291:265,1,100,4|10,0:0|0:0,0:0:0:0:
259,170,21963,2,0,B|206:191|196:242,1,100,2|10,0:0|0:0,0:0:0:0:
177,340,22989,2,0,B|125:330|104:276,2,100,2|10|2,0:0|0:0|0:0,0:0:0:0:
278,345,24527,38,0,L|382:345,1,100,10|0,0:0|0:0,0:0:0:0:
192,192,33245,6,0,B|176:169|176:169|162:91,2,100,6|10|2,0:0|0:0|0:0,0:0:0:0:
256,272,34783,1,10,0:0:0:0:
320,192,35296,2,0,B|335:169|335:169|349:91,2,100,6|10|2,0:0|0:0|0:0,0:0:0:0:
256,112,36835,1,10,0:0:0:0:
184,48,37348,6,0,P|162:92|160:141,1,100,6|10,0:0|0:0,0:0:0:0:
88,208,38373,2,0,P|138:232|200:227,1,100,2|10,0:0|0:0,0:0:0:0:
252,302,39399,2,0,P|276:252|271:190,2,100,6|10|2,0:0|0:0|0:0,0:0:0:0:
160,328,40937,1,10,0:0:0:0:
188,232,41450,38,0,L|88:232,2,100,6|10|2,0:0|0:0|0:0,0:0:0:0:
240,144,42989,1,10,0:0:0:0:
144,144,43501,2,0,L|28:144,2,100,6|10|2,0:0|0:0|0:0,0:0:0:0:
240,144,45040,1,10,0:0:0:0:
336,152,45553,6,0,B|385:162|385:162|419:200,1,100,6|10,0:0|0:0,0:0:0:0:
336,248,46578,2,0,L|354:350,1,100,2|10,0:0|0:0,0:0:0:0:
256,352,47604,2,0,L|157:334,2,100,4|10|2,0:0|0:0|0:0,0:0:0:0:
252,252,49142,1,10,0:0:0:0:
160,212,49655,6,0,P|203:163|256:152,1,100,6|10,0:0|0:0,0:0:0:0:
280,128,50425,2,0,P|323:177|376:188,1,100,4|2,0:0|0:0,0:0:0:0:
400,176,51194,1,10,0:0:0:0:
408,280,51707,38,0,L|305:298,1,100,6|8,0:0|0:0,0:0:0:0:
288,248,52476,2,0,L|189:230,1,100,6|2,0:0|0:0,0:0:0:0:
141,245,53245,1,10,0:0:0:0:
54,194,53758,6,0,B|41:175|41:175|57:80,1,100,6|10,0:0|0:0,0:0:0:0:
98,77,54527,2,0,B|110:59|110:59|205:42,1,100,6|2,0:0|0:0,0:0:0:0:
230,70,55296,1,10,0:0:0:0:
320,111,55809,6,0,L|426:129,1,100,6|10,0:0|0:0,0:0:0:0:
452,164,56578,2,0,L|433:270,1,100,4|2,0:0|0:0,0:0:0:0:
392,288,57348,1,10,0:0:0:0:
295,271,57860,38,0,P|248:285|199:271,1,100,6|10,0:0|0:0,0:0:0:0:
200,224,58630,2,0,P|152:210|105:224,1,100,6|2,0:0|0:0,0:0:0:0:
96,272,59399,1,10,0:0:0:0:
184,328,59912,6,0,L|282:310,1,100,6|8,0:0|0:0,0:0:0:0:
331,319,60681,2,0,L|349:220,1,100,6|2,0:0|0:0,0:0:0:0:
328,176,61450,1,10,0:0:0:0:
246,118,61963,6,0,P|225:163|233:212,1,100,6|10,0:0|0:0,0:0:0:0:
190,238,62732,2,0,P|141:246|96:225,1,100,6|2,0:0|0:0,0:0:0:0:
46,230,63501,1,10,0:0:0:0:
40,130,64014,38,0,L|57:31,1,100,6|10,0:0|0:0,0:0:0:0:
104,40,64783,2,0,L|210:21,1,100,6|2,0:0|0:0,0:0:0:0:
240,56,65553,2,0,L|231:105,1,50,10|2,0:0|0:0,0:0:0:0:
201,133,68117,38,0,L|319:154,1,100,6|10,0:0|0:0,0:0:0:0:
392,192,69142,2,0,B|403:165|403:165|391:94,1,100,2|10,0:0|0:0,0:0:0:0:
400,48,69912,6,0,B|344:24|304:64|240:48,1,150,6|8,0:0|0:0,0:0:0:0:
152,48,71194,2,0,P|136:104|152:160,1,100,2|10,0:0|0:0,0:0:0:0:
184,176,71963,54,0,B|232:160|232:160|344:184,1,150,6|8,0:0|0:0,0:0:0:0:
432,176,73245,2,0,L|414:278,1,100,2|10,0:0|0:0,0:0:0:0:
416,328,74014,6,0,P|332:368|274:337,1,150,6|10,0:0|0:0,0:0:0:0:
232,344,75040,2,0,B|238:251|238:251|294:217,1,150,6|8,0:0|0:0,0:0:0:0:
200,176,76322,54,0,P|208:104|224:80,1,100,6|10,0:0|0:0,0:0:0:0:
296,152,77348,2,0,L|414:131,1,100,2|10,0:0|0:0,0:0:0:0:
432,168,78117,2,0,B|425:207|425:207|383:256|383:256|375:304,1,150,6|8,0:0|0:0,0:0:0:0:
288,256,79399,6,0,B|272:208|272:208|288:144,1,100,2|10,0:0|0:0,0:0:0:0:
264,112,80168,2,0,P|216:70|128:72,1,150,6|10,0:0|0:0,0:0:0:0:
112,112,81194,2,0,L|139:269,1,150,6|10,0:0|0:0,0:0:0:0:
184,288,82219,1,6,0:0:0:0:
256,192,82476,12,8,84399,0:0:0:0:
