osu file format v14

[General]
AudioFilename: audio.mp3
AudioLeadIn: 0
PreviewTime: 57170
Countdown: 0
SampleSet: Soft
StackLeniency: 0.7
Mode: 0
LetterboxInBreaks: 0
WidescreenStoryboard: 0

[Editor]
Bookmarks: 19370,105732,134570,211332,229370
DistanceSpacing: 0.5
BeatDivisor: 16
GridSize: 4
TimelineZoom: 5.099998

[Metadata]
Title:oI
TitleUnicode:oⅠ
Artist:SawanoHiroyuki[nZk]:mizuki
ArtistUnicode:SawanoHiroyuki[nZk]:mizuki
Creator:CXu
Version:| I-nsane |
Source:
Tags:o1 ol pop japanese j-pop jpop 澤野 弘之 瑞葵 ミズキ Hiroyuki Sawano Mizuki
BeatmapID:1710234
BeatmapSetID:815468

[Difficulty]
HPDrainRate:5
CircleSize:4
OverallDifficulty:8.5
ApproachRate:9
SliderMultiplier:3.59999990463257
SliderTickRate:1

[Events]
//Background and Video events
0,0,"oi_bg.jpg",0,0
//Break Periods
2,96370,105170
//Storyboard Layer 0 (Background)
//Storyboard Layer 1 (Fail)
//Storyboard Layer 2 (Pass)
//Storyboard Layer 3 (Foreground)
//Storyboard Layer 4 (Overlay)
//Storyboard Sound Samples

[TimingPoints]
170,600,4,2,1,70,1,0
2495,-100,4,2,1,5,0,0
2570,-100,4,2,1,70,0,0
4895,-100,4,2,1,5,0,0
4970,-100,4,2,1,70,0,0
7295,-100,4,2,1,5,0,0
7370,-100,4,2,1,70,0,0
9695,-100,4,2,1,5,0,0
9770,-100,4,2,1,70,0,0
12095,-100,4,2,1,5,0,0
12170,-100,4,2,1,70,0,0
14495,-100,4,2,1,5,0,0
14570,-100,4,2,1,70,0,0
16895,-100,4,2,1,5,0,0
16970,-100,4,2,1,70,0,0
19295,-100,4,2,1,5,0,0
19370,-111.111111111111,4,2,1,60,0,0
29195,-111.111111111111,4,2,1,5,0,0
29270,-111.111111111111,4,2,1,60,0,0
30395,-111.111111111111,4,2,1,5,0,0
30470,-111.111111111111,4,2,1,60,0,0
31595,-111.111111111111,4,2,1,5,0,0
31670,-111.111111111111,4,2,1,60,0,0
32795,-111.111111111111,4,2,1,5,0,0
32870,-111.111111111111,4,2,1,60,0,0
33995,-111.111111111111,4,2,1,5,0,0
34070,-111.111111111111,4,2,1,60,0,0
38570,-133.333333333333,4,2,1,50,0,0
55370,-133.333333333333,4,2,1,30,0,0
57170,-111.111111111111,4,2,1,50,0,0
57207,-111.111111111111,4,2,1,5,0,0
57245,-111.111111111111,4,2,1,10,0,0
57282,-111.111111111111,4,2,1,15,0,0
57320,-111.111111111111,4,2,1,20,0,0
57357,-111.111111111111,4,2,1,25,0,0
57395,-111.111111111111,4,2,1,30,0,0
57432,-111.111111111111,4,2,1,35,0,0
57470,-111.111111111111,4,2,1,40,0,0
57507,-111.111111111111,4,2,1,45,0,0
57545,-111.111111111111,4,2,1,50,0,0
57582,-111.111111111111,4,2,1,55,0,0
57620,-111.111111111111,4,2,1,60,0,0
57657,-111.111111111111,4,2,1,65,0,0
57695,-111.111111111111,4,2,1,70,0,0
57770,-100,4,2,1,90,0,1
64595,-100,4,2,1,5,0,1
64670,-100,4,2,1,90,0,1
66920,-125,4,2,1,90,0,1
67370,-100,4,2,1,90,0,1
74195,-100,4,2,1,5,0,1
74270,-100,4,2,1,90,0,1
76520,-125,4,2,1,90,0,1
76970,-100,4,2,1,90,0,1
78395,-100,4,2,1,5,0,1
78470,-100,4,2,1,90,0,1
83195,-100,4,2,1,5,0,1
83270,-100,4,2,1,90,0,1
87995,-100,4,2,1,5,0,1
88070,-100,4,2,1,90,0,1
92795,-100,4,2,1,5,0,1
92870,-100,4,2,1,90,0,1
96170,-100,4,2,1,80,0,0
108095,-100,4,2,1,5,0,0
108170,-100,4,2,1,80,0,0
110495,-100,4,2,1,5,0,0
110570,-100,4,2,1,80,0,0
112895,-100,4,2,1,5,0,0
112970,-100,4,2,1,80,0,0
115295,-100,4,2,1,5,0,0
115370,-111.111111111111,4,2,1,70,0,0
125195,-111.111111111111,4,2,1,5,0,0
125270,-111.111111111111,4,2,1,70,0,0
126395,-111.111111111111,4,2,1,5,0,0
126470,-111.111111111111,4,2,1,70,0,0
127595,-111.111111111111,4,2,1,5,0,0
127670,-111.111111111111,4,2,1,70,0,0
128795,-111.111111111111,4,2,1,5,0,0
128870,-111.111111111111,4,2,1,70,0,0
129995,-111.111111111111,4,2,1,5,0,0
130070,-111.111111111111,4,2,1,70,0,0
134570,-133.333333333333,4,2,1,60,0,0
135620,-133.333333333333,4,2,1,5,0,0
135770,-133.333333333333,4,2,1,60,0,0
136820,-133.333333333333,4,2,1,5,0,0
136970,-133.333333333333,4,2,1,60,0,0
138020,-133.333333333333,4,2,1,5,0,0
138170,-133.333333333333,4,2,1,60,0,0
139220,-133.333333333333,4,2,1,5,0,0
139370,-133.333333333333,4,2,1,60,0,0
140420,-133.333333333333,4,2,1,5,0,0
140570,-133.333333333333,4,2,1,60,0,0
141620,-133.333333333333,4,2,1,5,0,0
141770,-133.333333333333,4,2,1,60,0,0
142820,-133.333333333333,4,2,1,5,0,0
142970,-133.333333333333,4,2,1,60,0,0
148970,-133.333333333333,4,2,1,40,0,0
153020,-111.111111111111,4,2,1,70,0,0
153057,-111.111111111111,4,2,1,5,0,0
153095,-111.111111111111,4,2,1,10,0,0
153132,-111.111111111111,4,2,1,15,0,0
153170,-111.111111111111,4,2,1,20,0,0
153207,-111.111111111111,4,2,1,25,0,0
153245,-111.111111111111,4,2,1,30,0,0
153282,-111.111111111111,4,2,1,35,0,0
153320,-111.111111111111,4,2,1,40,0,0
153357,-111.111111111111,4,2,1,45,0,0
153395,-111.111111111111,4,2,1,50,0,0
153432,-111.111111111111,4,2,1,55,0,0
153470,-111.111111111111,4,2,1,40,0,0
153507,-111.111111111111,4,2,1,45,0,0
153545,-111.111111111111,4,2,1,50,0,0
153582,-111.111111111111,4,2,1,55,0,0
153620,-111.111111111111,4,2,1,60,0,0
153657,-111.111111111111,4,2,1,65,0,0
153695,-111.111111111111,4,2,1,70,0,0
153770,-100,4,2,1,90,0,1
155795,-100,4,2,1,5,0,1
155870,-100,4,2,1,90,0,1
160595,-100,4,2,1,5,0,1
160670,-100,4,2,1,90,0,1
170195,-100,4,2,1,5,0,1
170270,-100,4,2,1,90,0,1
191570,-100,4,2,1,90,0,0
191607,-100,4,2,1,5,0,0
191645,-111.111111111111,4,2,1,10,0,0
191682,-111.111111111111,4,2,1,15,0,0
191720,-111.111111111111,4,2,1,20,0,0
191757,-111.111111111111,4,2,1,25,0,0
191795,-111.111111111111,4,2,1,30,0,0
191832,-111.111111111111,4,2,1,35,0,0
191870,-111.111111111111,4,2,1,40,0,0
191907,-111.111111111111,4,2,1,45,0,0
191945,-111.111111111111,4,2,1,50,0,0
191982,-111.111111111111,4,2,1,55,0,0
192020,-111.111111111111,4,2,1,60,0,0
192057,-111.111111111111,4,2,1,65,0,0
192095,-111.111111111111,4,2,1,70,0,0
192170,-100,4,2,1,90,0,1
201770,-166.666666666667,4,2,1,90,0,1
202370,-333.333333333333,4,2,1,90,0,1
202895,-100,4,2,1,5,0,1
202970,-250,4,2,1,90,0,1
203495,-100,4,2,1,5,0,1
203570,-200,4,2,1,90,0,1
204095,-100,4,2,1,5,0,1
204170,-166.666666666667,4,2,1,90,0,1
204695,-100,4,2,1,5,0,1
204770,-142.857142857143,4,2,1,90,0,1
205295,-100,4,2,1,5,0,1
205370,-125,4,2,1,90,0,1
205745,-100,4,2,1,5,0,1
205820,-111.111111111111,4,2,1,90,0,1
206045,-100,4,2,1,5,0,1
206120,-100,4,2,1,90,0,1
206495,-100,4,2,1,5,0,1
206570,-100,4,2,1,90,0,1
210020,-200,4,2,1,60,0,0
210770,-200,4,2,1,50,0,0
211370,-200,4,2,1,40,0,0
220970,-166.666666666667,4,2,1,50,0,0
225770,-142.857142857143,4,2,1,60,0,0
229370,-142.857142857143,4,2,1,40,0,0
229670,-200,4,2,1,20,0,0
230495,-200,4,2,1,5,0,0
230570,-100,4,2,1,90,0,1
237395,-100,4,2,1,5,0,1
237470,-100,4,2,1,90,0,1
239720,-125,4,2,1,90,0,1
240170,-100,4,2,1,90,0,1
246995,-100,4,2,1,5,0,1
247070,-100,4,2,1,90,0,1
249320,-125,4,2,1,90,0,1
249770,-100,4,2,1,90,0,1
251195,-100,4,2,1,5,0,1
251270,-100,4,2,1,90,0,1
255995,-100,4,2,1,5,0,1
256070,-100,4,2,1,90,0,1
260795,-100,4,2,1,5,0,1
260870,-100,4,2,1,90,0,1
265595,-100,4,2,1,5,0,1
265670,-100,4,2,1,90,0,1
268595,-100,4,2,1,5,0,1
268670,-200,4,2,1,90,0,0
268895,-200,4,2,1,5,0,0
268970,-100,4,2,1,90,0,1
278570,-166.666666666667,4,2,1,90,0,1
279170,-333.333333333333,4,2,1,90,0,1
279695,-333.333333333333,4,2,1,5,0,1
279770,-250,4,2,1,90,0,1
280295,-250,4,2,1,5,0,1
280370,-200,4,2,1,90,0,1
280895,-200,4,2,1,5,0,1
280970,-166.666666666667,4,2,1,90,0,1
281495,-166.666666666667,4,2,1,5,0,1
281570,-142.857142857143,4,2,1,90,0,1
282095,-142.857142857143,4,2,1,5,0,1
282170,-125,4,2,1,90,0,1
282545,-125,4,2,1,5,0,1
282620,-111.111111111111,4,2,1,90,0,1
282845,-111.111111111111,4,2,1,5,0,1
282920,-100,4,2,1,90,0,1
283295,-100,4,2,1,5,0,1
283370,-100,4,2,1,90,0,1
288170,-100,4,2,1,5,0,0

[Colours]
Combo1 : 109,192,254
Combo2 : 170,213,255

[HitObjects]
489,340,170,5,4,3:2:0:0:
429,120,470,1,2,0:0:0:0:
365,193,620,1,0,3:2:0:0:
287,134,770,2,0,B|191:151|191:151|136:213,1,179.999995231629,10|0,3:2|3:2,0:0:0:0:
207,338,1220,1,2,0:0:0:0:
207,338,1370,2,0,L|305:320,1,89.9999976158143
245,237,1670,2,0,L|343:219,1,89.9999976158143,2|0,3:2|0:0,0:0:0:0:
287,134,1970,2,0,L|385:116,1,89.9999976158143,10|0,0:0|0:0,0:0:0:0:
217,47,2270,2,0,B|133:63|133:63|91:91,1,134.999996423721
32,141,2570,5,0,3:2:0:0:
56,346,2870,1,2,0:0:0:0:
133,268,3020,1,0,3:2:0:0:
222,337,3170,2,0,P|303:354|396:299,1,179.999995231629,10|0,3:2|3:2,0:0:0:0:
436,214,3620,1,2,0:0:0:0:
436,214,3770,2,0,L|443:95,1,89.9999976158143
337,160,4070,2,0,L|344:41,1,89.9999976158143,2|0,3:2|0:0,0:0:0:0:
238,106,4370,2,0,L|245:-13,1,89.9999976158143,2|0,0:0|0:0,0:0:0:0:
46,192,4670,2,0,B|114:215|114:215|169:185,1,134.999996423721
105,127,4970,5,0,3:2:0:0:
124,339,5270,1,2,0:0:0:0:
211,285,5420,1,0,3:2:0:0:
291,350,5570,2,0,P|321:280|266:194,1,179.999995231629,10|0,3:2|3:2,0:0:0:0:
144,155,6020,1,2,0:0:0:0:
144,155,6170,2,0,P|126:98|141:44,1,89.9999976158143
256,101,6470,2,0,P|278:45|325:14,1,89.9999976158143,2|0,3:2|0:0,0:0:0:0:
376,131,6770,2,0,P|429:103|484:108,1,89.9999976158143,10|0,0:0|0:0,0:0:0:0:
436,324,7070,2,0,B|424:292|439:259|439:259|452:227|440:190,1,134.999996423721,2|0,0:0|0:0,0:0:0:0:
360,225,7370,5,0,3:2:0:0:
179,376,7670,1,2,0:0:0:0:
126,288,7820,1,0,3:2:0:0:
173,172,7970,2,0,B|312:149|312:149|264:184,1,179.999995231629,10|0,3:2|3:2,0:0:0:0:
68,189,8420,1,2,0:0:0:0:
68,189,8570,2,0,L|46:84,1,89.9999976158143
140,93,8870,2,0,L|118:-12,1,89.9999976158143,2|0,3:2|0:0,0:0:0:0:
239,46,9170,1,10,3:2:0:0:
357,83,9320,1,10,3:2:0:0:
473,121,9470,2,0,B|482:266,1,134.999996423721
489,332,9770,5,4,3:2:0:0:
394,169,10070,1,2,0:0:0:0:
343,269,10220,1,0,3:2:0:0:
271,184,10370,2,0,B|218:219|218:219|79:180,1,179.999995231629,10|0,3:2|3:2,0:0:0:0:
106,94,10820,1,2,0:0:0:0:
106,94,10970,2,0,L|202:125,1,89.9999976158143
272,52,11270,2,0,L|368:83,1,89.9999976158143,2|0,3:2|0:0,0:0:0:0:
389,176,11570,2,0,L|485:207,1,89.9999976158143,8|0,0:0|0:0,0:0:0:0:
296,222,11870,2,0,P|233:231|264:261,1,134.999996423721
333,291,12170,5,0,3:2:0:0:
191,364,12470,1,2,0:0:0:0:
127,283,12620,1,0,3:2:0:0:
200,208,12770,2,0,B|232:162|232:162|188:31,1,179.999995231629,8|0,3:2|3:2,0:0:0:0:
71,207,13220,1,2,0:0:0:0:
71,207,13370,2,0,L|139:142,1,89.9999976158143
61,345,13670,2,0,L|129:280,1,89.9999976158143,2|0,3:2|0:0,0:0:0:0:
183,367,13970,2,0,L|251:302,1,89.9999976158143,2|0,0:0|0:0,0:0:0:0:
366,175,14270,2,0,P|426:230|409:308,1,134.999996423721
350,255,14570,5,0,3:2:0:0:
493,113,14870,1,2,0:0:0:0:
415,33,15020,1,0,3:2:0:0:
312,85,15170,2,0,L|128:71,1,179.999995231629,10|0,3:2|3:2,0:0:0:0:
212,173,15620,1,2,0:0:0:0:
212,173,15770,2,0,B|225:217|225:217|208:268,1,89.9999976158143
314,359,16070,2,0,B|301:315|301:315|318:264,1,89.9999976158143,2|0,3:2|0:0,0:0:0:0:
416,164,16370,2,0,B|374:150|374:150|330:163,1,89.9999976158143,10|0,0:0|0:0,0:0:0:0:
434,382,16670,2,0,B|413:319|413:319|438:249,1,134.999996423721,2|0,0:0|0:0,0:0:0:0:
492,193,16970,5,0,3:2:0:0:
327,361,17270,1,2,0:0:0:0:
254,273,17420,1,0,3:2:0:0:
170,359,17570,2,0,B|116:339|116:339|63:216,1,179.999995231629,10|0,3:2|3:2,0:0:0:0:
112,91,18020,1,2,0:0:0:0:
112,91,18170,2,0,L|148:176,1,89.9999976158143
222,100,18470,2,0,L|258:185,1,89.9999976158143,2|0,3:2|0:0,0:0:0:0:
346,86,18770,1,10,3:2:0:0:
467,72,18920,1,10,3:2:0:0:
417,187,19070,2,0,B|372:199|372:199|357:294,1,134.999996423721
350,367,19370,5,4,3:2:0:0:
350,367,19670,1,2,0:0:0:0:
251,343,19820,1,0,3:2:0:0:
152,319,19970,2,0,P|107:279|104:167,1,161.999990764618,10|0,3:2|3:2,0:0:0:0:
309,206,20570,2,0,B|197:221|197:221|244:190,1,161.999990764618,2|0,0:0|3:2,0:0:0:0:
418,114,21170,2,2,L|418:283,1,161.999990764618,8|0,0:0|0:0,0:0:0:0:
253,71,21770,6,0,P|288:21|330:87,1,161.999990764618,2|0,3:2|0:0,0:0:0:0:
211,163,22220,1,0,3:2:0:0:
211,163,22370,2,0,P|140:187|47:138,1,161.999990764618,10|0,3:2|3:2,0:0:0:0:
24,72,22820,1,0,0:0:0:0:
24,72,22970,1,0,0:0:0:0:
64,307,23270,2,0,B|101:307|101:307|131:271,1,80.9999953823091,2|0,3:2|0:0,0:0:0:0:
257,319,23570,2,0,B|220:319|220:319|190:355,1,80.9999953823091
346,329,23870,1,2,0:0:0:0:
184,203,24170,5,2,3:2:0:0:
357,46,24470,1,0,0:0:0:0:
402,117,24620,1,0,3:2:0:0:
446,194,24770,2,0,L|433:362,1,161.999990764618,10|0,3:2|3:2,0:0:0:0:
319,114,25370,2,0,L|306:282,1,161.999990764618,2|2,0:0|3:2,0:0:0:0:
231,329,25820,1,0,0:0:0:0:
163,275,25970,1,10,0:0:0:0:
397,213,26270,1,0,0:0:0:0:
219,187,26570,6,0,B|107:167|107:167|47:195,1,161.999990764618,2|0,3:2|0:0,0:0:0:0:
14,56,27020,1,0,3:2:0:0:
14,56,27170,2,0,B|126:76|126:76|186:48,1,161.999990764618,10|0,3:2|3:2,0:0:0:0:
244,105,27620,1,0,0:0:0:0:
244,105,27770,2,0,L|339:121,1,80.9999953823091
245,10,28070,1,0,3:2:0:0:
340,4,28220,2,0,L|450:3,1,80.9999953823091,2|8,0:0|3:2,0:0:0:0:
462,99,28520,1,8,3:2:0:0:
502,201,28670,1,0,0:0:0:0:
502,201,28970,6,0,B|477:255|477:255|491:327,1,121.499993073464,2|0,3:2|0:0,0:0:0:0:
508,384,29270,1,0,0:0:0:0:
401,366,29420,1,0,3:2:0:0:
296,346,29570,1,8,3:2:0:0:
412,187,29870,1,2,3:2:0:0:
190,276,30170,6,0,P|126:288|58:269,1,121.499993073464,2|0,0:0|0:0,0:0:0:0:
10,239,30470,1,0,3:0:0:0:
45,140,30620,1,0,0:0:0:0:
45,140,30770,1,8,0:0:0:0:
190,276,31070,1,2,0:0:0:0:
351,125,31370,6,0,B|272:103|272:103|226:120,1,121.499993073464,2|0,3:2|0:0,0:0:0:0:
169,150,31670,1,0,0:0:0:0:
83,95,31820,1,0,3:2:0:0:
0,43,31970,1,8,3:2:0:0:
0,256,32270,1,2,3:2:0:0:
198,362,32570,6,0,B|216:301|216:301|196:239,1,121.499993073464,2|0,0:0|0:0,0:0:0:0:
171,174,32870,1,0,3:0:0:0:
274,190,33020,1,0,0:0:0:0:
274,190,33170,1,8,0:0:0:0:
112,307,33470,1,2,0:0:0:0:
318,293,33770,6,0,L|453:282,1,121.499993073464,2|0,3:2|0:0,0:0:0:0:
512,276,34070,1,0,0:0:0:0:
465,179,34220,1,0,3:2:0:0:
423,84,34370,1,8,3:2:0:0:
232,298,34670,5,0,3:2:0:0:
232,298,34820,2,0,P|190:311|147:296,2,80.9999953823091
295,212,35270,1,2,3:2:0:0:
210,142,35420,2,0,L|192:231,1,80.9999953823091,2|8,0:0|0:0,0:0:0:0:
295,212,35720,1,2,0:0:0:0:
138,73,35870,2,0,L|121:164,1,80.9999953823091,0|2,0:0|0:0,0:0:0:0:
301,108,36170,6,0,L|167:-12,1,161.999990764618,2|0,3:2|0:0,0:0:0:0:
428,43,36620,1,2,3:2:0:0:
428,43,36770,2,0,L|422:228,1,161.999990764618,8|2,3:2|3:2,0:0:0:0:
420,292,37220,1,2,0:0:0:0:
164,104,37670,1,2,0:3:0:0:
241,160,37820,2,0,L|315:215,1,80.9999953823091,0|8,0:0|3:2,0:0:0:0:
302,334,38120,1,8,3:2:0:0:
208,280,38270,1,0,0:0:0:0:
40,350,38570,5,2,0:3:0:0:
25,159,39020,1,2,0:3:0:0:
25,159,39170,2,0,P|73:202|74:272,1,135.000001573563,8|2,3:2|0:3,0:0:0:0:
75,268,40070,1,2,0:3:0:0:
340,285,40370,2,0,B|312:267|312:267|266:286|266:286|241:262|241:262|206:270|206:270|188:263|158:270,1,202.500002360344,8|0,0:0|0:0,0:0:0:0:
212,353,40970,5,2,0:3:0:0:
391,215,41420,1,2,0:3:0:0:
391,215,41570,2,0,P|424:270|405:355,1,135.000001573563,8|2,3:2|0:3,0:0:0:0:
416,337,42470,1,2,0:3:0:0:
507,148,42770,2,0,B|480:132|480:132|460:149|460:149|404:108|323:142,1,202.500002360344,2|0,0:0|0:0,0:0:0:0:
253,81,43370,5,2,0:3:0:0:
69,173,43820,1,2,0:3:0:0:
69,173,43970,2,0,P|130:192|200:148,1,135.000001573563,8|2,3:2|0:3,0:0:0:0:
190,161,44870,1,2,0:3:0:0:
437,236,45170,2,0,B|408:244|408:244|372:211|372:211|328:236|328:236|262:204,1,202.500002360344,8|0,0:0|0:0,0:0:0:0:
119,121,45770,5,2,0:3:0:0:
99,323,46220,1,2,0:3:0:0:
99,323,46370,2,0,P|65:264|80:192,1,135.000001573563,8|2,3:2|0:3,0:0:0:0:
75,200,47270,1,2,0:3:0:0:
271,354,47570,1,8,0:2:0:0:
250,249,47720,1,8,3:2:0:0:
355,253,47870,1,0,0:0:0:0:
254,132,48170,6,0,P|184:150|149:212,1,135.000001573563,2|0,0:3|0:0,0:0:0:0:
334,213,48620,1,2,0:3:0:0:
334,213,48770,2,0,L|343:52,1,135.000001573563,8|2,3:2|0:3,0:0:0:0:
341,78,49670,1,2,0:3:0:0:
444,28,49970,2,0,B|426:98|426:98|452:154|452:154|439:229,1,202.500002360344,8|0,0:0|0:0,0:0:0:0:
421,346,50570,6,0,B|389:313|389:313|297:334,1,135.000001573563,2|0,0:3|0:0,0:0:0:0:
96,290,51020,1,2,0:3:0:0:
96,290,51170,2,0,B|128:323|128:323|214:303,1,135.000001573563,8|2,3:2|0:3,0:0:0:0:
214,302,52070,1,2,0:3:0:0:
176,136,52370,2,0,B|192:183|192:183|238:203|238:203|174:185|130:251,1,202.500002360344,2|0,0:0|0:0,0:0:0:0:
85,159,52970,6,0,P|97:80|166:46,1,135.000001573563,2|0,0:3|0:0,0:0:0:0:
375,76,53420,1,2,0:3:0:0:
375,76,53570,2,0,B|346:66|310:78|310:78|277:92|244:77,1,135.000001573563,8|2,3:2|0:3,0:0:0:0:
244,77,54470,1,2,0:3:0:0:
373,178,54770,2,0,B|397:209|397:209|373:263|373:263|315:273|315:273|288:238,1,202.500002360344,8|0,0:0|0:0,0:0:0:0:
213,186,55370,6,0,P|158:187|87:228,1,135.000001573563,2|0,0:3|0:0,0:0:0:0:
27,292,55820,1,2,0:3:0:0:
27,292,55970,2,0,P|5:227|45:143,1,135.000001573563,8|2,3:2|0:3,0:0:0:0:
81,97,56570,5,0,0:0:0:0:
162,82,56870,5,2,0:3:0:0:
244,69,57170,6,0,L|278:64,14,20.2499988455773,8|0|0|0|0|0|0|0|0|0|0|0|0|0|0,0:0|0:0|0:0|0:0|0:0|0:0|0:0|0:0|0:0|0:0|0:0|0:0|0:0|0:0|0:0,0:0:0:0:
232,91,57770,6,0,B|215:148|215:148|239:207|239:207|222:276,1,179.999995231629,6|0,3:2|0:0,0:0:0:0:
118,317,58220,2,0,L|144:230,1,89.9999976158143,2|8,0:0|3:2,0:0:0:0:
108,61,58520,1,0,0:0:0:0:
73,153,58670,2,0,L|46:239,1,89.9999976158143,2|0,0:0|0:0,0:0:0:0:
208,359,58970,2,0,B|257:362|291:325|291:325|347:319|367:377,1,179.999995231629,0|0,3:2|0:0,0:0:0:0:
405,253,59420,1,0,0:0:0:0:
228,178,59570,2,0,P|214:236|228:284,1,89.9999976158143,10|0,3:2|0:0,0:0:0:0:
346,153,59870,5,0,0:0:0:0:
227,76,60020,2,0,P|182:83|142:113,1,89.9999976158143,2|0,0:0|3:2,0:0:0:0:
346,153,60320,5,0,0:0:0:0:
227,76,60470,2,0,P|182:83|142:113,1,89.9999976158143,2|0,0:0|0:0,0:0:0:0:
346,153,60770,5,8,3:2:0:0:
227,76,60920,2,0,P|182:83|142:113,1,89.9999976158143,2|0,0:0|0:0,0:0:0:0:
346,153,61220,5,0,0:0:0:0:
227,76,61370,2,0,P|182:83|142:113,1,89.9999976158143,2|0,3:2|0:0,0:0:0:0:
42,266,61670,2,0,P|86:258|126:228,1,89.9999976158143,2|0,0:0|0:0,0:0:0:0:
37,136,61970,1,8,3:2:0:0:
225,192,62120,2,0,P|252:267|221:360,1,179.999995231629,2|0,0:0|0:0,0:0:0:0:
483,331,62570,6,0,B|428:267|428:267|337:299,1,179.999995231629,2|0,3:2|0:0,0:0:0:0:
462,166,63020,2,0,L|526:238,1,89.9999976158143,2|8,0:0|3:2,0:0:0:0:
471,60,63320,1,0,0:0:0:0:
374,99,63470,2,0,L|195:165,1,179.999995231629,2|0,0:0|3:2,0:0:0:0:
365,210,63920,1,0,0:0:0:0:
269,248,64070,2,0,B|176:284,1,89.9999976158143,2|0,0:0|0:0,0:0:0:0:
51,199,64370,2,0,B|34:267|34:267|66:332,1,134.999996423721,10|0,3:2|0:0,0:0:0:0:
110,384,64670,1,0,0:0:0:0:
134,217,64820,2,0,B|149:169|149:169|119:128,2,89.9999976158143,2|0|0,0:0|3:2|0:0,0:0:0:0:
58,41,65270,5,0,0:0:0:0:
175,46,65420,2,0,L|280:49,1,89.9999976158143,2|8,0:0|3:2,0:0:0:0:
58,41,65720,5,0,0:0:0:0:
175,46,65870,2,0,L|280:49,1,89.9999976158143,2|0,0:0|0:0,0:0:0:0:
398,196,66170,2,0,B|412:149|412:149|393:95,1,89.9999976158143,2|0,3:2|0:0,0:0:0:0:
278,283,66470,2,0,B|264:236|264:236|283:182,1,89.9999976158143,2|0,0:0|0:0,0:0:0:0:
390,303,66770,5,8,3:2:0:0:
211,370,66920,2,0,B|174:377|174:377|116:349|116:349|76:363,1,143.999996185303,2|0,0:0|0:0,0:0:0:0:
104,171,67370,6,0,P|137:237|52:237,1,179.999995231629,6|0,3:2|0:0,0:0:0:0:
170,96,67820,2,0,P|214:128|231:178,1,89.9999976158143,2|8,0:0|3:2,0:0:0:0:
222,272,68120,1,0,0:0:0:0:
316,94,68270,2,0,P|363:79|420:98,1,89.9999976158143,2|0,0:0|0:0,0:0:0:0:
452,309,68570,2,0,P|386:278|357:178,1,179.999995231629,0|0,3:2|0:0,0:0:0:0:
457,203,69020,1,0,0:0:0:0:
315,333,69170,2,0,B|270:345|270:345|222:333,1,89.9999976158143,10|0,3:2|0:0,0:0:0:0:
102,227,69470,5,0,0:0:0:0:
124,82,69620,2,0,P|162:58|211:52,1,89.9999976158143,2|0,0:0|3:2,0:0:0:0:
102,227,69920,5,0,0:0:0:0:
124,82,70070,2,0,P|162:58|211:52,1,89.9999976158143,2|0,0:0|0:0,0:0:0:0:
102,227,70370,5,8,3:2:0:0:
124,82,70520,2,0,P|162:58|211:52,1,89.9999976158143,2|0,0:0|0:0,0:0:0:0:
102,227,70820,5,0,0:0:0:0:
124,82,70970,2,0,P|162:58|211:52,1,89.9999976158143,2|0,3:2|0:0,0:0:0:0:
285,177,71270,2,0,P|323:201|372:207,1,89.9999976158143,2|0,0:0|0:0,0:0:0:0:
368,74,71570,1,8,3:2:0:0:
190,147,71720,2,0,B|153:211|153:211|166:325,1,179.999995231629,2|0,0:0|0:0,0:0:0:0:
288,253,72170,6,0,B|254:232|254:232|270:370,1,179.999995231629,2|0,3:2|0:0,0:0:0:0:
378,204,72620,2,0,B|404:240|404:240|386:299,1,89.9999976158143,2|8,0:0|3:2,0:0:0:0:
472,96,72920,1,0,0:0:0:0:
472,96,73070,2,0,B|458:139|458:139|484:175,1,89.9999976158143,2|0,0:0|0:0,0:0:0:0:
323,103,73370,2,0,B|267:77|209:106|209:106|213:60|184:26,1,179.999995231629,0|2,3:2|0:0,0:0:0:0:
88,95,73820,1,0,0:0:0:0:
217,192,73970,2,0,P|271:174|351:205,1,134.999996423721,10|0,3:2|0:0,0:0:0:0:
399,258,74270,1,0,0:0:0:0:
496,138,74420,2,0,L|506:39,2,89.9999976158143,2|0|0,0:0|3:2|0:0,0:0:0:0:
309,71,74870,5,0,0:0:0:0:
199,56,75020,2,0,L|88:44,1,89.9999976158143,2|8,0:0|3:2,0:0:0:0:
309,71,75320,5,0,0:0:0:0:
199,56,75470,2,0,L|88:44,1,89.9999976158143,2|0,0:0|0:0,0:0:0:0:
12,190,75770,2,0,L|115:181,1,89.9999976158143,2|0,3:2|0:0,0:0:0:0:
101,320,76070,2,0,L|204:311,1,89.9999976158143,2|0,0:0|0:0,0:0:0:0:
305,172,76370,5,8,3:2:0:0:
456,269,76520,2,0,P|463:329|403:312,1,143.999996185303,2|0,0:0|0:0,0:0:0:0:
431,136,76970,6,0,B|458:94|515:95|515:95|517:45|463:22,1,179.999995231629,6|0,3:2|0:0,0:0:0:0:
509,183,77420,1,0,0:0:0:0:
382,54,77570,2,0,P|345:94|330:144,1,89.9999976158143,10|0,3:2|0:0,0:0:0:0:
214,175,77870,2,0,P|201:121|213:71,1,89.9999976158143
312,226,78170,2,0,P|336:294|323:362,1,134.999996423721,0|0,3:2|0:0,0:0:0:0:
282,366,78470,2,0,L|185:377,1,89.9999976158143,2|0,0:0|0:0,0:0:0:0:
77,244,78770,2,0,L|174:233,1,89.9999976158143,8|0,3:2|0:0,0:0:0:0:
265,369,79070,2,0,L|168:380,1,89.9999976158143,2|0,0:0|0:0,0:0:0:0:
110,142,79370,6,0,B|95:12|95:12|125:54,1,179.999995231629,2|0,3:2|0:0,0:0:0:0:
13,97,79820,1,0,0:0:0:0:
213,129,79970,2,0,B|270:138|270:138|313:117,1,89.9999976158143,10|0,3:2|0:0,0:0:0:0:
443,88,80270,2,0,B|406:132|406:132|403:180,1,89.9999976158143
363,306,80570,2,0,B|342:252|342:252|302:225,1,89.9999976158143,0|0,3:2|0:0,0:0:0:0:
230,351,80870,1,0,0:0:0:0:
130,247,81020,1,0,0:0:0:0:
16,338,81170,2,0,L|112:346,1,89.9999976158143,8|0,3:2|0:0,0:0:0:0:
26,159,81470,1,2,0:0:0:0:
26,159,81770,6,0,P|52:72|102:109,1,179.999995231629,2|0,3:2|0:0,0:0:0:0:
130,247,82220,1,0,0:0:0:0:
226,126,82370,2,0,P|228:78|211:37,1,89.9999976158143,10|0,3:2|0:0,0:0:0:0:
244,246,82670,2,0,P|284:271|328:277,1,89.9999976158143
359,83,82970,2,0,B|326:114|322:175|322:175|367:152,1,134.999996423721,0|0,3:2|0:0,0:0:0:0:
402,151,83270,2,0,P|435:191|443:246,1,89.9999976158143,2|0,0:0|0:0,0:0:0:0:
338,376,83570,2,0,P|305:336|297:281,1,89.9999976158143,8|0,3:2|0:0,0:0:0:0:
417,165,83870,2,0,P|442:210|440:265,1,89.9999976158143,2|0,0:0|0:0,0:0:0:0:
278,186,84170,6,0,B|214:165|214:165|95:190,1,179.999995231629,2|0,3:2|0:0,0:0:0:0:
36,101,84620,1,0,0:0:0:0:
75,285,84770,2,0,L|95:373,1,89.9999976158143,10|0,3:2|0:0,0:0:0:0:
186,271,85070,2,0,L|205:358,1,89.9999976158143
389,324,85370,2,0,B|346:334|346:334|303:317,1,89.9999976158143,0|0,3:2|0:0,0:0:0:0:
464,230,85670,1,0,0:0:0:0:
351,153,85820,1,0,0:0:0:0:
426,59,85970,2,0,B|469:49|469:49|534:74,1,89.9999976158143,8|0,3:2|0:0,0:0:0:0:
307,32,86270,1,2,0:0:0:0:
307,32,86570,6,0,B|243:23|243:23|203:43|203:43|124:33,1,179.999995231629,6|0,3:2|0:0,0:0:0:0:
8,108,87020,1,0,0:0:0:0:
157,135,87170,2,0,B|218:141|218:141|247:126,1,89.9999976158143,10|0,3:2|0:0,0:0:0:0:
386,205,87470,2,0,B|325:199|325:199|296:214,1,89.9999976158143
194,367,87770,2,0,B|174:312|174:312|203:237,1,134.999996423721,0|0,3:2|0:0,0:0:0:0:
177,241,88070,2,0,L|68:243,1,89.9999976158143,2|0,0:0|0:0,0:0:0:0:
2,374,88370,2,0,L|91:372,1,89.9999976158143,8|0,3:2|0:0,0:0:0:0:
159,242,88670,2,0,L|50:244,1,89.9999976158143,2|0,0:0|0:0,0:0:0:0:
287,314,88970,6,0,P|352:330|438:242,1,179.999995231629,2|0,3:2|0:0,0:0:0:0:
456,142,89420,1,0,0:0:0:0:
324,85,89570,2,0,B|342:205,1,89.9999976158143,10|0,3:2|0:0,0:0:0:0:
140,154,89870,2,0,L|235:141,1,89.9999976158143
202,341,90170,2,0,B|207:286|207:286|191:243,1,89.9999976158143,0|0,3:2|0:0,0:0:0:0:
110,306,90470,1,0,0:0:0:0:
301,284,90620,1,0,0:0:0:0:
140,154,90770,2,0,B|184:137|184:137|232:143,1,89.9999976158143,8|0,3:2|0:0,0:0:0:0:
408,61,91070,1,2,0:0:0:0:
408,61,91370,6,0,L|413:254,1,179.999995231629,2|0,3:2|0:0,0:0:0:0:
508,148,91820,1,0,0:0:0:0:
332,302,91970,2,0,B|327:198,1,89.9999976158143,10|0,3:2|0:0,0:0:0:0:
175,136,92270,2,0,B|223:120|223:120|284:147,1,89.9999976158143
200,262,92570,2,0,B|136:283|136:283|75:248,1,134.999996423721,0|0,3:2|0:0,0:0:0:0:
72,221,92870,2,0,L|64:121,1,89.9999976158143,2|0,0:0|0:0,0:0:0:0:
212,20,93170,2,0,L|204:120,1,89.9999976158143,8|0,3:2|0:0,0:0:0:0:
69,202,93470,2,0,L|61:102,1,89.9999976158143,2|0,0:0|0:0,0:0:0:0:
319,64,93770,6,0,B|459:50|459:50|423:76,1,179.999995231629,2|0,3:2|0:0,0:0:0:0:
269,136,94220,1,0,0:0:0:0:
357,236,94370,2,0,B|371:188|371:188|357:132,1,89.9999976158143,10|0,3:2|0:0,0:0:0:0:
249,281,94670,2,0,B|235:329|235:329|249:385,1,89.9999976158143
134,233,94970,2,0,B|148:185|148:185|134:129,1,89.9999976158143,0|0,3:2|0:0,0:0:0:0:
34,190,95270,1,0,0:0:0:0:
163,312,95420,1,0,0:0:0:0:
230,111,95570,2,0,L|202:1,1,89.9999976158143,8|0,3:2|0:0,0:0:0:0:
35,103,95870,1,0,0:0:0:0:
256,192,96170,5,4,3:2:0:0:
103,56,105770,5,4,3:2:0:0:
43,257,106070,1,2,0:0:0:0:
325,202,106370,2,0,B|193:160|193:160|133:198,1,179.999995231629,10|0,3:2|0:0,0:0:0:0:
214,260,106820,1,2,0:0:0:0:
214,260,106970,2,0,L|310:291,1,89.9999976158143,0|0,3:2|0:0,0:0:0:0:
429,190,107270,2,0,L|398:286,1,89.9999976158143,2|0,0:0|0:0,0:0:0:0:
355,117,107570,2,0,L|269:89,1,89.9999976158143,10|0,3:2|0:0,0:0:0:0:
442,100,107870,2,0,P|470:62|400:53,1,134.999996423721
355,117,108170,5,0,3:2:0:0:
430,335,108470,1,2,0:0:0:0:
218,241,108770,2,0,B|152:257|152:257|108:239|108:239|41:258,1,179.999995231629,8|0,3:2|0:0,0:0:0:0:
199,338,109220,1,2,0:0:0:0:
199,338,109370,2,0,L|291:313,1,89.9999976158143,0|0,3:2|0:0,0:0:0:0:
402,191,109670,2,0,L|316:215,1,89.9999976158143,2|0,0:0|0:0,0:0:0:0:
163,167,109970,2,0,L|255:142,1,89.9999976158143,10|0,3:2|0:0,0:0:0:0:
106,6,110270,2,0,P|59:44|63:128,1,134.999996423721
132,86,110570,5,0,3:2:0:0:
373,34,110870,1,2,0:0:0:0:
296,284,111170,2,0,L|172:143,1,179.999995231629,10|0,3:2|0:0,0:0:0:0:
306,147,111620,1,2,0:0:0:0:
171,279,111770,2,0,L|101:342,1,89.9999976158143,0|0,3:2|0:0,0:0:0:0:
295,283,112070,2,0,L|362:223,1,89.9999976158143,2|0,0:0|0:0,0:0:0:0:
370,33,112370,2,0,L|300:96,1,89.9999976158143,10|0,3:2|0:0,0:0:0:0:
69,239,112670,2,0,B|36:180|36:180|68:105,1,134.999996423721,2|0,0:0|0:0,0:0:0:0:
101,51,112970,5,0,3:2:0:0:
129,292,113270,1,0,0:0:0:0:
319,166,113570,2,0,P|401:217|416:298,1,179.999995231629,10|0,3:2|0:0,0:0:0:0:
378,384,114020,1,2,0:0:0:0:
302,279,114170,2,0,P|257:265|209:279,1,89.9999976158143,0|0,3:2|0:0,0:0:0:0:
201,145,114470,2,0,P|155:155|120:191,1,89.9999976158143,2|0,0:0|0:0,0:0:0:0:
46,79,114770,2,0,P|11:110|0:159,1,89.9999976158143,10|0,3:2|0:0,0:0:0:0:
10,331,115070,2,0,B|55:347|55:347|102:328|102:328|141:342,1,134.999996423721
212,368,115370,5,0,3:2:0:0:
180,179,115670,1,2,0:0:0:0:
360,224,115970,1,10,3:2:0:0:
360,224,116570,1,2,3:2:0:0:
360,224,117170,1,10,3:2:0:0:
360,224,117770,6,0,B|481:217|481:217|436:239,1,161.999990764618,2|2,3:2|0:0,0:0:0:0:
369,331,118220,1,2,0:0:0:0:
369,331,118370,2,0,L|201:341,1,161.999990764618,8|0,3:2|0:0,0:0:0:0:
238,237,118820,1,0,0:0:0:0:
238,237,118970,2,0,L|152:243,1,80.9999953823091,0|0,3:2|0:0,0:0:0:0:
113,344,119270,2,0,B|75:329|75:329|51:287,1,80.9999953823091,2|0,0:0|0:0,0:0:0:0:
12,211,119570,1,8,3:2:0:0:
106,62,119870,1,0,0:0:0:0:
268,67,120170,5,2,3:2:0:0:
268,67,120770,1,10,3:2:0:0:
268,67,121370,1,2,3:2:0:0:
175,216,121670,2,0,B|218:191|218:191|262:84,1,161.999990764618,0|10,0:0|3:2,0:0:0:0:
362,204,122270,1,0,0:0:0:0:
124,348,122570,6,0,L|274:258,1,161.999990764618,2|2,3:2|0:0,0:0:0:0:
100,264,123020,1,2,0:0:0:0:
100,264,123170,2,0,B|54:292|54:292|54:178,1,161.999990764618,10|0,3:2|0:0,0:0:0:0:
142,48,123620,1,0,0:0:0:0:
142,48,123770,2,0,L|142:142,1,80.9999953823091,0|0,3:2|0:0,0:0:0:0:
51,90,124070,1,2,0:0:0:0:
237,87,124220,2,0,L|347:86,1,80.9999953823091,2|8,0:0|3:2,0:0:0:0:
453,85,124520,1,2,0:0:0:0:
320,186,124670,1,2,0:0:0:0:
320,186,124970,6,0,B|308:246|308:246|333:313,1,121.499993073464,2|0,3:2|0:0,0:0:0:0:
363,369,125270,1,2,0:0:0:0:
439,297,125420,1,0,0:0:0:0:
512,223,125570,1,8,3:2:0:0:
388,36,125870,1,2,0:0:0:0:
388,36,126170,6,0,L|246:40,1,121.499993073464,2|0,3:2|0:0,0:0:0:0:
194,43,126470,1,2,0:0:0:0:
131,128,126620,1,0,0:0:0:0:
69,215,126770,1,8,3:2:0:0:
44,25,127070,1,2,0:0:0:0:
44,25,127370,6,0,P|26:86|41:149,1,121.499993073464,2|0,3:2|0:0,0:0:0:0:
69,215,127670,1,2,0:0:0:0:
172,227,127820,1,0,0:0:0:0:
277,239,127970,1,8,3:2:0:0:
102,363,128270,1,2,0:0:0:0:
102,363,128570,6,0,B|116:302|116:302|86:242,1,121.499993073464,2|0,3:2|0:0,0:0:0:0:
51,187,128870,1,2,0:0:0:0:
116,105,129020,1,0,0:0:0:0:
185,25,129170,1,8,3:2:0:0:
278,213,129470,1,2,0:0:0:0:
278,213,129770,6,0,P|308:157|299:96,1,121.499993073464,2|0,3:2|0:0,0:0:0:0:
273,26,130070,1,2,0:0:0:0:
378,49,130220,1,0,0:0:0:0:
494,79,130370,1,8,3:2:0:0:
494,79,130670,5,0,0:0:0:0:
494,79,130820,2,0,B|500:37|500:37|474:-6,2,80.9999953823091,0|0|0,0:0|3:2|0:0,0:0:0:0:
467,195,131270,1,2,0:0:0:0:
354,171,131420,2,0,L|336:260,1,80.9999953823091,2|8,0:0|3:2,0:0:0:0:
316,362,131720,1,2,0:0:0:0:
234,236,131870,1,0,0:0:0:0:
210,344,132020,1,0,0:0:0:0:
121,216,132170,6,0,B|106:301|106:301|37:267,1,161.999990764618,2|2,3:2|0:0,0:0:0:0:
136,124,132620,1,2,0:0:0:0:
136,124,132770,2,0,B|151:39|151:39|220:73,1,161.999990764618,8|2,3:2|0:0,0:0:0:0:
378,149,133220,1,2,0:0:0:0:
378,149,133370,2,0,L|291:109,1,80.9999953823091,0|0,3:2|0:0,0:0:0:0:
215,160,133670,1,2,0:0:0:0:
320,213,133820,2,0,L|407:253,1,80.9999953823091,2|8,0:0|3:2,0:0:0:0:
264,287,134120,2,0,B|158:232|158:232|101:243,1,161.999990764618,2|0,0:0|0:0,0:0:0:0:
8,267,134570,5,0,3:2:0:0:
58,14,135170,2,0,B|101:126|101:126|50:210,1,202.500002360344,8|0,3:1|0:0,0:0:0:0:
159,205,135770,5,0,3:2:0:0:
359,65,136370,2,0,B|212:73|212:73|186:130,1,202.500002360344,8|0,3:1|0:0,0:0:0:0:
272,154,136970,5,0,3:2:0:0:
512,247,137570,2,0,B|463:277|463:277|336:198,1,202.500002360344,8|0,3:1|0:0,0:0:0:0:
345,299,138170,5,0,3:2:0:0:
94,339,138770,2,0,B|154:380|154:380|280:331,1,202.500002360344,8|0,3:1|0:0,0:0:0:0:
198,271,139370,5,0,3:2:0:0:
225,10,139970,2,0,B|274:112|274:112|246:202,1,202.500002360344,8|0,3:1|0:0,0:0:0:0:
179,116,140570,5,0,3:2:0:0:
0,288,141170,2,0,B|17:185|17:185|118:143,1,202.500002360344,8|0,3:1|0:0,0:0:0:0:
40,82,141770,5,0,3:2:0:0:
316,56,142370,2,0,B|213:29|213:29|115:55,1,202.500002360344,8|0,3:1|0:0,0:0:0:0:
185,137,142970,5,0,3:2:0:0:
329,292,143570,1,8,3:1:0:0:
259,220,143720,1,8,3:1:0:0:
183,294,143870,1,0,0:1:0:0:
183,294,144170,6,0,L|89:278,1,67.5000007867814,0|0,3:2|0:0,0:0:0:0:
152,212,144470,2,0,L|58:196,1,67.5000007867814
34,137,144770,1,0,3:2:0:0:
168,37,145070,1,0,0:0:0:0:
329,90,145370,6,0,L|423:106,1,67.5000007867814,0|0,3:2|0:0,0:0:0:0:
360,172,145670,2,0,L|454:188,1,67.5000007867814
478,247,145970,1,0,3:2:0:0:
344,347,146270,1,0,0:0:0:0:
225,159,146570,6,0,L|213:79,1,67.5000007867814,0|0,3:2|0:0,0:0:0:0:
307,198,146870,2,0,L|295:118,1,67.5000007867814
283,40,147170,1,0,3:2:0:0:
238,258,147470,1,0,0:0:0:0:
467,180,147770,6,0,L|479:260,1,67.5000007867814,0|0,3:2|0:0,0:0:0:0:
385,141,148070,2,0,L|397:221,1,67.5000007867814
410,301,148370,1,0,3:2:0:0:
454,81,148670,1,0,0:0:0:0:
255,159,148970,5,0,3:2:0:0:
160,49,149270,2,0,B|126:37|126:37|74:42,2,67.5000007867814,0|0|0,0:0|0:0|3:2,0:0:0:0:
65,181,149870,2,0,B|31:193|31:193|-21:188,2,67.5000007867814,0|0|0,0:0|0:0|3:2,0:0:0:0:
305,228,150470,6,0,P|319:288|315:316,1,67.5000007867814
284,373,150770,1,0,3:2:0:0:
221,178,151070,2,0,P|265:135|292:125,1,67.5000007867814
357,130,151370,5,0,3:2:0:0:
305,228,151670,1,0,0:0:0:0:
305,228,151820,1,0,0:0:0:0:
305,228,151970,2,0,L|390:243,1,67.5000007867814,0|0,3:2|0:0,0:0:0:0:
449,255,152270,1,0,0:0:0:0:
287,311,152570,2,0,B|205:300|205:300|165:267,1,135.000001573563,0|0,3:2|0:0,0:0:0:0:
111,209,153020,2,0,L|110:175,18,20.2499988455773
111,162,153770,6,0,B|169:149|169:149|290:193,1,179.999995231629,6|0,3:2|0:0,0:0:0:0:
199,254,154220,2,0,L|303:295,1,89.9999976158143,2|8,3:2|0:0,0:0:0:0:
214,353,154520,1,0,0:0:0:0:
52,242,154670,2,0,P|18:184|150:64,1,269.999992847443,2|0,3:2|0:0,0:0:0:0:
323,112,155270,2,0,L|235:84,1,89.9999976158143,0|0,3:2|0:0,0:0:0:0:
476,28,155570,2,0,B|432:69|432:69|432:171,1,134.999996423721,10|0,0:0|0:0,0:0:0:0:
434,220,155870,5,0,0:0:0:0:
312,329,156020,2,0,P|268:338|220:324,1,89.9999976158143,2|0,0:0|3:2,0:0:0:0:
434,220,156320,5,0,0:0:0:0:
312,329,156470,2,0,P|268:338|220:324,1,89.9999976158143,2|0,0:0|3:2,0:0:0:0:
434,220,156770,5,8,0:0:0:0:
312,329,156920,2,0,P|268:338|220:324,1,89.9999976158143,2|0,0:0|3:2,0:0:0:0:
434,220,157220,5,0,0:0:0:0:
312,329,157370,2,0,P|268:338|220:324,1,89.9999976158143,2|0,0:0|0:0,0:0:0:0:
107,248,157670,2,0,P|63:239|15:253,1,89.9999976158143,2|0,3:2|0:0,0:0:0:0:
67,338,157970,1,8,0:0:0:0:
195,247,158120,2,0,B|251:181|251:181|257:83,1,179.999995231629,2|0,0:0|0:0,0:0:0:0:
90,70,158570,6,0,P|11:43|31:105,1,179.999995231629,2|0,3:2|0:0,0:0:0:0:
166,124,159020,2,0,P|180:77|172:32,1,89.9999976158143,2|8,3:2|0:0,0:0:0:0:
86,165,159320,1,0,0:0:0:0:
269,114,159470,2,0,B|268:168|240:205|240:205|274:237|273:293,1,179.999995231629,2|0,3:2|0:0,0:0:0:0:
179,279,159920,1,0,0:0:0:0:
252,369,160070,2,0,P|315:365|345:338,1,89.9999976158143,2|0,3:2|0:0,0:0:0:0:
364,256,160370,2,0,P|417:299|426:368,1,134.999996423721,10|0,0:0|0:0,0:0:0:0:
427,361,160670,1,0,0:0:0:0:
472,211,160820,2,0,B|472:158|472:158|509:117,2,89.9999976158143,2|0|0,0:0|3:2|0:0,0:0:0:0:
435,0,161270,5,0,0:0:0:0:
370,70,161420,2,0,L|303:147,1,89.9999976158143,2|8,3:2|0:0,0:0:0:0:
435,0,161720,5,0,0:0:0:0:
370,70,161870,2,0,L|303:147,1,89.9999976158143,2|0,3:2|0:0,0:0:0:0:
306,283,162170,2,0,L|373:206,1,89.9999976158143,2|0,0:0|0:0,0:0:0:0:
198,192,162470,2,0,L|138:259,1,89.9999976158143,2|0,3:2|0:0,0:0:0:0:
64,349,162770,5,8,0:0:0:0:
235,278,162920,1,10,0:0:0:0:
101,173,163070,1,0,0:0:0:0:
190,93,163220,1,0,0:0:0:0:
170,353,163370,6,0,P|264:371|324:311,1,179.999995231629,6|0,3:2|0:0,0:0:0:0:
365,136,163820,2,0,P|372:178|405:217,1,89.9999976158143,2|8,3:2|0:0,0:0:0:0:
458,134,164120,1,0,0:0:0:0:
262,60,164270,2,0,B|228:67|214:121|214:121|264:140|294:200|294:200|280:161|287:127,1,269.999992847443,2|0,3:2|0:0,0:0:0:0:
352,258,164870,2,0,P|306:281|249:268,1,89.9999976158143,0|0,3:2|0:0,0:0:0:0:
132,192,165170,2,0,P|183:199|221:242,1,89.9999976158143,10|0,0:0|0:0,0:0:0:0:
138,295,165470,5,0,0:0:0:0:
5,208,165620,2,0,P|17:142|50:111,1,89.9999976158143,2|0,0:0|3:2,0:0:0:0:
138,295,165920,5,0,0:0:0:0:
5,208,166070,2,0,P|17:142|50:111,1,89.9999976158143,2|0,0:0|3:2,0:0:0:0:
138,295,166370,5,8,0:0:0:0:
5,208,166520,2,0,P|17:142|50:111,1,89.9999976158143,2|0,0:0|3:2,0:0:0:0:
138,295,166820,5,0,0:0:0:0:
5,208,166970,2,0,P|17:142|50:111,1,89.9999976158143,2|0,0:0|0:0,0:0:0:0:
175,22,167270,2,0,P|196:85|183:128,1,89.9999976158143,2|0,3:2|0:0,0:0:0:0:
107,195,167570,1,8,0:0:0:0:
244,269,167720,2,0,B|324:293|324:293|420:250,1,179.999995231629,2|0,0:0|0:0,0:0:0:0:
506,309,168170,6,0,L|338:387,1,179.999995231629,2|0,3:2|0:0,0:0:0:0:
412,253,168620,2,0,L|493:216,1,89.9999976158143,2|8,3:2|0:0,0:0:0:0:
325,293,168920,1,0,0:0:0:0:
421,115,169070,2,0,B|489:80|489:80|445:140|445:140|333:192,1,269.999992847443,2|0,3:2|0:0,0:0:0:0:
151,288,169670,2,0,B|104:278|104:278|51:307,1,89.9999976158143,2|0,3:2|0:0,0:0:0:0:
221,355,169970,2,0,B|241:289|241:289|217:223,1,134.999996423721,10|0,0:0|0:0,0:0:0:0:
218,226,170270,1,0,0:0:0:0:
90,141,170420,2,0,L|1:139,2,89.9999976158143,2|0|0,0:0|3:2|0:0,0:0:0:0:
272,0,170870,5,0,0:0:0:0:
277,102,171020,2,0,L|281:208,1,89.9999976158143,2|8,3:2|0:0,0:0:0:0:
272,0,171320,5,0,0:0:0:0:
277,102,171470,2,0,L|281:208,1,89.9999976158143,2|0,3:2|0:0,0:0:0:0:
376,50,171770,2,0,L|380:140,1,89.9999976158143,2|0,0:0|0:0,0:0:0:0:
176,24,172070,2,0,L|179:113,1,89.9999976158143,2|0,3:2|0:0,0:0:0:0:
190,211,172370,5,8,0:0:0:0:
378,255,172520,1,10,0:0:0:0:
220,303,172670,1,0,0:0:0:0:
337,339,172820,1,0,0:0:0:0:
125,287,172970,6,0,B|66:273|1:304|1:304|36:313|65:349,1,179.999995231629,6|0,3:2|0:0,0:0:0:0:
131,384,173420,1,0,3:2:0:0:
180,223,173570,2,0,P|141:205|85:205,1,89.9999976158143,10|0,0:0|0:0,0:0:0:0:
200,44,173870,2,0,B|231:84|217:131|217:131|284:161|275:245|275:245|297:190,1,269.999992847443,0|0,3:2|0:0,0:0:0:0:
129,103,174470,2,0,L|31:114,1,89.9999976158143,2|0,3:2|0:0,0:0:0:0:
90,233,174770,2,0,L|188:222,1,89.9999976158143,8|0,0:0|0:0,0:0:0:0:
93,99,175070,2,0,L|-5:110,1,89.9999976158143,2|0,0:0|0:0,0:0:0:0:
204,307,175370,6,0,B|253:346|308:318|308:318|269:378,1,179.999995231629,2|0,3:2|0:0,0:0:0:0:
264,247,175820,1,0,3:2:0:0:
373,366,175970,2,0,B|393:323|393:323|383:275,1,89.9999976158143,10|0,0:0|0:0,0:0:0:0:
512,61,176270,2,0,B|441:164|441:164|470:309,1,269.999992847443,0|0,3:2|0:0,0:0:0:0:
327,200,176870,1,0,3:2:0:0:
350,321,177020,1,0,0:0:0:0:
210,219,177170,2,0,L|116:237,1,89.9999976158143,8|0,0:0|0:0,0:0:0:0:
269,31,177470,1,2,0:0:0:0:
269,31,177770,6,0,P|227:106|168:62,1,179.999995231629,2|0,3:2|0:0,0:0:0:0:
86,9,178220,1,0,3:2:0:0:
136,168,178370,2,0,L|136:268,1,89.9999976158143,10|0,0:0|0:0,0:0:0:0:
290,366,178670,2,0,B|222:203|222:203|223:299,1,269.999992847443,0|0,3:2|0:0,0:0:0:0:
80,356,179270,2,0,P|118:370|169:363,1,89.9999976158143,2|0,3:2|0:0,0:0:0:0:
109,222,179570,2,0,P|71:208|20:215,1,89.9999976158143,8|0,0:0|0:0,0:0:0:0:
131,356,179870,2,0,P|171:356|217:332,1,89.9999976158143,2|0,0:0|0:0,0:0:0:0:
346,135,180170,6,0,B|369:249|369:249|355:319,1,179.999995231629,2|0,3:2|0:0,0:0:0:0:
443,310,180620,1,0,3:2:0:0:
280,227,180770,2,0,L|259:134,1,89.9999976158143,10|0,0:0|0:0,0:0:0:0:
405,33,181070,2,0,B|440:191|440:191|459:127|459:127|426:91,1,269.999992847443,0|0,3:2|0:0,0:0:0:0:
310,79,181670,1,0,3:2:0:0:
330,197,181820,1,0,0:0:0:0:
191,90,181970,1,8,0:0:0:0:
205,210,182120,1,8,0:0:0:0:
76,21,182270,1,2,0:0:0:0:
76,21,182570,6,0,P|19:79|50:189,1,179.999995231629,6|0,3:2|0:0,0:0:0:0:
108,109,183020,1,0,3:2:0:0:
43,273,183170,2,0,P|84:258|115:226,1,89.9999976158143,10|0,0:0|0:0,0:0:0:0:
321,123,183470,2,0,B|250:106|189:159|189:159|226:222|189:287,1,269.999992847443,0|0,3:2|0:0,0:0:0:0:
297,212,184070,2,0,P|298:259|286:303,1,89.9999976158143,2|0,3:2|0:0,0:0:0:0:
415,165,184370,2,0,P|414:118|426:74,1,89.9999976158143,8|0,0:0|0:0,0:0:0:0:
299,240,184670,2,0,P|291:286|270:327,1,89.9999976158143,2|0,0:0|0:0,0:0:0:0:
471,321,184970,6,0,P|389:298|427:372,1,179.999995231629,2|0,3:2|0:0,0:0:0:0:
512,206,185420,1,0,3:2:0:0:
389,89,185570,2,0,B|396:181,1,89.9999976158143,10|0,0:0|0:0,0:0:0:0:
193,114,185870,2,0,B|189:61|189:61|265:72|265:72|275:230,1,269.999992847443,0|0,3:2|0:0,0:0:0:0:
280,305,186470,1,0,3:2:0:0:
195,212,186620,1,0,0:0:0:0:
363,140,186770,2,0,L|482:140,1,89.9999976158143,8|0,0:0|0:0,0:0:0:0:
405,320,187070,1,2,0:0:0:0:
405,320,187370,6,0,B|335:366|335:366|236:350,1,179.999995231629,2|0,3:2|0:0,0:0:0:0:
82,314,187820,1,0,3:2:0:0:
218,254,187970,2,0,L|311:269,1,89.9999976158143,10|0,0:0|0:0,0:0:0:0:
105,141,188270,2,0,B|237:159|237:159|296:133|296:133|198:120,1,269.999992847443,0|0,3:2|0:0,0:0:0:0:
396,171,188870,2,0,L|315:218,1,89.9999976158143,2|0,3:2|0:0,0:0:0:0:
319,384,189170,2,0,L|400:337,1,89.9999976158143,8|0,0:0|0:0,0:0:0:0:
379,182,189470,2,0,L|298:229,1,89.9999976158143,2|0,0:0|0:0,0:0:0:0:
127,343,189770,6,0,B|97:306|117:238|117:238|89:265|87:305,1,179.999995231629,2|0,3:2|0:0,0:0:0:0:
208,285,190220,1,0,3:2:0:0:
149,147,190370,2,0,P|104:142|62:155,1,89.9999976158143,10|0,0:0|0:0,0:0:0:0:
282,199,190670,2,0,B|358:216|404:155|404:155|455:219|412:309,1,269.999992847443,0|0,3:2|0:0,0:0:0:0:
237,354,191270,2,0,P|281:376|330:368,1,89.9999976158143,0|0,3:2|0:0,0:0:0:0:
211,224,191570,2,0,P|208:211|210:192,14,22.4999994039536
219,159,192170,6,0,P|164:146|127:158,1,89.9999976158143,6|0,3:2|0:0,0:0:0:0:
71,220,192470,1,0,0:0:0:0:
286,104,192620,2,0,P|181:67|41:126,1,269.999992847443,2|0,0:0|0:0,0:0:0:0:
71,220,193220,1,0,0:0:0:0:
71,220,193370,2,0,B|96:275|96:275|56:327|56:327|82:380,1,179.999995231629,0|0,3:2|0:0,0:0:0:0:
218,281,193820,2,0,B|186:288|186:288|144:334,1,89.9999976158143,0|0,0:0|3:2,0:0:0:0:
260,363,194120,1,2,0:0:0:0:
336,262,194270,1,2,0:0:0:0:
428,351,194420,1,0,0:0:0:0:
503,203,194570,6,0,P|456:200|411:241,1,89.9999976158143,2|0,3:2|0:0,0:0:0:0:
482,284,194870,1,0,0:0:0:0:
360,147,195020,6,0,P|323:124|279:128,1,89.9999976158143,2|0,0:0|3:2,0:0:0:0:
300,209,195320,1,0,0:0:0:0:
224,24,195470,6,0,P|179:71|183:194,1,179.999995231629,2|0,0:0|3:2,0:0:0:0:
279,127,195920,1,0,0:0:0:0:
188,205,196070,1,2,0:0:0:0:
63,178,196220,1,0,0:0:0:0:
230,292,196370,2,0,P|248:346|250:382,1,89.9999976158143,2|0,3:2|0:0,0:0:0:0:
344,233,196670,2,0,P|348:188|364:146,1,89.9999976158143
495,346,196970,6,0,P|447:358|391:336,1,89.9999976158143,2|0,3:2|0:0,0:0:0:0:
457,244,197270,1,0,0:0:0:0:
270,274,197420,2,0,P|253:172|336:251,1,269.999992847443,2|0,0:0|0:0,0:0:0:0:
197,340,198020,1,0,0:0:0:0:
197,340,198170,2,0,P|147:349|51:272,1,179.999995231629,0|0,3:2|0:0,0:0:0:0:
159,166,198620,2,0,P|147:208|154:264,1,89.9999976158143,0|0,0:0|3:2,0:0:0:0:
229,71,198920,1,0,0:0:0:0:
245,214,199070,1,2,0:0:0:0:
89,100,199220,1,0,0:0:0:0:
302,20,199370,6,0,P|346:13|403:47,1,89.9999976158143,2|0,3:2|0:0,0:0:0:0:
464,105,199670,1,0,0:0:0:0:
355,191,199820,6,0,P|311:184|254:218,1,89.9999976158143,2|0,0:0|3:2,0:0:0:0:
193,276,200120,1,0,0:0:0:0:
412,342,200270,6,0,P|484:306|499:210,1,179.999995231629,2|0,0:0|3:2,0:0:0:0:
464,105,200720,1,0,0:0:0:0:
363,161,200870,2,0,L|411:247,1,89.9999976158143,2|0,0:0|0:0,0:0:0:0:
282,236,201170,2,0,L|234:150,1,89.9999976158143,2|0,3:2|0:0,0:0:0:0:
114,151,201470,2,0,L|158:230,1,89.9999976158143
89,44,201770,6,0,P|57:29|82:64,1,107.999993843079,4|0,3:2|0:0,0:0:0:0:
230,22,202370,6,0,B|279:14|279:14|328:30,1,94.499994612694,8|0,3:2|0:0,0:0:0:0:
326,108,202970,6,0,B|275:89|275:89|245:154,1,125.99999666214,2|0,3:2|0:0,0:0:0:0:
317,182,203570,6,0,B|302:232|302:232|346:281|346:281|336:336,1,157.499995827675,8|0,3:2|0:0,0:0:0:0:
281,380,204170,6,0,B|230:385|230:385|150:353|150:353|205:326,1,188.999989225388,2|0,3:2|0:0,0:0:0:0:
202,235,204770,6,0,B|87:295|87:295|65:335|65:335|7:316,1,220.499987429619,8|0,3:2|0:0,0:0:0:0:
31,230,205370,6,0,B|-14:222|-14:222|121:157,1,179.999995231628,2|0,3:2|0:0,0:0:0:0:
186,159,205820,6,0,B|203:95|203:95|158:32,1,121.499993073464,2|0,0:0|0:0,0:0:0:0:
272,35,206120,6,0,B|298:82|298:82|271:198|271:198|295:258,1,224.999994039536,2|0,0:0|0:0,0:0:0:0:
329,326,206570,5,0,3:2:0:0:
371,138,206870,1,2,0:0:0:0:
200,254,207170,2,0,L|294:246,1,89.9999976158143,8|0,3:2|0:0,0:0:0:0:
129,323,207470,1,0,0:0:0:0:
144,175,207620,2,0,L|155:64,2,89.9999976158143,2|0|0,0:0|3:2|0:0,0:0:0:0:
303,318,208070,2,0,L|397:310,1,89.9999976158143
492,200,208370,2,0,L|402:207,1,89.9999976158143,10|0,3:2|0:0,0:0:0:0:
280,110,208670,2,0,L|374:102,1,89.9999976158143
475,48,208970,5,0,3:2:0:0:
324,191,209270,1,2,0:0:0:0:
214,10,209570,2,0,P|197:51|203:95,1,89.9999976158143,8|0,3:2|0:0,0:0:0:0:
324,191,209870,1,0,0:0:0:0:
160,194,210020,6,0,B|126:210|92:195|92:195|61:176|18:197,1,134.999996423721,2|0,0:0|0:0,0:0:0:0:
29,191,210770,1,2,0:0:0:0:
130,293,211370,6,0,B|171:303|171:303|222:281,1,89.9999976158143,6|0,0:0|0:0,0:0:0:0:
234,272,211820,2,0,P|281:261|326:269,1,89.9999976158143,2|0,0:0|0:0,0:0:0:0:
341,277,212270,2,0,P|393:277|412:169,1,179.999995231629,2|0,0:0|0:0,0:0:0:0:
414,171,213170,2,0,P|387:122|385:88,1,89.9999976158143,2|2,0:0|0:0,0:0:0:0:
388,65,213620,6,0,B|344:50|344:50|295:62,1,89.9999976158143,2|0,0:0|0:0,0:0:0:0:
388,65,214070,6,0,B|344:50|344:50|295:62,1,89.9999976158143,2|0,0:0|0:0,0:0:0:0:
388,65,214520,6,0,B|344:50|344:50|295:62,1,89.9999976158143,2|0,0:0|0:0,0:0:0:0:
388,65,214970,6,0,B|344:50|344:50|295:62,2,89.9999976158143,2|2|2,0:0|0:0|0:0,0:0:0:0:
408,75,215720,1,2,0:0:0:0:
451,193,216170,6,0,B|430:207|430:207|367:192,1,89.9999976158143,2|2,0:0|0:0,0:0:0:0:
345,185,216620,2,0,L|252:212,1,89.9999976158143,2|0,0:0|0:0,0:0:0:0:
236,216,217070,2,0,L|143:190,1,89.9999976158143,2|0,0:0|0:0,0:0:0:0:
149,191,217670,2,0,L|50:216,2,89.9999976158143,2|2|2,0:0|0:0|0:0,0:0:0:0:
162,173,218420,2,0,P|171:123|125:52,1,134.999996423721,2|0,0:0|0:0,0:0:0:0:
106,49,219020,6,0,P|47:57|13:83,1,89.9999976158143,2|0,0:0|0:0,0:0:0:0:
106,49,219470,6,0,P|47:57|13:83,2,89.9999976158143,2|2|2,0:0|0:0|0:0,0:0:0:0:
85,136,220370,2,0,L|81:190,1,44.9999988079071,2|2,0:0|0:0,0:0:0:0:
124,321,220970,6,0,P|162:326|236:292,1,107.999993843079,6|0,0:0|0:0,0:0:0:0:
242,280,221420,2,0,P|280:254|346:247,1,107.999993843079,2|0,0:0|0:0,0:0:0:0:
364,257,221870,2,0,P|406:224|308:176,1,215.999987686158,2|0,0:0|0:0,0:0:0:0:
310,172,222770,2,0,P|254:176|205:143,1,107.999993843079,2|2,0:0|0:0,0:0:0:0:
199,126,223220,6,0,B|177:179|177:179|190:232,1,107.999993843079,2|0,0:0|0:0,0:0:0:0:
199,126,223670,6,0,B|177:179|177:179|190:232,1,107.999993843079,2|0,0:0|0:0,0:0:0:0:
199,126,224120,6,0,B|177:179|177:179|190:232,1,107.999993843079,2|0,0:0|0:0,0:0:0:0:
199,126,224570,6,0,B|177:179|177:179|190:232,2,107.999993843079,2|2|2,0:0|0:0|0:0,0:0:0:0:
214,103,225320,2,0,P|260:72|318:79,1,107.999993843079,2|0,0:0|0:0,0:0:0:0:
375,110,225770,6,0,B|416:119|416:119|499:82,1,125.999992816925,0|0,3:2|0:0,0:0:0:0:
486,174,226220,2,0,L|361:233,1,125.999992816925,0|0,3:2|0:0,0:0:0:0:
476,265,226670,2,0,L|351:324,1,125.999992816925,0|0,3:2|0:0,0:0:0:0:
198,216,227270,2,0,L|216:357,2,125.999992816925,0|0|0,3:2|0:0|0:0,0:0:0:0:
105,171,228020,1,0,0:0:0:0:
105,171,228170,2,0,L|123:312,1,125.999992816925,0|0,3:2|0:0,0:0:0:0:
12,126,228620,6,0,L|30:267,1,125.999992816925,0|0,3:2|0:0,0:0:0:0:
12,126,229070,6,0,L|30:267,1,125.999992816925,0|2,3:2|0:0,0:0:0:0:
108,357,229670,6,0,B|132:365|153:357|153:357|179:347|204:357|204:357|208:361|208:361|212:353|212:353|216:361|216:361|220:353|220:353|224:361|224:361|228:353|228:353|232:361|232:361|236:353|236:353|240:361|240:361|244:353|244:353|248:361|248:361|252:353|252:353|256:361|256:361|260:353|260:353|264:361|264:361|268:353|268:353|272:361|272:361|276:353|276:353|280:361,1,247.499993443489,2|0,0:0|0:0,0:0:0:0:
346,359,230570,6,0,B|435:357|435:357|501:277,1,179.999995231629,6|0,3:2|0:0,0:0:0:0:
483,146,231020,2,0,L|411:232,1,89.9999976158143,2|8,0:0|3:2,0:0:0:0:
469,21,231320,1,0,0:0:0:0:
371,132,231470,2,0,L|299:218,1,89.9999976158143,2|0,0:0|0:0,0:0:0:0:
111,221,231770,2,0,P|165:188|189:276,1,179.999995231629,0|0,3:2|0:0,0:0:0:0:
100,345,232220,1,0,0:0:0:0:
85,122,232370,2,0,P|122:102|174:101,1,89.9999976158143,10|0,3:2|0:0,0:0:0:0:
299,178,232670,5,0,0:0:0:0:
417,267,232820,2,0,P|461:276|509:262,1,89.9999976158143,2|0,0:0|3:2,0:0:0:0:
299,178,233120,5,0,0:0:0:0:
417,267,233270,2,0,P|461:276|509:262,1,89.9999976158143,2|0,0:0|0:0,0:0:0:0:
299,178,233570,5,8,3:2:0:0:
417,267,233720,2,0,P|461:276|509:262,1,89.9999976158143,2|0,0:0|0:0,0:0:0:0:
299,178,234020,5,0,0:0:0:0:
417,267,234170,2,0,P|461:276|509:262,1,89.9999976158143,2|0,3:2|0:0,0:0:0:0:
299,178,234470,2,0,P|255:169|207:183,1,89.9999976158143,2|0,0:0|0:0,0:0:0:0:
91,282,234770,1,8,3:2:0:0:
248,266,234920,2,0,P|258:175|212:95,1,179.999995231629,2|0,0:0|0:0,0:0:0:0:
363,56,235370,6,0,B|423:71|480:35|480:35|492:70|514:82,1,179.999995231629,2|0,3:2|0:0,0:0:0:0:
412,250,235820,2,0,P|408:201|423:156,1,89.9999976158143,2|8,0:0|3:2,0:0:0:0:
512,216,236120,1,0,0:0:0:0:
416,354,236270,2,0,B|342:354|342:354|314:312|314:312|345:332|380:324,1,179.999995231629,2|0,0:0|3:2,0:0:0:0:
511,354,236720,1,0,0:0:0:0:
355,248,236870,2,0,P|306:237|263:257,1,89.9999976158143,2|0,0:0|0:0,0:0:0:0:
173,382,237170,2,0,B|272:383|272:383|248:349,1,134.999996423721,10|0,3:2|0:0,0:0:0:0:
208,292,237470,1,0,0:0:0:0:
299,153,237620,2,0,B|311:49,2,89.9999976158143,2|0|0,0:0|3:2|0:0,0:0:0:0:
45,152,238070,5,0,0:0:0:0:
130,89,238220,2,0,L|247:91,1,89.9999976158143,2|8,0:0|3:2,0:0:0:0:
45,152,238520,5,0,0:0:0:0:
130,89,238670,2,0,L|247:91,1,89.9999976158143,2|0,0:0|0:0,0:0:0:0:
389,164,238970,2,0,L|272:166,1,89.9999976158143,2|0,3:2|0:0,0:0:0:0:
189,278,239270,2,0,L|306:280,1,89.9999976158143,2|0,0:0|0:0,0:0:0:0:
418,283,239570,5,8,3:2:0:0:
232,365,239720,2,0,L|85:361,1,143.999996185303,2|0,0:0|0:0,0:0:0:0:
87,112,240170,6,0,B|69:170|69:170|103:235|103:235|86:280,1,179.999995231629,6|0,3:2|0:0,0:0:0:0:
186,111,240620,2,0,B|162:156|162:156|185:192,1,89.9999976158143,2|8,0:0|3:2,0:0:0:0:
287,144,240920,1,0,0:0:0:0:
242,338,241070,2,0,B|262:296|262:296|238:260,1,89.9999976158143,2|0,0:0|0:0,0:0:0:0:
350,322,241370,2,0,B|323:381|323:381|438:342,1,179.999995231629,0|0,3:2|0:0,0:0:0:0:
498,231,241820,1,0,0:0:0:0:
286,156,241970,2,0,L|330:239,1,89.9999976158143,10|0,3:2|0:0,0:0:0:0:
447,146,242270,5,0,0:0:0:0:
299,66,242420,2,0,P|247:72|208:107,1,89.9999976158143,2|0,0:0|3:2,0:0:0:0:
447,146,242720,5,0,0:0:0:0:
299,66,242870,2,0,P|247:72|208:107,1,89.9999976158143,2|0,0:0|0:0,0:0:0:0:
447,146,243170,5,8,3:2:0:0:
299,66,243320,2,0,P|247:72|208:107,1,89.9999976158143,2|0,0:0|0:0,0:0:0:0:
447,146,243620,5,0,0:0:0:0:
299,66,243770,2,0,P|247:72|208:107,1,89.9999976158143,2|0,3:2|0:0,0:0:0:0:
35,139,244070,2,0,P|81:162|106:208,1,89.9999976158143,2|0,0:0|0:0,0:0:0:0:
48,300,244370,1,8,3:2:0:0:
240,189,244520,2,0,P|198:247|217:353,1,179.999995231629,2|0,0:0|0:0,0:0:0:0:
401,219,244970,6,0,B|337:216|293:272|293:272|324:265|359:271,1,179.999995231629,2|0,3:2|0:0,0:0:0:0:
497,256,245420,2,0,P|507:211|492:167,1,89.9999976158143,2|8,0:0|3:2,0:0:0:0:
426,326,245720,1,0,0:0:0:0:
413,121,245870,2,0,P|445:88|491:78,1,89.9999976158143,2|0,0:0|0:0,0:0:0:0:
324,71,246170,2,0,P|264:43|337:14,1,179.999995231629,0|2,3:2|0:0,0:0:0:0:
413,121,246620,1,0,0:0:0:0:
217,189,246770,2,0,P|270:171|351:202,1,134.999996423721,10|0,3:2|0:0,0:0:0:0:
390,255,247070,1,0,0:0:0:0:
273,354,247220,2,0,B|255:327|255:327|277:248,2,89.9999976158143,2|0|0,0:0|3:2|0:0,0:0:0:0:
154,379,247670,5,0,0:0:0:0:
69,301,247820,2,0,L|66:212,1,89.9999976158143,2|8,0:0|3:2,0:0:0:0:
154,379,248120,5,0,0:0:0:0:
69,301,248270,2,0,L|66:212,1,89.9999976158143,2|0,0:0|0:0,0:0:0:0:
219,101,248570,2,0,L|223:191,1,89.9999976158143,2|0,3:2|0:0,0:0:0:0:
59,9,248870,2,0,L|62:98,1,89.9999976158143,2|0,0:0|0:0,0:0:0:0:
305,154,249170,5,8,3:2:0:0:
170,265,249320,2,0,P|224:287|295:250,1,143.999996185303,2|0,0:0|0:0,0:0:0:0:
469,96,249770,6,0,B|446:48|446:48|348:47|348:47|360:79,1,179.999995231629,6|0,3:2|0:0,0:0:0:0:
491,170,250220,1,0,0:0:0:0:
432,301,250370,2,0,L|402:217,1,89.9999976158143,10|0,3:2|0:0,0:0:0:0:
267,114,250670,2,0,L|297:198,1,89.9999976158143
213,353,250970,2,0,B|289:360|289:360|348:313,1,134.999996423721,0|0,3:2|0:0,0:0:0:0:
262,283,251270,2,0,L|164:272,1,89.9999976158143,2|0,0:0|0:0,0:0:0:0:
80,145,251570,2,0,L|178:156,1,89.9999976158143,8|0,3:2|0:0,0:0:0:0:
238,280,251870,2,0,L|140:269,1,89.9999976158143,2|0,0:0|0:0,0:0:0:0:
122,75,252170,6,0,B|230:88|230:88|289:139,1,179.999995231629,2|0,3:2|0:0,0:0:0:0:
347,18,252620,1,0,0:0:0:0:
492,121,252770,2,0,P|501:169|493:217,1,89.9999976158143,10|0,3:2|0:0,0:0:0:0:
488,366,253070,2,0,P|441:349|404:318,1,89.9999976158143
277,240,253370,2,0,P|314:208|359:191,1,89.9999976158143,0|0,3:2|0:0,0:0:0:0:
489,279,253670,1,0,0:0:0:0:
331,366,253820,1,0,0:0:0:0:
189,255,253970,2,0,P|196:206|220:164,1,89.9999976158143,8|0,3:2|0:0,0:0:0:0:
414,98,254270,1,2,0:0:0:0:
414,98,254570,6,0,B|344:41|344:41|275:102,1,179.999995231629,2|0,3:2|0:0,0:0:0:0:
245,231,255020,1,0,0:0:0:0:
192,68,255170,2,0,L|265:-3,1,89.9999976158143,10|0,3:2|0:0,0:0:0:0:
64,82,255470,2,0,L|137:11,1,89.9999976158143
143,143,255770,2,0,L|251:236,1,134.999996423721,0|0,3:2|0:0,0:0:0:0:
317,290,256070,2,0,P|361:303|408:292,1,89.9999976158143,2|0,0:0|0:0,0:0:0:0:
493,145,256370,2,0,P|449:132|402:143,1,89.9999976158143,8|0,3:2|0:0,0:0:0:0:
346,298,256670,2,0,P|391:298|434:274,1,89.9999976158143,2|0,0:0|0:0,0:0:0:0:
246,210,256970,6,0,B|225:274|225:274|251:393,1,179.999995231629,2|0,3:2|0:0,0:0:0:0:
346,298,257420,1,0,0:0:0:0:
134,246,257570,2,0,L|157:349,1,89.9999976158143,10|0,3:2|0:0,0:0:0:0:
35,236,257870,2,0,L|58:339,1,89.9999976158143
138,139,258170,2,0,L|30:124,1,89.9999976158143,0|0,3:2|0:0,0:0:0:0:
214,41,258470,1,0,0:0:0:0:
278,161,258620,1,0,0:0:0:0:
376,63,258770,2,0,L|484:78,1,89.9999976158143,8|0,3:2|0:0,0:0:0:0:
369,274,259070,1,2,0:0:0:0:
369,274,259370,6,0,P|311:319|294:236,1,179.999995231629,6|0,3:2|0:0,0:0:0:0:
378,179,259820,1,0,0:0:0:0:
181,308,259970,2,0,P|127:298|95:262,1,89.9999976158143,10|0,3:2|0:0,0:0:0:0:
177,122,260270,2,0,P|195:173|180:219,1,89.9999976158143
295,28,260570,2,0,P|270:96|301:162,1,134.999996423721,0|0,3:2|0:0,0:0:0:0:
380,145,260870,2,0,L|490:128,1,89.9999976158143,2|0,0:0|0:0,0:0:0:0:
367,258,261170,2,0,L|257:275,1,89.9999976158143,8|0,3:2|0:0,0:0:0:0:
406,139,261470,2,0,L|516:122,1,89.9999976158143,2|0,0:0|0:0,0:0:0:0:
456,384,261770,6,0,B|426:350|457:302|457:302|480:256|457:213,1,179.999995231629,2|0,3:2|0:0,0:0:0:0:
348,352,262220,1,0,0:0:0:0:
189,264,262370,2,0,B|277:250,1,89.9999976158143,10|0,3:2|0:0,0:0:0:0:
19,384,262670,2,0,B|107:370,1,89.9999976158143
86,197,262970,2,0,B|72:242|72:242|89:285,1,89.9999976158143,0|0,3:2|0:0,0:0:0:0:
181,162,263270,1,0,0:0:0:0:
32,115,263420,1,0,0:0:0:0:
123,5,263570,2,0,B|139:45|139:45|125:90,1,89.9999976158143,8|0,3:2|0:0,0:0:0:0:
310,41,263870,1,2,0:0:0:0:
310,41,264170,6,0,B|454:28|454:28|413:54,1,179.999995231629,2|0,3:2|0:0,0:0:0:0:
277,122,264620,1,0,0:0:0:0:
361,219,264770,2,0,B|365:117,1,89.9999976158143,10|0,3:2|0:0,0:0:0:0:
483,199,265070,2,0,B|487:110,1,89.9999976158143,0|0,0:0|0:0,0:0:0:0:
499,294,265370,2,0,B|434:283|434:283|379:324,1,134.999996423721,0|0,3:2|0:0,0:0:0:0:
314,368,265670,2,0,L|209:351,1,89.9999976158143,2|0,0:0|0:0,0:0:0:0:
139,208,265970,2,0,L|244:225,1,89.9999976158143,8|0,3:2|0:0,0:0:0:0:
277,362,266270,2,0,L|172:345,1,89.9999976158143,2|0,0:0|0:0,0:0:0:0:
299,154,266570,6,0,B|340:198|323:260|323:260|361:248|374:202,1,179.999995231629,2|0,3:2|0:0,0:0:0:0:
215,132,267020,1,0,0:0:0:0:
394,137,267170,2,0,P|429:156|454:208,1,89.9999976158143,10|0,3:2|0:0,0:0:0:0:
378,339,267470,2,0,P|344:359|286:355,1,89.9999976158143
211,224,267770,2,0,P|209:184|242:136,1,89.9999976158143,0|0,3:2|0:0,0:0:0:0:
328,226,268070,1,0,0:0:0:0:
208,324,268220,1,0,0:0:0:0:
97,232,268370,2,0,L|82:85,1,134.999996423721,8|0,3:2|0:0,0:0:0:0:
141,46,268670,6,0,P|170:37|217:48,1,67.4999982118607,2|0,0:0|0:0,0:0:0:0:
265,96,268970,6,0,L|257:194,1,89.9999976158143,6|0,3:2|0:0,0:0:0:0:
249,281,269270,1,0,0:0:0:0:
357,52,269420,1,0,0:0:0:0:
357,52,269570,2,0,L|343:247,1,179.999995231629,8|0,3:2|0:0,0:0:0:0:
449,14,270020,1,0,0:0:0:0:
449,14,270170,2,0,L|435:209,1,179.999995231629,0|0,3:2|0:0,0:0:0:0:
453,364,270620,2,0,B|476:337|476:337|480:271,1,89.9999976158143,0|8,0:0|3:2,0:0:0:0:
365,309,270920,1,2,0:0:0:0:
251,304,271070,1,2,0:0:0:0:
138,300,271220,1,0,0:0:0:0:
66,201,271370,6,0,P|58:152|71:106,1,89.9999976158143,2|0,3:2|0:0,0:0:0:0:
156,22,271670,1,0,0:0:0:0:
204,156,271820,6,0,P|232:115|274:92,1,89.9999976158143,2|8,0:0|3:2,0:0:0:0:
394,93,272120,1,0,0:0:0:0:
321,263,272270,6,0,P|282:231|370:200,1,179.999995231629,2|0,0:0|3:2,0:0:0:0:
464,326,272720,1,0,0:0:0:0:
477,216,272870,1,2,0:0:0:0:
489,107,273020,1,0,0:0:0:0:
397,11,273170,2,0,B|376:54|376:54|402:112,1,89.9999976158143,10|0,3:2|0:0,0:0:0:0:
317,250,273470,2,0,B|338:207|338:207|312:149,1,89.9999976158143,0|0,0:0|0:0,0:0:0:0:
166,340,273770,6,0,P|212:357|266:340,1,89.9999976158143,2|0,3:2|0:0,0:0:0:0:
404,289,274070,1,0,0:0:0:0:
213,261,274220,1,0,0:0:0:0:
213,261,274370,2,0,P|145:252|70:344,1,179.999995231629,8|0,3:2|0:0,0:0:0:0:
243,132,274820,1,0,0:0:0:0:
243,132,274970,2,0,P|269:195|386:214,1,179.999995231629,0|0,3:2|0:0,0:0:0:0:
350,29,275420,2,0,P|333:75|343:120,1,89.9999976158143,0|8,0:0|3:2,0:0:0:0:
463,135,275720,1,0,0:0:0:0:
451,257,275870,1,2,0:0:0:0:
437,373,276020,1,0,0:0:0:0:
324,312,276170,6,0,L|212:303,1,89.9999976158143,2|0,3:2|0:0,0:0:0:0:
101,293,276470,1,0,0:0:0:0:
288,178,276620,6,0,L|400:169,1,89.9999976158143,2|8,0:0|3:2,0:0:0:0:
511,159,276920,1,0,0:0:0:0:
308,44,277070,6,0,B|183:32|183:32|134:65,1,179.999995231629,2|0,0:0|3:2,0:0:0:0:
55,140,277520,1,0,0:0:0:0:
187,241,277670,2,0,B|187:192|187:192|154:160,1,89.9999976158143,2|0,0:0|0:0,0:0:0:0:
0,226,277970,2,0,B|42:250|42:250|86:237,1,89.9999976158143,10|0,3:2|0:0,0:0:0:0:
286,148,278270,2,0,B|325:136|325:136|367:161,1,89.9999976158143,0|0,0:0|0:0,0:0:0:0:
492,253,278570,6,0,B|473:276|476:303|476:303|453:291|424:304,1,107.999993843079,4|0,3:2|0:0,0:0:0:0:
221,361,279170,6,0,B|280:356|280:356|308:334,1,94.499994612694,8|0,3:2|0:0,0:0:0:0:
239,281,279770,6,0,B|152:288|152:288|116:319,1,125.99999666214,2|0,3:2|0:0,0:0:0:0:
57,268,280370,6,0,B|110:222|110:222|51:157,1,157.499995827675,8|0,3:2|0:0,0:0:0:0:
77,67,280970,6,0,B|143:136|143:136|187:145|187:145|197:202,1,188.999989225388,2|0,3:2|0:0,0:0:0:0:
268,138,281570,6,0,B|278:222|278:222|250:254|250:254|263:349,1,220.499987429619,8|0,3:2|0:0,0:0:0:0:
344,331,282170,6,0,B|336:283|336:283|478:312,1,179.999995231628,2|0,3:2|0:0,0:0:0:0:
485,232,282620,6,0,L|341:203,1,121.499993073464,2|0,0:0|0:0,0:0:0:0:
374,130,282920,6,0,B|487:150|487:150|457:107|457:107|383:95,1,224.999994039536,2|0,0:0|0:0,0:0:0:0:
342,46,283370,5,0,3:2:0:0:
219,285,283670,1,2,0:0:0:0:
64,106,283970,2,0,L|158:98,1,89.9999976158143,8|0,3:2|0:0,0:0:0:0:
114,224,284270,1,0,0:0:0:0:
242,90,284420,2,0,L|336:82,2,89.9999976158143,2|0|0,0:0|3:2|0:0,0:0:0:0:
114,224,284870,6,0,B|155:204|155:204|210:218,1,89.9999976158143
278,313,285170,2,0,B|321:323|321:323|362:303,1,89.9999976158143,10|0,3:2|0:0,0:0:0:0:
416,184,285470,2,0,B|457:164|457:164|500:174,1,89.9999976158143,0|0,0:0|0:0,0:0:0:0:
464,297,285770,5,0,3:2:0:0:
303,189,286070,1,2,0:0:0:0:
165,326,286370,2,0,P|101:343|63:322,1,89.9999976158143,8|0,3:2|0:0,0:0:0:0:
6,224,286670,1,0,0:0:0:0:
115,153,286820,2,0,P|132:191|127:240,2,89.9999976158143,2|0|0,0:0|3:2|0:0,0:0:0:0:
7,89,287270,1,0,0:0:0:0:
202,23,287570,1,10,3:2:0:0:
344,176,287870,5,0,0:0:0:0:
344,176,288020,2,0,L|256:192,1,89.9999976158143,0|2,0:0|0:0,0:0:0:0:
