osu file format v14

[General]
AudioFilename: audio.mp3
AudioLeadIn: 0
PreviewTime: 42096
Countdown: 0
SampleSet: Soft
StackLeniency: 0.7
Mode: 0
LetterboxInBreaks: 0
WidescreenStoryboard: 1

[Editor]
Bookmarks: 6304,30304,42304,54304,66304,72304,72679,89929
DistanceSpacing: 1.2
BeatDivisor: 4
GridSize: 4
TimelineZoom: 1.2

[Metadata]
Title:e of s (game edit)
TitleUnicode:e of s (game edit)
Artist:SawanoHiroyuki[nZk]:mizuki
ArtistUnicode:SawanoHiroyuki[nZk]:mizuki
Creator:Mao
Version:Easy
Source:ソウルリバース ゼロ
Tags:SOUL REVERSE ZERO sega Aimer rpg Yuii- Desperate-kun
BeatmapID:1170491
BeatmapSetID:541856

[Difficulty]
HPDrainRate:2
CircleSize:3
OverallDifficulty:2
ApproachRate:3
SliderMultiplier:1.6
SliderTickRate:1

[Events]
//Background and Video events
Video,0,"video.avi"
0,0,"02.jpg",0,0
//Break Periods
//Storyboard Layer 0 (Background)
//Storyboard Layer 1 (Fail)
//Storyboard Layer 2 (Pass)
//Storyboard Layer 3 (Foreground)
//Storyboard Sound Samples

[TimingPoints]
304,750,4,2,0,60,1,0
6866,-100,4,2,0,30,0,0
30304,-100,4,2,0,30,0,0
42304,-83.3333333333333,4,2,0,90,0,1
47366,-83.3333333333333,4,2,0,60,0,1
47554,-83.3333333333333,4,2,0,90,0,1
49991,-83.3333333333333,4,2,0,60,0,1
50179,-83.3333333333333,4,2,0,90,0,1
65929,-83.3333333333333,4,2,0,90,0,1
66304,-100,4,2,0,60,0,0
72304,-100,4,2,0,80,0,0
74554,-100,4,2,0,80,0,0
75304,-100,4,2,0,80,0,0
77554,-100,4,2,0,80,0,0
78304,-100,4,2,0,80,0,0
80554,-100,4,2,0,80,0,0
81304,-100,4,2,0,80,0,0
83554,-100,4,2,0,80,0,0
84304,-100,4,2,0,80,0,0
85804,-100,4,2,0,80,0,0
86554,-100,4,2,0,80,0,0
87304,-100,4,2,0,80,0,0
89929,-100,4,2,0,80,0,0
90116,-100,4,2,0,5,0,0

[Colours]
Combo1 : 2,253,203
Combo2 : 102,102,249
Combo3 : 244,91,122
Combo4 : 174,71,243

[HitObjects]
19,209,6304,6,0,P|70:253|156:226,1,160,4|2,0:0|3:3,0:0:0:0:
281,87,7804,1,2,0:0:0:0:
286,182,8179,2,0,L|295:316,1,120,4|2,0:3|0:0,0:0:0:0:
432,262,9304,6,0,L|421:99,1,160,4|2,0:0|3:0,0:0:0:0:
241,34,10804,1,0,0:0:0:0:
197,119,11179,2,0,P|120:120|63:63,1,160,4|0,0:3|0:0,0:0:0:0:
3,139,12304,6,0,L|33:312,1,160,4|2,0:0|3:3,0:0:0:0:
205,376,13804,1,2,0:0:0:0:
341,241,14554,1,2,0:0:0:0:
184,129,15304,6,0,L|101:146,1,80,4|2,0:3|0:0,0:0:0:0:
69,56,16054,2,0,L|186:31,2,120,2|2|4,3:0|0:0|0:3,0:0:0:0:
26,243,17929,1,0,0:0:0:0:
114,206,18304,6,0,P|160:249|160:347,1,160,4|2,0:0|3:0,0:0:0:0:
350,379,19804,1,2,0:0:0:0:
340,283,20179,2,0,L|331:163,1,120,4|2,0:0|0:0,0:0:0:0:
447,76,21304,6,0,L|457:235,1,160,4|2,0:0|3:0,0:0:0:0:
350,379,22804,1,2,0:0:0:0:
294,300,23179,2,0,P|238:273|153:311,1,160,4|0,0:3|0:0,0:0:0:0:
81,373,24304,6,0,L|41:211,1,160,4|2,0:0|3:0,0:0:0:0:
109,37,25804,1,0,0:0:0:0:
256,160,26554,1,2,0:0:0:0:
403,37,27304,6,0,L|488:54,1,80,4|0,0:0|0:0,0:0:0:0:
499,147,28054,2,0,L|327:112,1,160,2|4,3:0|0:0,0:0:0:0:
256,160,29179,1,4,0:3:0:0:
170,115,29554,1,2,0:0:0:0:
84,71,29929,1,0,0:0:0:0:
77,166,30304,6,0,P|83:236|17:289,1,160,6|4,0:0|3:0,0:0:0:0:
82,360,31429,2,0,L|241:372,1,160,2|4,0:0|0:3,0:0:0:0:
427,323,32929,2,0,P|433:342|436:361,1,40,4|0,0:3|0:0,0:0:0:0:
340,356,33491,2,0,P|335:307|454:234,1,200,2|0,0:0|0:0,0:0:0:0:
62,43,35929,5,2,0:0:0:0:
78,137,36304,2,0,P|109:172|223:166,1,160,4|2,0:0|3:0,0:0:0:0:
264,89,37429,2,0,P|340:75|401:123,1,160,4|4,0:0|0:3,0:0:0:0:
455,308,38929,2,0,L|469:369,2,40,2|4|0,0:0|0:3|0:0,0:0:0:0:
379,248,39679,2,0,B|305:238|282:302|284:306|286:309|263:376|190:364,1,240,2|0,0:0|0:0,0:0:0:0:
16,40,42304,6,0,L|40:241,1,191.999994140625,4|0,1:0|1:0,0:0:0:0:
59,344,43429,1,4,3:0:0:0:
145,267,43804,2,0,B|190:230|232:265|232:267|232:271|275:307|321:267,1,191.999994140625,2|0,0:0|1:0,0:0:0:0:
400,350,44929,1,2,0:0:0:0:
482,271,45304,6,0,P|497:201|281:40,1,383.99998828125,4|4,1:0|3:0,0:0:0:0:
199,120,47179,1,4,0:0:0:0:
254,221,47554,2,0,P|265:271|245:326,1,95.9999970703126,0|0,1:0|0:0,0:0:0:0:
155,374,48304,6,0,P|72:358|36:260,1,191.999994140625,4|0,3:0|1:0,0:0:0:0:
71,156,49429,2,0,L|127:24,2,143.999995605469,4|4|0,3:0|0:0|1:0,0:0:0:0:
147,242,50929,1,0,0:0:0:0:
245,181,51304,6,0,P|292:187|329:228,1,95.9999970703126,4|2,3:0|0:0,0:0:0:0:
373,325,52054,2,0,P|450:319|490:218,1,191.999994140625,4|0,1:2|0:0,0:0:0:0:
468,109,53179,1,4,3:0:0:0:
356,80,53554,2,0,L|259:64,1,95.9999970703126,0|4,1:0|3:0,0:0:0:0:
146,54,54304,6,0,P|160:110|59:190,1,191.999994140625,4|0,1:0|1:0,0:0:0:0:
16,293,55429,1,4,3:0:0:0:
110,359,55804,2,0,B|155:321|197:356|197:359|197:362|240:398|286:359,1,191.999994140625,0|0,0:0|1:0,0:0:0:0:
391,309,56929,1,2,0:0:0:0:
493,255,57304,6,0,L|479:189,1,47.9999985351563,4|4,3:0|0:0,0:0:0:0:
453,96,57866,2,0,B|350:10|256:89|256:96|256:104|159:184|55:96,1,431.999986816407,4|0,0:0|1:0,0:0:0:0:
4,199,59929,1,4,3:0:0:0:
34,310,60304,6,0,P|78:342|200:290,1,191.999994140625,4|0,1:0|1:0,0:0:0:0:
305,262,61429,2,0,L|294:363,2,95.9999970703126,4|0|2,3:0|0:0|0:0,0:0:0:0:
214,190,62554,1,0,1:0:0:0:
314,134,62929,1,2,0:0:0:0:
221,63,63304,6,0,P|176:44|119:60,1,95.9999970703126,4|0,3:0|0:0,0:0:0:0:
65,146,64054,2,0,L|91:352,1,191.999994140625,4|0,1:2|0:0,0:0:0:0:
196,376,65179,1,4,3:0:0:0:
181,261,65554,2,0,L|168:165,1,95.9999970703126,0|2,1:0|3:0,0:0:0:0:
151,39,66304,5,4,0:0:0:0:
354,73,67054,2,0,L|440:61,1,80,2|4,0:0|0:0,0:0:0:0:
489,140,67804,2,0,L|403:152,1,80,2|0,0:0|0:0,0:0:0:0:
315,167,68554,1,2,0:0:0:0:
373,242,68929,1,0,0:0:0:0:
251,92,69679,5,0,0:0:0:0:
158,73,70054,2,0,L|72:61,1,80,2|4,0:0|0:0,0:0:0:0:
23,140,70804,2,0,L|109:152,1,80,2|0,0:0|0:0,0:0:0:0:
197,167,71554,1,2,0:0:0:0:
139,242,71929,1,0,0:0:0:0:
234,252,72304,6,0,L|404:280,1,160,4|0,1:0|1:0,0:0:0:0:
485,298,73429,1,4,3:0:0:0:
457,206,73804,2,0,L|475:126,1,80,2|6,0:0|3:0,0:0:0:0:
401,66,74554,2,0,L|383:146,1,80,2|2,1:3|3:0,0:0:0:0:
288,161,75304,6,0,B|238:173|219:131|220:128|221:126|203:84|154:96,1,160,4|4,0:0|1:2,0:0:0:0:
61,117,76429,1,4,3:0:0:0:
19,203,76804,2,0,P|11:246|24:286,1,80,2|2,0:0|0:0,0:0:0:0:
113,256,77554,2,0,P|121:299|108:339,1,80,2|6,1:3|1:3,0:0:0:0:
202,361,78304,6,0,P|216:306|197:203,1,160,4|0,1:0|1:0,0:0:0:0:
133,134,79429,1,4,3:0:0:0:
181,51,79804,2,0,L|269:39,1,80,2|6,0:0|3:0,0:0:0:0:
316,118,80554,2,0,L|404:130,1,80,6|2,1:3|3:0,0:0:0:0:
473,72,81304,6,0,P|494:147|487:238,1,160,4|0,0:0|1:0,0:0:0:0:
455,318,82429,1,4,3:0:0:0:
366,281,82804,2,0,P|330:272|285:289,1,80,2|6,0:0|3:0,0:0:0:0:
230,360,83554,2,0,P|194:369|149:352,1,80,2|2,1:3|0:3,0:0:0:0:
89,285,84304,6,0,L|54:121,1,160,4|0,1:0|1:0,0:0:0:0:
98,42,85429,1,4,3:0:0:0:
187,77,85804,2,0,P|201:113|196:153,1,80,6|6,1:3|3:0,0:0:0:0:
177,247,86554,2,0,P|171:286|185:323,1,80,0|2,1:0|0:0,0:0:0:0:
271,367,87304,6,0,L|444:328,1,160,4|0,0:0|1:0,0:0:0:0:
502,271,88429,1,4,3:0:0:0:
413,233,88804,2,0,P|412:192|429:154,1,80,4|4,1:2|0:0,0:0:0:0:
501,94,89554,2,0,P|502:53|484:15,1,80,0|4,1:0|0:0,0:0:0:0:
