osu file format v14

[General]
AudioFilename: audio.mp3
AudioLeadIn: 0
PreviewTime: 162561
Countdown: 1
SampleSet: Soft
StackLeniency: 0.7
Mode: 0
LetterboxInBreaks: 0
WidescreenStoryboard: 1

[Editor]
DistanceSpacing: 1.1
BeatDivisor: 4
GridSize: 16
TimelineZoom: 2.3

[Metadata]
Title:Keep on keeping on
TitleUnicode:Keep on keeping on
Artist:SawanoHiroyuki[nZk]mizuki
ArtistUnicode:SawanoHiroyuki[nZk]mizuki
Creator:Shishou
Version:Easy
Source:アルドノア・ゼロ
Tags:Aldnoah.Zero ost kantandez
BeatmapID:1105608
BeatmapSetID:519795

[Difficulty]
HPDrainRate:2
CircleSize:2.8
OverallDifficulty:2
ApproachRate:3
SliderMultiplier:0.8
SliderTickRate:1

[Events]
//Background and Video events
0,0,"bzFksrk.jpg",0,0
//Break Periods
2,101577,107516
2,156840,161832
//Storyboard Layer 0 (Background)
//Storyboard Layer 1 (Fail)
//Storyboard Layer 2 (Pass)
//Storyboard Layer 3 (Foreground)
//Storyboard Layer 4 (Overlay)
//Storyboard Sound Samples

[TimingPoints]
325,315.789473684211,4,2,1,70,1,0
48325,-100,4,2,1,40,0,0
48877,-100,4,2,1,5,0,0
48956,-100,4,2,1,40,0,0
49509,-100,4,2,1,5,0,0
49588,-100,4,2,1,70,0,0
50219,-100,4,2,1,14,0,0
50851,-100,4,2,1,70,0,1
71061,-100,4,2,1,70,0,0
108956,-100,4,2,1,70,0,0
109509,-100,4,2,1,5,0,0
109588,-100,4,2,1,70,0,0
110140,-100,4,2,1,5,0,0
110219,-100,4,2,1,70,0,0
110772,-100,4,2,1,5,0,0
110851,-100,4,2,1,70,0,0
111403,-100,4,2,1,5,0,0
111482,-100,4,2,1,70,0,1
131693,-100,4,2,1,70,0,0
151903,-100,4,2,1,70,0,0
162640,-100,4,2,1,70,0,0
163272,-100,4,2,1,70,0,1
183482,-100,4,2,1,70,0,0
193588,-100,4,2,1,70,0,0
223825,-100,4,2,1,5,0,0
223903,-100,4,2,1,5,0,0

[Colours]
Combo1 : 224,29,1
Combo2 : 171,126,33
Combo3 : 0,0,168
Combo4 : 215,215,0

[HitObjects]
124,277,325,6,0,P|173:273|221:290,1,80,4|8,1:2|0:0,0:0:0:0:
263,344,956,2,0,P|301:352|340:343,1,80,0|8,0:0|0:0,0:0:0:0:
415,296,1588,2,0,P|439:242|410:173,2,120,0|0|8,1:0|1:0|0:0,0:0:0:0:
349,236,2851,6,0,L|252:219,1,80,0|8,1:0|0:0,0:0:0:0:
206,161,3482,2,0,P|198:111|209:72,1,80,0|8,0:0|0:0,0:0:0:0:
279,36,4114,6,0,L|404:53,2,120,0|0|8,1:0|1:0|0:0,0:0:0:0:
204,82,5377,2,0,P|137:93|100:86,1,80,0|8,1:0|0:0,0:0:0:0:
56,36,6009,2,0,P|37:82|36:118,1,80,0|8,0:0|0:0,0:0:0:0:
72,191,6640,6,0,P|85:238|59:336,2,120,0|0|8,1:0|1:0|0:0,0:0:0:0:
159,178,7903,2,0,L|239:190,1,80,0|8,1:0|0:0,0:0:0:0:
302,250,8535,2,0,P|290:298|297:340,1,80,0|8,0:0|0:0,0:0:0:0:
380,300,9167,6,0,P|390:233|392:145,2,120,0|0|8,1:0|1:0|0:0,0:0:0:0:
293,327,10430,2,0,P|244:337|201:329,1,80,4|8,1:2|0:0,0:0:0:0:
140,285,11061,2,0,P|94:278|35:298,1,80,0|8,0:0|0:0,0:0:0:0:
17,208,11693,6,0,P|1:149|46:82,2,120,0|0|8,1:0|1:0|0:0,0:0:0:0:
90,158,12956,2,0,L|206:157,1,80,0|8,1:0|0:0,0:0:0:0:
250,193,13588,2,0,P|245:238|257:278,1,80,0|8,0:0|0:0,0:0:0:0:
321,327,14219,6,0,L|474:323,2,120,0|0|8,1:0|1:0|0:0,0:0:0:0:
237,354,15482,2,0,L|147:359,1,80,0|8,1:0|0:0,0:0:0:0:
96,294,16114,2,0,P|86:236|95:208,1,80,0|8,0:0|0:0,0:0:0:0:
163,165,16746,6,0,B|170:116|170:116|161:81|161:81|166:14,2,120,0|0|8,1:0|1:0|0:0,0:0:0:0:
226,228,18009,2,0,P|271:232|310:224,1,80,0|8,1:0|0:0,0:0:0:0:
373,170,18640,2,0,P|379:106|366:71,1,80,0|8,0:0|0:0,0:0:0:0:
462,81,19272,6,0,P|468:136|437:231,2,120,0|0|8,1:0|1:0|0:0,0:0:0:0:
374,92,20535,6,0,L|272:98,1,80,4|8,1:2|0:0,0:0:0:0:
121,59,21482,1,8,0:0:0:0:
77,135,21798,6,0,P|54:191|79:255,2,120,0|0|8,1:0|1:0|0:0,0:0:0:0:
139,195,23061,2,0,P|152:260|141:296,1,80,0|8,1:0|0:0,0:0:0:0:
304,356,24009,1,8,0:0:0:0:
378,309,24325,6,0,P|402:263|364:177,2,120,0|0|8,1:0|1:0|0:0,0:0:0:0:
313,248,25588,2,0,P|292:192|289:159,1,80,0|8,1:0|0:0,0:0:0:0:
152,62,26535,1,8,0:0:0:0:
83,117,26851,6,0,B|74:178|74:178|99:260,2,120,0|0|8,1:0|1:0|0:0,0:0:0:0:
152,62,28114,2,0,L|244:57,1,80,0|8,1:0|0:0,0:0:0:0:
309,98,28746,2,0,L|408:95,1,80,0|8,0:0|0:0,0:0:0:0:
455,152,29377,6,0,P|473:200|434:290,2,120,0|0|8,1:0|1:0|0:0,0:0:0:0:
388,209,30640,2,0,L|308:211,1,80,4|8,1:2|0:0,0:0:0:0:
169,320,31588,1,8,0:0:0:0:
110,254,31903,6,0,P|98:206|112:113,2,120,0|0|8,1:0|1:0|0:0,0:0:0:0:
192,222,33167,2,0,L|297:217,1,80,0|8,1:0|0:0,0:0:0:0:
407,105,34114,1,8,0:0:0:0:
470,166,34430,6,0,P|478:223|461:286,2,120,0|0|8,1:0|1:0|0:0,0:0:0:0:
384,187,35693,2,0,L|293:176,1,80,0|8,1:0|0:0,0:0:0:0:
139,239,36640,1,8,0:0:0:0:
67,188,36956,6,0,B|60:138|60:138|72:113|72:113|65:40,2,120,0|0|8,1:0|1:0|0:0,0:0:0:0:
149,156,38219,2,0,L|257:151,1,80,0|8,1:0|0:0,0:0:0:0:
316,165,38851,2,0,P|326:226|315:264,1,80,0|8,0:0|0:0,0:0:0:0:
293,326,39482,1,0,1:0:0:0:
214,286,39798,2,0,L|42:279,1,160,8|8,0:0|0:0,0:0:0:0:
14,200,40746,6,0,P|1:146|51:71,2,120,4|0|8,1:2|0:0|0:0,0:0:0:0:
90,156,42009,2,0,L|196:158,1,80,0|8,1:0|0:0,0:0:0:0:
230,221,42640,1,0,0:0:0:0:
276,146,42956,6,0,P|330:124|439:165,1,160,8|8,0:0|0:0,0:0:0:0:
462,230,43903,2,0,P|467:270|452:320,1,80,0|8,0:0|0:0,0:0:0:0:
372,330,44535,6,0,L|236:338,2,120,0|0|8,1:0|1:0|0:0,0:0:0:0:
370,241,45798,2,0,L|375:145,1,80,0|8,1:0|0:0,0:0:0:0:
241,44,46746,1,8,0:0:0:0:
161,81,47061,6,0,P|143:127|190:212,2,120,0|0|8,1:0|1:0|0:0,0:0:0:0:
241,44,48325,2,0,L|404:41,2,160
330,298,50851,6,0,P|386:316|459:286,2,120,4|0|8,1:2|1:0|0:0,0:0:0:0:
266,236,52114,2,0,L|274:144,1,80,0|8,0:0|0:0,0:0:0:0:
361,158,52746,2,0,L|369:66,1,80,0|8,1:0|0:0,0:0:0:0:
291,34,53377,6,0,P|226:21|157:69,2,120,0|0|8,1:0|1:0|0:0,0:0:0:0:
239,105,54640,2,0,P|186:130|153:127,1,80,0|8,0:0|0:0,0:0:0:0:
93,180,55272,2,0,L|82:270,1,80,0|8,1:0|0:0,0:0:0:0:
138,328,55903,6,0,P|189:351|254:333,2,120,0|0|8,1:0|1:0|0:0,0:0:0:0:
199,264,57167,2,0,P|235:246|278:242,1,80,0|8,0:0|0:0,0:0:0:0:
348,289,57798,2,0,P|403:287|426:275,1,80,0|8,1:0|0:0,0:0:0:0:
370,206,58430,6,0,P|363:158|384:81,2,120,0|0|8,1:0|1:0|0:0,0:0:0:0:
281,206,59693,2,0,L|186:201,1,80,0|8,1:0|0:0,0:0:0:0:
122,242,60325,2,0,P|115:295|129:323,1,80,0|8,0:0|0:0,0:0:0:0:
211,335,60956,6,0,P|250:320|334:338,2,120,4|0|8,1:2|1:0|0:0,0:0:0:0:
125,317,62219,2,0,L|28:320,2,80,0|8|0,1:0|0:0|0:0,0:0:0:0:
170,241,63167,1,8,0:0:0:0:
100,187,63482,6,0,P|79:122|107:68,2,120,0|0|8,1:0|1:0|0:0,0:0:0:0:
170,133,64746,2,0,L|259:129,1,80,0|8,1:0|0:0,0:0:0:0:
327,170,65377,2,0,P|333:217|319:255,1,80,0|8,0:0|0:0,0:0:0:0:
246,290,66009,6,0,B|188:279|188:279|113:295,2,120,0|0|8,1:0|1:0|0:0,0:0:0:0:
321,338,67272,2,0,L|405:332,1,80,0|8,1:0|0:0,0:0:0:0:
470,278,67903,2,0,P|482:238|475:197,1,80,0|8,0:0|0:0,0:0:0:0:
395,165,68535,6,0,P|377:117|450:48,2,160,0|0|0,1:0|0:0|1:0,0:0:0:0:
321,212,70114,1,8,0:0:0:0:
252,156,70430,2,0,L|165:152,1,80,0|8,0:0|0:0,0:0:0:0:
86,174,71061,6,0,P|70:220|72:258,2,80,4|8|0,1:2|0:0|0:0,0:0:0:0:
100,86,72009,1,8,0:0:0:0:
176,42,72325,6,0,B|228:73|228:73|304:62,2,120,0|0|8,1:0|1:0|0:0,0:0:0:0:
141,122,73588,6,0,P|149:177|127:219,1,80,0|8,1:0|0:0,0:0:0:0:
57,226,74219,2,0,P|50:273|62:319,1,80,0|8,0:0|0:0,0:0:0:0:
143,314,74851,6,0,P|193:345|264:329,2,120,0|0|8,1:0|1:0|0:0,0:0:0:0:
210,257,76114,2,0,P|264:246|299:250,1,80,0|8,1:0|0:0,0:0:0:0:
367,287,76746,2,0,P|361:342|377:381,1,80,0|8,0:0|0:0,0:0:0:0:
449,330,77377,6,0,L|466:187,2,120,0|0|8,1:0|1:0|0:0,0:0:0:0:
368,293,78640,6,0,L|281:268,1,80,0|8,1:0|0:0,0:0:0:0:
228,208,79272,2,0,P|219:163|229:124,1,80,0|8,0:0|0:0,0:0:0:0:
292,72,79903,6,0,B|332:48|332:48|419:65,2,120,0|0|8,1:0|1:0|3:0,0:0:0:0:
205,55,81167,2,0,L|88:47,1,80,4|8,1:2|0:0,0:0:0:0:
63,112,81798,2,0,P|53:156|62:205,1,80,0|8,0:0|0:0,0:0:0:0:
113,258,82430,2,0,B|154:286|154:286|250:285,2,120,0|0|8,1:0|1:0|0:0,0:0:0:0:
179,200,83693,5,0,1:0:0:0:
257,160,84009,2,0,P|339:141|428:177,1,160,8|8,0:0|0:0,0:0:0:0:
455,238,84956,2,0,P|466:309|452:378,2,120,0|0|8,1:0|1:0|0:0,0:0:0:0:
409,162,86219,6,0,L|410:72,1,80,0|8,1:0|0:0,0:0:0:0:
333,37,86851,2,0,P|284:55|252:58,1,80,0|8,0:0|0:0,0:0:0:0:
176,93,87482,2,0,P|155:143|194:220,2,120,0|0|8,1:0|1:0|0:0,0:0:0:0:
243,149,88746,6,0,P|258:201|241:241,1,80,0|8,1:0|0:0,0:0:0:0:
194,291,89377,2,0,L|111:291,2,80,0|8|0,0:0|0:0|1:0,0:0:0:0:
265,342,90325,2,0,B|303:322|303:322|437:333,1,160,8|8,0:0|0:0,0:0:0:0:
466,256,91272,6,0,P|477:213|462:155,1,80,4|8,1:2|0:0,0:0:0:0:
387,156,91903,2,0,P|381:92|393:61,1,80,0|8,0:0|0:0,0:0:0:0:
297,66,92535,2,0,P|259:105|180:101,2,120,0|0|8,1:0|1:0|0:0,0:0:0:0:
220,25,93798,1,0,1:0:0:0:
134,47,94114,6,0,P|110:91|119:206,1,160,8|8,0:0|0:0,0:0:0:0:
173,264,95061,2,0,L|321:276,2,120,0|0|8,1:0|1:0|0:0,0:0:0:0:
84,258,96325,5,0,1:0:0:0:
61,173,96640,2,0,P|47:91|107:28,1,160,8|8,0:0|0:0,0:0:0:0:
179,45,97588,2,0,L|325:58,2,120,0|0|8,1:0|1:0|0:0,0:0:0:0:
170,132,98851,6,0,P|182:179|173:231,1,80,0|8,1:0|0:0,0:0:0:0:
93,208,99482,2,0,P|83:261|97:305,1,80,0|8,0:0|0:0,0:0:0:0:
167,324,100114,2,0,P|210:315|270:323,1,80,0|8,1:0|0:0,0:0:0:0:
332,299,100746,6,0,L|352:208,2,80,0|8|4,0:0|0:0|1:2,0:0:0:0:
190,242,108956,6,0,B|252:210|252:210|355:232,2,160,0|0|0,0:0|0:0|0:0,0:0:0:0:
341,229,111482,6,0,L|354:90,2,120,4|0|8,1:2|1:0|0:0,0:0:0:0:
280,282,112746,2,0,P|221:300|190:295,1,80,0|8,0:0|0:0,0:0:0:0:
132,243,113377,2,0,P|122:205|126:166,1,80,0|8,1:0|0:0,0:0:0:0:
209,135,114009,6,0,P|179:92|93:86,2,120,0|0|8,1:0|1:0|0:0,0:0:0:0:
276,191,115272,2,0,L|368:179,1,80,0|8,0:0|0:0,0:0:0:0:
435,216,115903,2,0,P|448:262|438:315,1,80,0|8,1:0|0:0,0:0:0:0:
368,336,116535,6,0,B|324:357|324:357|221:343,2,120,0|0|8,1:0|1:0|0:0,0:0:0:0:
309,269,117798,6,0,L|204:254,1,80,0|8,0:0|0:0,0:0:0:0:
175,188,118430,2,0,P|164:140|173:103,1,80,0|8,1:0|0:0,0:0:0:0:
232,48,119061,6,0,P|280:26|366:63,2,120,0|0|8,1:0|1:0|0:0,0:0:0:0:
290,113,120325,2,0,L|299:207,1,80,0|8,1:0|0:0,0:0:0:0:
383,214,120956,2,0,L|392:308,1,80,0|8,0:0|0:0,0:0:0:0:
317,343,121588,6,0,B|256:362|256:362|171:338,2,120,4|0|8,1:2|1:0|0:0,0:0:0:0:
261,274,122851,2,0,L|163:252,1,80,0|8,1:0|0:0,0:0:0:0:
113,202,123482,2,0,P|103:144|116:111,1,80,0|8,0:0|0:0,0:0:0:0:
168,59,124114,2,0,P|208:101|291:95,2,120,0|0|8,1:0|1:0|0:0,0:0:0:0:
246,20,125377,6,0,L|356:22,1,80,0|8,1:0|0:0,0:0:0:0:
401,67,126009,2,0,P|419:124|402:177,1,80,0|8,0:0|0:0,0:0:0:0:
338,183,126640,6,0,B|331:248|331:248|350:322,2,120,4|0|8,1:2|1:0|0:0,0:0:0:0:
260,141,127903,2,0,P|207:135|161:138,1,80,0|8,1:0|0:0,0:0:0:0:
134,211,128535,2,0,P|82:216|35:201,1,80,0|8,0:0|0:0,0:0:0:0:
11,133,129167,6,0,P|0:89|15:42,1,80,0|8,1:0|0:0,0:0:0:0:
84,12,129798,2,0,P|137:21|170:11,1,80,0|8,0:0|0:0,0:0:0:0:
231,69,130430,2,0,P|205:129|342:176,1,240,8|8,0:2|0:2,0:0:0:0:
417,203,131693,6,0,P|429:247|422:297,1,80,4|8,1:2|0:0,0:0:0:0:
358,337,132325,2,0,L|267:337,1,80,0|8,0:0|0:0,0:0:0:0:
196,303,132956,2,0,B|159:284|159:284|68:298,2,120,0|0|8,1:0|1:0|0:0,0:0:0:0:
257,240,134219,6,0,P|276:200|277:148,1,80,0|8,1:0|0:0,0:0:0:0:
217,101,134851,2,0,P|236:50|272:19,1,80,0|8,0:0|0:0,0:0:0:0:
337,56,135482,2,0,L|475:52,2,120,0|0|8,0:0|1:0|0:0,0:0:0:0:
252,31,136746,6,0,P|205:28|146:40,1,80,4|8,1:2|0:0,0:0:0:0:
138,113,137377,2,0,P|98:117|57:110,1,80,0|8,0:0|0:0,0:0:0:0:
30,194,138009,2,0,P|19:242|53:322,2,120,0|0|8,0:0|1:0|0:0,0:0:0:0:
107,241,139272,6,0,L|216:235,1,80,0|8,1:0|0:0,0:0:0:0:
255,291,139903,2,0,L|359:287,1,80,0|8,0:0|0:0,0:0:0:0:
407,237,140535,2,0,P|386:173|421:100,2,120,0|0|8,1:0|1:0|0:0,0:0:0:0:
328,277,141798,6,0,B|269:304|269:304|158:274,1,160,4|0,1:2|0:0,0:0:0:0:
90,297,142746,1,8,0:0:0:0:
75,210,143061,6,0,P|50:157|81:78,2,120,0|0|8,1:0|1:0|0:0,0:0:0:0:
137,147,144325,6,0,L|246:141,1,80,0|8,1:0|0:0,0:0:0:0:
376,67,145272,1,8,0:0:0:0:
427,138,145588,6,0,B|438:183|438:183|421:265,2,120,0|0|8,1:0|1:0|0:0,0:0:0:0:
341,157,146851,2,4,P|285:163|234:148,1,80,4|8,1:2|0:0,0:0:0:0:
115,61,147798,1,8,0:0:0:0:
62,131,148114,6,0,P|43:181|75:260,2,120,0|0|8,1:0|1:0|0:0,0:0:0:0:
130,186,149377,2,0,L|235:182,1,80,0|8,1:0|0:0,0:0:0:0:
273,243,150009,2,0,L|379:239,1,80,0|8,0:0|0:0,0:0:0:0:
426,191,150640,2,0,P|449:131|414:67,2,120,8|4|8,1:2|0:3|0:0,0:0:0:0:
359,133,151903,6,0,L|244:115,1,80,4|8,1:2|0:0,0:0:0:0:
197,151,152535,2,0,P|183:195|219:269,2,120,0|8|8,0:0|0:0|0:0,0:0:0:0:
142,81,153798,2,0,L|53:72,1,80,0|8,1:0|0:0,0:0:0:0:
6,141,154430,6,0,P|1:187|19:236,1,80,0|8,1:0|0:0,0:0:0:0:
96,236,155061,2,0,P|103:289|55:378,2,120,0|8|8,0:0|0:0|0:0,0:0:0:0:
165,181,156325,2,0,L|265:172,1,80,0|12,1:0|0:0,0:0:0:0:
390,322,163272,6,0,P|410:262|389:189,2,120,4|0|8,1:2|1:0|0:0,0:0:0:0:
302,316,164535,2,0,B|260:312|260:312|215:315,1,80,0|8,0:0|0:0,0:0:0:0:
164,247,165167,2,0,B|155:200|155:200|165:157,1,80,0|8,1:0|0:0,0:0:0:0:
227,109,165798,6,0,P|263:94|352:111,2,120,0|0|8,1:0|1:0|0:0,0:0:0:0:
139,113,167061,2,0,P|90:107|61:87,2,80,0|8|0,0:0|0:0|0:0,0:0:0:0:
196,180,168009,2,0,B|205:226|205:226|182:282,1,80,8|4,0:0|1:2,0:0:0:0:
132,320,168640,6,0,P|202:304|290:326,1,160,8|8,0:0|0:0,0:0:0:0:
366,286,169588,2,0,P|374:239|366:203,1,80,0|8,0:0|0:0,0:0:0:0:
286,174,170219,2,0,P|279:134|287:95,1,80,0|8,1:0|0:0,0:0:0:0:
222,36,170851,6,0,P|187:73|136:80,1,80,0|8,1:0|0:0,0:0:0:0:
73,98,171482,2,0,P|66:139|77:192,1,80,0|8,0:0|0:0,0:0:0:0:
155,202,172114,6,0,P|162:253|154:308,1,80,0|8,1:0|0:0,0:0:0:0:
237,323,172746,2,0,L|347:318,1,80,8|4,3:0|3:0,0:0:0:0:
396,281,173377,6,0,P|423:239|400:150,2,120,4|0|8,1:2|1:0|0:0,0:0:0:0:
338,214,174640,2,0,L|256:200,1,80,0|8,1:0|0:0,0:0:0:0:
189,146,175272,2,0,P|181:92|194:52,1,80,0|8,0:0|0:0,0:0:0:0:
269,38,175903,6,0,L|401:33,2,120,0|0|8,1:0|1:0|0:0,0:0:0:0:
186,70,177167,2,0,L|108:57,1,80,0|8,1:0|0:0,0:0:0:0:
39,112,177798,2,0,P|30:156|38:190,1,80,0|8,0:0|0:0,0:0:0:0:
72,270,178430,6,0,B|119:302|119:302|205:298,2,120,4|0|8,1:2|1:0|0:0,0:0:0:0:
137,211,179693,2,0,L|231:209,1,80,0|8,1:0|0:0,0:0:0:0:
296,247,180325,2,0,P|285:297|306:343,1,80,0|8,0:0|0:0,0:0:0:0:
372,286,180956,6,0,P|380:247|368:209,1,80,0|8,1:0|0:0,0:0:0:0:
300,152,181588,2,0,P|292:100|317:64,1,80,8|8,0:0|0:0,0:0:0:0:
230,27,182219,2,0,P|188:11|87:155,1,240,8|8,3:0|0:0,0:0:0:0:
145,192,183482,6,0,P|154:242|146:283,1,80,4|8,1:2|0:0,0:0:0:0:
204,339,184114,2,0,B|260:349|260:349|340:338,2,120,0|0|8,0:0|0:0|0:0,0:0:0:0:
149,270,185377,2,0,P|105:266|51:270,1,80,0|8,0:0|0:0,0:0:0:0:
19,194,186009,6,0,P|13:137|24:104,1,80,0|8,1:0|0:0,0:0:0:0:
85,57,186640,2,0,P|106:108|177:135,2,120,0|0|8,0:0|0:0|0:0,0:0:0:0:
172,47,187903,2,0,L|280:42,1,80,0|8,0:0|0:0,0:0:0:0:
321,97,188535,6,0,P|329:139|316:193,1,80,4|8,1:2|0:0,0:0:0:0:
235,185,189167,2,0,P|227:229|239:271,1,80,0|8,0:0|0:0,0:0:0:0:
168,320,189798,6,0,P|119:302|28:324,2,120,0|0|8,1:0|1:0|0:0,0:0:0:0:
249,352,191061,2,0,L|341:349,1,80,0|8,1:0|0:0,0:0:0:0:
399,296,191693,2,0,P|413:253|411:208,1,80,0|8,0:0|0:0,0:0:0:0:
339,169,192325,2,0,P|325:117|356:35,2,120,0|0|8,1:0|1:0|0:0,0:0:0:0:
253,190,193588,6,0,L|160:179,1,80,4|8,1:2|0:0,0:0:0:0:
91,211,194219,2,0,P|76:252|96:304,1,80,0|8,0:0|0:0,0:0:0:0:
153,341,194851,2,0,P|192:324|280:342,2,120,0|0|8,1:0|1:0|0:0,0:0:0:0:
83,286,196114,2,0,P|74:233|90:178,1,80,0|8,1:0|0:0,0:0:0:0:
159,173,196746,2,0,P|166:130|136:67,1,80,0|8,0:0|0:0,0:0:0:0:
89,38,197377,2,0,B|46:60|46:60|10:133,2,120,0|0|8,1:0|1:0|0:0,0:0:0:0:
176,43,198640,6,0,L|285:39,1,80,4|8,1:2|0:0,0:0:0:0:
327,92,199272,2,0,P|318:140|332:181,1,80,0|8,0:0|0:0,0:0:0:0:
408,199,199903,2,0,P|427:250|402:333,1,120,0|0,1:0|1:0,0:0:0:0:
282,307,200851,1,8,0:0:0:0:
196,327,201167,6,0,L|88:329,1,80,0|8,1:0|0:0,0:0:0:0:
69,253,201798,2,0,P|61:212|78:159,1,80,0|8,0:0|0:0,0:0:0:0:
154,150,202430,2,0,P|171:105|146:34,2,120,0|8|8,0:0|0:0|0:0,0:0:0:0:
216,214,203693,6,0,L|317:205,1,80,4|8,1:2|0:0,0:0:0:0:
373,248,204325,2,0,P|364:298|388:350,1,80,0|8,0:0|0:0,0:0:0:0:
451,288,204956,2,0,P|465:215|430:169,2,120,0|0|8,1:0|1:0|0:0,0:0:0:0:
369,322,206219,6,0,L|281:322,1,80,0|8,1:0|0:0,0:0:0:0:
212,277,206851,2,0,L|99:277,1,80,0|8,0:0|0:0,0:0:0:0:
71,212,207482,2,0,P|56:166|81:93,2,120,0|0|8,1:0|1:0|0:0,0:0:0:0:
143,161,208746,6,0,L|236:163,1,80,0|8,1:0|0:0,0:0:0:0:
309,181,209377,2,0,P|313:231|306:279,1,80,0|8,0:0|0:0,0:0:0:0:
395,281,210009,2,0,P|410:211|386:146,2,120,0|0|8,1:0|1:0|0:0,0:0:0:0:
320,327,211272,2,0,L|214:325,1,80,0|8,1:0|0:0,0:0:0:0:
179,261,211903,2,0,P|167:199|178:164,1,80,0|8,0:0|0:0,0:0:0:0:
241,130,212535,2,0,B|292:121|292:121|381:140,2,120,0|0|8,1:0|1:0|0:0,0:0:0:0:
161,166,213798,6,0,P|115:161|75:141,1,80,4|8,1:2|3:2,0:0:0:0:
51,229,214430,2,0,P|45:280|52:320,1,80,0|8,0:0|3:2,0:0:0:0:
133,332,215061,2,0,L|279:331,2,120,0|0|8,1:0|1:0|3:2,0:0:0:0:
52,307,216325,6,0,P|45:262|61:205,1,80,0|8,1:0|3:2,0:0:0:0:
136,209,216956,2,0,P|146:155|132:118,1,80,0|8,0:0|3:2,0:0:0:0:
87,60,217588,2,0,B|34:74|34:74|1:146,2,120,0|0|12,1:0|1:0|3:2,0:0:0:0:
173,42,218851,6,0,L|273:42,1,80,4|8,1:2|3:2,0:0:0:0:
311,108,219482,2,0,P|300:156|327:209,1,80,0|8,0:0|3:2,0:0:0:0:
395,200,220114,2,0,P|416:275|373:334,2,120,0|0|8,1:0|1:0|3:2,0:0:0:0:
329,258,221377,2,0,L|231:259,1,80,0|8,1:0|3:2,0:0:0:0:
173,304,222009,2,0,L|75:305,1,80,0|8,0:0|3:2,0:0:0:0:
48,229,222640,6,0,P|28:193|61:107,2,120,0|0|8,3:0|1:0|0:0,0:0:0:0:
116,173,223903,1,4,1:2:0:0:
