osu file format v14

[General]
AudioFilename: audio.mp3
AudioLeadIn: 0
PreviewTime: 43221
Countdown: 0
SampleSet: Soft
StackLeniency: 0.2
Mode: 0
LetterboxInBreaks: 0
WidescreenStoryboard: 1

[Editor]
Bookmarks: 11186,33255,44289,66358,93945,116014,127048,149117,171186,193255,215324,237393
DistanceSpacing: 0.2
BeatDivisor: 8
GridSize: 32
TimelineZoom: 0.8999999

[Metadata]
Title:CRY
TitleUnicode:CRY
Artist:SawanoHiroyuki[nZk]:mizuki
ArtistUnicode:SawanoHiroyuki[nZk]:mizuki
Creator:Irohas
Version:Absence
Source:銀河英雄伝説 Die Neue These
Tags:mugiwarasekai ginga eiyuu densetsu legend of the galactic heroes NHK版 version chaos drifters opening japanese anime pop jpop j-pop sawano hiroyuki
BeatmapID:2458957
BeatmapSetID:1179172

[Difficulty]
HPDrainRate:6
CircleSize:4.7
OverallDifficulty:7.5
ApproachRate:8
SliderMultiplier:2.3
SliderTickRate:1

[Events]
//Background and Video events
0,0,"bg.jpg",0,0
//Break Periods
//Storyboard Layer 0 (Background)
//Storyboard Layer 1 (Fail)
//Storyboard Layer 2 (Pass)
//Storyboard Layer 3 (Foreground)
//Storyboard Layer 4 (Overlay)
//Storyboard Sound Samples

[TimingPoints]
204,689.655172413793,4,2,2,30,1,0
204,-142.857142857143,4,2,2,30,0,0
9859,-166.666666666667,4,2,1,30,0,0
11238,-166.666666666667,4,2,2,30,0,0
16410,-166.666666666667,4,2,1,30,0,0
16583,-166.666666666667,4,2,2,30,0,0
18135,-166.666666666667,4,2,1,30,0,0
18652,-166.666666666667,4,2,2,30,0,0
19169,-166.666666666667,4,2,1,30,0,0
19341,-166.666666666667,4,2,2,30,0,0
22272,-142.857142857143,4,2,1,50,0,0
24600,-142.857142857143,4,2,1,5,0,0
24686,-142.857142857143,4,2,1,50,0,0
24772,-142.857142857143,4,2,1,5,0,0
25031,-142.857142857143,4,2,1,50,0,0
25893,-142.857142857143,4,2,2,50,0,0
26066,-142.857142857143,4,2,1,50,0,0
27445,-142.857142857143,4,2,2,50,0,0
27790,-142.857142857143,4,2,1,50,0,0
28652,-142.857142857143,4,2,2,50,0,0
28824,-142.857142857143,4,2,1,50,0,0
32962,-142.857142857143,4,2,2,50,0,0
33307,-142.857142857143,4,2,2,40,0,0
38824,-200,4,2,2,30,0,0
41583,-100,4,2,2,30,0,0
42962,-83.3333333333333,4,2,1,50,0,0
43307,-50,4,2,1,20,0,0
43652,-41.6666666666667,4,2,1,30,0,0
43997,-125,4,2,1,40,0,0
44169,-90.9090909090909,4,2,1,5,0,0
44341,-90.9090909090909,4,2,17,85,0,1
44686,-90.9090909090909,4,2,1,70,0,0
45290,-76.9230769230769,4,2,1,5,0,0
45376,-90.9090909090909,4,2,1,70,0,0
47100,-80,4,2,1,70,0,0
47359,-80,4,2,1,5,0,0
47445,-90.9090909090909,4,2,1,70,0,0
47531,-76.9230769230769,4,2,1,5,0,0
47790,-90.9090909090909,4,2,1,70,0,0
48048,-90.9090909090909,4,2,1,5,0,0
48135,-90.9090909090909,4,2,1,70,0,0
52617,-90.9090909090909,4,2,1,70,0,0
55376,-90.9090909090909,4,2,1,70,0,1
55721,-90.9090909090909,4,2,1,70,0,0
56066,-90.9090909090909,4,2,1,70,0,0
58135,-76.9230769230769,4,2,1,70,0,0
58393,-76.9230769230769,4,2,1,5,0,0
58479,-71.4285714285714,4,2,1,70,0,0
58566,-76.9230769230769,4,2,1,5,0,0
58652,-90.9090909090909,4,2,1,70,0,0
59083,-90.9090909090909,4,2,1,5,0,0
59169,-90.9090909090909,4,2,1,70,0,0
63479,-100,4,2,2,80,0,0
63652,-90.9090909090909,4,2,1,70,0,0
66410,-90.9090909090909,4,2,1,70,0,0
68479,-90.9090909090909,4,2,1,70,0,0
69169,-90.9090909090909,4,2,1,70,0,0
70203,-90.9090909090909,4,2,1,70,0,0
81238,-83.3333333333333,4,2,1,70,0,0
82272,-90.9090909090909,4,2,1,70,0,0
84341,-83.3333333333333,4,2,1,70,0,0
85031,-90.9090909090909,4,2,1,70,0,0
87445,-166.666666666667,4,2,1,70,0,0
88479,-666.666666666667,4,2,1,20,0,0
93997,-100,4,2,1,50,0,0
97272,-100,4,2,2,50,0,0
97445,-100,4,2,1,50,0,0
100031,-100,4,2,2,50,0,0
100203,-100,4,2,1,50,0,0
105031,-142.857142857143,4,2,1,50,0,0
110203,-142.857142857143,4,2,2,50,0,0
110548,-142.857142857143,4,2,1,50,0,0
112962,-142.857142857143,4,2,2,50,0,0
113307,-142.857142857143,4,2,1,50,0,0
115721,-142.857142857143,4,2,2,50,0,0
121583,-166.666666666667,4,2,1,50,0,0
124341,-166.666666666667,4,2,2,30,0,0
125721,-105.263157894737,4,2,1,30,0,0
126928,-105.263157894737,4,2,1,5,0,0
127100,-86.9565217391304,4,2,17,85,0,1
127445,-90.9090909090909,4,2,1,70,0,0
130117,-90.9090909090909,4,2,1,5,0,0
130203,-71.4285714285714,4,2,1,70,0,0
130290,-71.4285714285714,4,2,1,5,0,0
130548,-90.9090909090909,4,2,1,70,0,0
130807,-90.9090909090909,4,2,1,5,0,0
130893,-90.9090909090909,4,2,1,70,0,0
138135,-90.9090909090909,4,2,1,70,0,1
138479,-90.9090909090909,4,2,1,70,0,0
162272,-80,4,2,1,70,0,0
162962,-90.9090909090909,4,2,1,70,0,0
163997,-68.9655172413793,4,2,1,70,0,0
165031,-90.9090909090909,4,2,1,70,0,0
187790,-500,4,2,1,50,0,0
190203,-333.333333333333,4,2,1,50,0,0
191238,-128.205128205128,4,2,1,20,0,0
193135,-105.263157894737,4,2,1,5,0,0
193307,-90.9090909090909,4,2,17,85,0,1
193652,-90.9090909090909,4,2,1,70,0,0
196324,-90.9090909090909,4,2,1,5,0,0
196410,-66.6666666666667,4,2,1,70,0,0
196497,-66.6666666666667,4,2,1,5,0,0
196755,-90.9090909090909,4,2,1,70,0,0
197014,-90.9090909090909,4,2,1,5,0,0
197100,-90.9090909090909,4,2,1,70,0,0
204341,-90.9090909090909,4,2,1,70,0,1
204686,-90.9090909090909,4,2,1,70,0,0
213652,-125,4,2,1,70,0,0
214341,-125,4,2,1,50,0,0
215031,-250,4,2,1,70,0,0
215203,-250,4,2,1,5,0,0
215376,-90.9090909090909,4,2,1,80,0,1
217876,-90.9090909090909,4,2,1,5,0,1
217962,-90.9090909090909,4,2,1,80,0,1
218048,-90.9090909090909,4,2,1,5,0,1
218135,-90.9090909090909,4,2,1,80,0,1
220635,-90.9090909090909,4,2,1,5,0,1
220721,-90.9090909090909,4,2,1,80,0,1
220807,-90.9090909090909,4,2,1,5,0,1
220893,-90.9090909090909,4,2,1,80,0,1
222962,-58.8235294117647,4,2,1,80,0,1
223566,-58.8235294117647,4,2,1,5,0,1
223652,-90.9090909090909,4,2,1,80,0,1
226066,-90.9090909090909,4,2,1,70,0,0
226410,-90.9090909090909,4,2,1,70,0,1
228910,-90.9090909090909,4,2,1,5,0,1
228997,-90.9090909090909,4,2,1,70,0,1
229083,-90.9090909090909,4,2,1,5,0,1
229169,-90.9090909090909,4,2,1,70,0,1
231669,-90.9090909090909,4,2,1,5,0,1
231755,-90.9090909090909,4,2,1,70,0,1
231841,-90.9090909090909,4,2,1,5,0,1
231928,-90.9090909090909,4,2,1,70,0,1
234428,-90.9090909090909,4,2,1,5,0,1
234514,-90.9090909090909,4,2,1,70,0,1
234600,-90.9090909090909,4,2,1,5,0,1
234686,-90.9090909090909,4,2,1,70,0,1
236755,-200,4,2,1,50,0,0
237445,-200,4,2,1,40,0,0
248479,-666.666666666667,4,2,1,20,0,0
259341,-666.666666666667,4,2,2,20,0,0

[Colours]
Combo1 : 163,211,220
Combo2 : 208,211,247
Combo3 : 191,251,228
Combo4 : 255,242,202
Combo5 : 255,204,230
Combo6 : 240,181,170

[HitObjects]
107,116,204,5,8,0:3:0:0:
170,160,376,2,0,P|213:153|258:146,1,80.499997543335,0|2,3:2|0:3,0:0:0:0:
307,95,893,2,0,P|305:74|299:55,1,40.2499987716675,0|0,1:0|3:0,0:0:0:0:
369,145,1238,2,0,L|360:187,1,40.2499987716675,2|0,3:2|3:2,0:0:0:0:
410,242,1583,6,0,P|470:245|513:201,1,120.749996315003,2|0,1:2|1:0,0:0:0:0:
233,345,2617,2,0,P|255:348|284:355,1,40.2499987716675,2|0,0:3|3:0,0:0:0:0:
326,300,2962,1,8,1:3:0:0:
277,246,3135,5,0,3:2:0:0:
277,246,3479,1,0,3:0:0:0:
108,350,3824,5,2,0:3:0:0:
96,354,3997,1,2,3:2:0:0:
84,355,4169,1,0,3:0:0:0:
66,364,4341,38,0,P|62:322|77:279,1,80.499997543335,2|0,1:2|3:0,0:0:0:0:
127,232,4859,2,0,P|128:171|87:120,1,120.749996315003,2|0,1:2|3:0,0:0:0:0:
33,86,5548,1,2,3:2:0:0:
98,37,5721,5,8,0:3:0:0:
96,49,5893,1,2,3:2:0:0:
260,153,6238,6,0,P|303:147|349:141,1,80.499997543335,2|2,3:2|0:3,0:0:0:0:
401,186,6755,2,0,L|391:234,1,40.2499987716675,0|0,3:0|3:0,0:0:0:0:
476,321,7100,2,0,P|488:281|470:243,1,80.499997543335,2|0,1:2|0:0,0:0:0:0:
382,304,7617,2,0,B|326:289|320:332|253:315,1,120.749996315003,2|0,1:2|3:0,0:0:0:0:
209,262,8307,1,2,3:2:0:0:
152,313,8479,6,0,L|162:362,1,40.2499987716675,8|0,0:3|3:0,0:0:0:0:
66,194,8997,2,0,L|74:154,1,40.2499987716675,2|2,0:3|1:2,0:0:0:0:
35,90,9341,1,0,3:0:0:0:
24,92,9513,1,2,3:2:0:0:
12,95,9686,1,2,3:2:0:0:
0,108,9859,38,0,P|93:120|165:26,1,206.999993682861,4|0,0:3|0:0,0:0:0:0:
256,195,11238,5,8,1:0:0:0:
256,195,11928,1,0,1:0:0:0:
256,195,12617,1,0,1:0:0:0:
176,238,13135,5,2,1:1:0:0:
337,171,13652,2,0,L|384:179,1,34.4999989471436,2|0,0:3|0:1,0:0:0:0:
422,235,13997,5,8,1:0:0:0:
442,140,14686,1,0,1:0:0:0:
464,47,15376,1,0,1:0:0:0:
512,225,15893,37,2,1:0:0:0:
319,305,16410,2,0,L|284:299,1,34.4999989471436,2|0,0:1|0:0,0:0:0:0:
200,253,16755,6,0,P|245:210|329:223,1,137.999995788574,8|0,1:0|1:0,0:0:0:0:
512,117,18135,2,0,P|457:125|410:86,1,103.499996841431,2|2,1:0|1:0,0:0:0:0:
290,5,19169,2,0,L|302:51,1,34.4999989471436,2|0,0:1|0:0,0:0:0:0:
245,103,19514,6,0,B|170:91|188:136|101:128,2,137.999995788574,8|0|0,1:0|1:0|1:0,0:0:0:0:
298,38,21410,5,2,1:0:0:0:
383,211,21928,2,0,L|376:251,1,34.4999989471436,2|0,0:0|0:0,0:0:0:0:
425,310,22272,38,0,P|456:317|499:293,1,80.499997543335,4|8,0:1|0:1,0:0:0:0:
365,358,22790,1,2,0:1:0:0:
360,359,22962,2,0,L|306:352,1,40.2499987716675,8|0,0:0|0:0,0:0:0:0:
252,313,23307,2,0,P|205:321|166:328,1,80.499997543335,8|2,3:1|1:3,0:0:0:0:
102,286,23824,6,0,P|83:265|106:279,1,80.499997543335,2|2,0:0|0:1,0:0:0:0:
176,242,24341,2,0,L|190:166,1,60.3749981575013,8|2,0:0|0:0,0:0:0:0:
191,177,24686,2,0,L|187:157,1,20.1249993858338,10|0,0:1|0:0,0:0:0:0:
57,104,25031,6,0,P|86:99|145:89,1,80.499997543335,8|8,0:3|0:1,0:0:0:0:
194,32,25548,2,0,P|163:11|110:20,1,80.499997543335,2|2,0:1|0:3,0:0:0:0:
220,107,26066,2,0,P|268:99|317:92,1,80.499997543335,8|2,3:1|1:3,0:0:0:0:
362,52,26583,2,0,L|369:12,1,40.2499987716675,0|8,3:0|0:1,0:0:0:0:
299,94,26928,1,2,1:3:0:0:
343,155,27100,5,8,0:0:0:0:
511,52,27445,1,12,3:3:0:0:
445,85,27617,1,8,3:1:0:0:
494,136,27790,38,0,P|487:177|471:265,1,120.749996315003,0|2,1:3|0:1,0:0:0:0:
390,275,28479,2,0,P|386:247|380:227,1,40.2499987716675,8|2,0:0|0:3,0:0:0:0:
452,322,28824,1,8,3:1:0:0:
379,355,28997,6,0,B|323:341|321:382|256:371,1,120.749996315003,2|8,0:1|0:1,0:0:0:0:
198,328,29686,1,2,1:0:0:0:
133,364,29859,2,0,P|107:360|41:351,1,80.499997543335,8|8,0:0|3:1,0:0:0:0:
0,302,30376,1,2,0:1:0:0:
3,297,30548,6,0,P|-1:273|-8:253,1,40.2499987716675,8|2,0:3|0:0,0:0:0:0:
75,183,30893,2,0,L|66:234,1,40.2499987716675,8|2,0:1|0:1,0:0:0:0:
2,137,31238,1,8,0:0:0:0:
175,254,31583,1,8,3:1:0:0:
180,257,31755,1,2,0:0:0:0:
185,260,31928,2,0,L|231:252,1,40.2499987716675,2|8,1:3|0:3,0:0:0:0:
287,303,32272,2,0,L|333:295,1,40.2499987716675,8|2,0:1|1:3,0:0:0:0:
394,351,32617,5,8,0:0:0:0:
493,131,32962,1,12,3:0:0:0:
491,138,33135,1,8,3:1:0:0:
428,180,33307,38,0,B|345:168|360:221|268:211,1,160.99999508667,8|2,3:0|0:0,0:0:0:0:
135,79,34341,2,0,L|144:126,1,40.2499987716675,10|2,3:2|3:2,0:0:0:0:
99,177,34686,2,0,P|57:182|23:153,1,80.499997543335,8|0,3:2|3:0,0:0:0:0:
164,231,35204,2,0,P|206:224|253:216,1,80.499997543335,0|2,3:0|0:0,0:0:0:0:
307,177,35721,2,0,P|313:158|313:136,1,40.2499987716675,2|0,3:2|3:0,0:0:0:0:
365,236,36066,6,0,P|419:240|477:157,1,160.99999508667,10|2,3:0|0:0,0:0:0:0:
309,291,37100,2,0,L|300:335,1,40.2499987716675,2|2,3:2|3:2,0:0:0:0:
245,377,37445,2,0,P|211:370|157:359,1,80.499997543335,10|0,3:2|3:0,0:0:0:0:
102,312,37962,2,0,P|127:289|183:289,1,80.499997543335,0|2,3:0|0:0,0:0:0:0:
227,232,38479,2,0,L|220:191,1,40.2499987716675,2|0,3:2|3:0,0:0:0:0:
166,139,38824,6,0,P|166:92|185:56,1,86.25,8|2,0:1|0:0,0:0:0:0:
366,205,39859,2,0,P|385:245|384:287,1,86.25,2|2,0:0|0:0,0:0:0:0:
245,384,40893,6,0,L|254:345,1,28.75,2|0,0:0|0:0,0:0:0:0:
208,295,41238,2,0,L|217:256,1,28.75,2|0,3:2|3:0,0:0:0:0:
255,205,41583,37,10,3:0:0:0:
257,215,41755,1,2,3:2:0:0:
208,295,42100,5,2,3:2:0:0:
246,383,42445,5,0,3:0:0:0:
251,378,42617,1,10,3:2:0:0:
253,384,42790,1,10,3:2:0:0:
424,300,43307,6,0,L|435:260,7,28.75,4|4|4|4|4|4|4|4,0:3|0:3|0:3|0:3|0:3|0:3|0:3|0:3,0:0:0:0:
359,260,43652,2,0,L|370:221,7,34.4999989471436,4|4|4|4|4|4|4|4,0:3|0:3|0:3|0:3|0:3|0:3|0:3|0:3,0:0:0:0:
309,185,43997,38,0,P|296:182|312:181,1,46,4|0,0:3|0:0,0:0:0:0:
311,178,44341,6,0,B|214:198|236:128|130:146,1,189.750005790711,14|2,3:0|0:0,0:0:0:0:
53,94,45031,2,0,P|47:59|41:26,1,63.2500019302369,8|0,0:0|0:0,0:0:0:0:
130,145,45376,2,0,P|124:176|119:207,1,63.2500019302369,8|2,3:1|0:1,0:0:0:0:
35,266,45721,1,6,0:3:0:0:
106,303,45893,1,2,0:0:0:0:
47,357,46066,2,0,P|13:371|-20:366,1,63.2500019302369,10|2,0:1|0:0,0:0:0:0:
191,290,46410,2,0,P|253:287|312:325,1,126.500003860474,8|8,0:0|3:1,0:0:0:0:
462,189,46928,1,2,3:1:0:0:
398,142,47100,6,0,L|377:270,1,107.8125,14|0,0:3|0:0,0:0:0:0:
432,299,47445,2,0,L|472:292,1,31.6250009651184,8|0,3:1|0:0,0:0:0:0:
355,384,47790,6,0,P|319:352|260:355,1,94.8750028953553,8|0,0:0|0:0,0:0:0:0:
262,337,48135,2,0,P|227:343|188:351,1,63.2500019302369,8|2,3:1|0:1,0:0:0:0:
23,225,48479,37,6,0:3:0:0:
89,180,48652,1,8,0:3:0:0:
124,250,48824,2,0,P|115:290|109:320,1,63.2500019302369,10|0,0:1|0:0,0:0:0:0:
0,130,49169,5,8,0:0:0:0:
260,285,49514,1,10,3:1:0:0:
323,242,49686,1,10,0:3:0:0:
390,281,49859,6,0,P|399:236|416:149,1,126.500003860474,14|8,0:3|0:1,0:0:0:0:
359,99,50376,1,0,0:0:0:0:
411,46,50548,2,0,P|446:40|487:32,1,63.2500019302369,8|2,0:0|0:0,0:0:0:0:
294,163,50893,2,0,P|219:166|182:134,1,126.500003860474,8|6,3:1|0:3,0:0:0:0:
0,262,51583,6,0,P|42:254|79:247,1,63.2500019302369,8|2,0:1|0:1,0:0:0:0:
138,282,51928,2,0,P|150:314|152:344,1,63.2500019302369,8|2,0:0|0:0,0:0:0:0:
29,173,52272,2,0,P|31:141|43:112,1,63.2500019302369,8|0,3:1|0:0,0:0:0:0:
125,68,52617,38,0,B|222:50|205:125|311:108,1,189.750005790711,14|2,0:3|0:0,0:0:0:0:
375,61,53307,2,0,P|385:25|382:-6,1,63.2500019302369,8|2,0:0|0:0,0:0:0:0:
512,214,53652,6,0,P|488:170|405:161,1,126.500003860474,8|6,3:1|0:3,0:0:0:0:
353,199,54169,1,2,0:0:0:0:
293,145,54341,2,0,P|300:110|306:79,1,63.2500019302369,8|0,0:1|0:0,0:0:0:0:
411,301,54686,5,12,0:2:0:0:
91,199,55031,1,8,3:1:0:0:
163,174,55204,1,8,0:3:0:0:
148,252,55376,6,0,P|32:314|-27:289,1,189.750005790711,4|0,0:0|0:0,0:0:0:0:
167,168,56066,2,0,P|201:174|245:181,1,63.2500019302369,8|0,0:0|0:0,0:0:0:0:
287,240,56410,2,0,P|320:242|347:230,1,63.2500019302369,8|2,3:1|0:1,0:0:0:0:
404,177,56755,1,6,0:3:0:0:
358,111,56928,1,2,0:0:0:0:
489,159,57100,2,0,P|480:198|472:233,1,63.2500019302369,10|2,0:1|0:0,0:0:0:0:
423,56,57445,37,8,0:0:0:0:
512,371,57790,1,8,3:1:0:0:
454,310,57962,1,2,3:1:0:0:
379,353,58135,6,0,B|342:356|315:334|315:334|266:328|239:356,1,149.499993156433,14|8,0:3|3:1,0:0:0:0:
46,200,58652,1,0,0:0:0:0:
23,285,58824,2,0,L|91:273,1,63.2500019302369,8|0,0:0|0:0,0:0:0:0:
171,321,59169,2,0,L|159:392,1,63.2500019302369,8|0,3:1|0:0,0:0:0:0:
248,240,59514,5,6,0:3:0:0:
190,191,59686,1,8,0:3:0:0:
256,154,59859,2,0,P|264:117|272:77,1,63.2500019302369,10|0,0:1|0:0,0:0:0:0:
192,25,60203,5,8,0:0:0:0:
394,214,60548,1,10,3:1:0:0:
459,182,60721,1,10,0:3:0:0:
404,139,60893,54,0,P|411:184|426:279,1,126.500003860474,14|8,0:3|0:1,0:0:0:0:
366,316,61410,1,0,0:0:0:0:
306,265,61583,2,0,P|311:231|326:195,1,63.2500019302369,8|2,0:0|0:0,0:0:0:0:
177,361,61928,6,0,P|238:351|290:384,1,126.500003860474,8|6,3:1|0:3,0:0:0:0:
512,276,62617,2,0,P|481:276|449:264,1,63.2500019302369,8|2,0:1|0:1,0:0:0:0:
354,191,62962,2,0,L|368:262,1,63.2500019302369,8|2,0:0|0:0,0:0:0:0:
447,158,63307,1,8,3:1:0:0:
390,112,63479,1,8,3:1:0:0:
456,72,63652,6,0,P|347:66|306:-12,1,189.750005790711,14|2,0:3|0:0,0:0:0:0:
247,98,64341,2,0,P|210:83|184:83,1,63.2500019302369,8|2,0:0|0:0,0:0:0:0:
98,15,64686,2,0,P|129:12|157:0,1,63.2500019302369,8|0,3:1|0:0,0:0:0:0:
117,157,65031,1,6,0:3:0:0:
42,170,65203,1,8,0:3:0:0:
0,106,65376,37,8,0:1:0:0:
157,313,65721,1,12,0:0:0:0:
210,260,65893,1,2,3:2:0:0:
228,173,66066,37,8,0:3:0:0:
290,345,66238,1,8,0:3:0:0:
359,295,66410,38,0,P|446:293|517:380,1,189.750005790711,4|2,0:0|0:0,0:0:0:0:
411,209,67100,2,0,P|414:175|428:141,1,63.2500019302369,8|0,0:0|0:0,0:0:0:0:
501,68,67445,2,0,P|508:102|514:140,1,63.2500019302369,12|2,0:3|0:1,0:0:0:0:
401,60,67790,6,0,P|292:67|245:3,1,189.750005790711,2|0,3:0|0:0,0:0:0:0:
271,0,68479,2,0,L|242:198,1,189.750005790711,8|2,0:0|0:0,0:0:0:0:
304,259,69169,6,0,P|340:267|397:207,1,126.500003860474,10|8,0:3|0:1,0:0:0:0:
232,320,69686,2,0,P|195:293|117:292,1,126.500003860474,2|2,0:3|0:1,0:0:0:0:
55,236,70203,6,0,B|21:170|57:61|101:22|180:42|191:134|141:156|110:150,1,316.250009651184,14|2,0:3|0:0,0:0:0:0:
129,148,71238,38,0,P|122:113|115:71,1,63.2500019302369,8|0,0:0|0:0,0:0:0:0:
217,202,71583,2,0,P|211:233|205:264,1,63.2500019302369,14|8,0:3|0:3,0:0:0:0:
283,343,71928,6,0,B|384:318|364:394|481:365,1,189.750005790711,8|2,0:3|0:0,0:0:0:0:
506,269,72617,2,0,P|471:268|444:280,1,63.2500019302369,8|0,0:0|0:0,0:0:0:0:
360,150,72962,2,0,P|401:162|439:169,1,63.2500019302369,6|2,3:3|0:1,0:0:0:0:
333,255,73307,6,0,B|267:269|267:269|252:297|252:297|153:318,1,189.750005790711,2|2,3:2|0:0,0:0:0:0:
173,338,73997,2,0,P|184:276|206:140,1,189.750005790711,8|2,0:0|0:1,0:0:0:0:
121,49,74686,6,0,B|85:99|85:99|108:170,1,126.500003860474,10|8,0:3|0:1,0:0:0:0:
304,250,75203,2,0,B|340:200|340:200|317:129,1,126.500003860474,2|2,0:3|0:0,0:0:0:0:
199,287,75721,38,0,B|123:264|123:264|76:321|12:297,1,189.750005790711,14|0,0:3|3:0,0:0:0:0:
43,203,76410,37,8,0:1:0:0:
46,212,76583,1,2,0:0:0:0:
0,132,76755,37,12,0:0:0:0:
199,287,77100,1,12,3:3:0:0:
281,269,77272,1,8,0:3:0:0:
365,250,77445,37,4,0:0:0:0:
497,133,77790,1,8,0:1:0:0:
426,105,77962,1,2,0:0:0:0:
450,177,78135,38,0,L|524:164,1,63.2500019302369,8|0,0:0|0:0,0:0:0:0:
445,340,78479,2,0,P|481:346|516:353,1,63.2500019302369,6|2,0:3|0:1,0:0:0:0:
365,250,78824,6,0,B|288:220|274:313|169:271,1,189.750005790711,2|0,3:0|0:0,0:0:0:0:
38,146,79514,2,0,B|68:157|102:168|102:168|78:228|61:287,1,189.750005790711,8|2,0:0|0:0,0:0:0:0:
16,367,80203,6,0,P|36:342|126:335,1,126.500003860474,10|8,0:3|0:1,0:0:0:0:
226,262,80721,2,0,P|215:205|200:138,1,126.500003860474,2|2,0:3|0:1,0:0:0:0:
290,76,81238,6,0,B|383:154|516:123|503:42|428:-12|351:52|414:136,1,344.999989471436,14|2,0:3|0:0,0:0:0:0:
404,120,82272,2,0,P|397:158|391:189,1,63.2500019302369,8|0,0:0|0:0,0:0:0:0:
512,301,82617,1,14,0:3:0:0:
479,225,82790,1,8,0:3:0:0:
412,273,82962,38,0,P|354:280|296:240,1,126.500003860474,8|0,0:3|0:0,0:0:0:0:
242,188,83479,1,0,0:0:0:0:
174,237,83652,2,0,L|98:226,1,63.2500019302369,8|0,0:0|0:0,0:0:0:0:
33,315,83997,2,0,P|64:319|96:305,1,63.2500019302369,6|2,3:3|0:1,0:0:0:0:
242,188,84341,6,0,P|342:187|420:262,1,206.999993682861,2|2,3:2|0:0,0:0:0:0:
257,90,85031,2,0,B|180:60|166:153|61:111,1,189.750005790711,10|2,0:0|0:1,0:0:0:0:
0,60,85721,6,0,P|41:22|126:34,1,126.500003860474,10|8,0:3|0:1,0:0:0:0:
142,191,86238,2,0,P|98:226|19:214,1,126.500003860474,2|2,0:3|0:0,0:0:0:0:
227,112,86755,2,0,L|305:124,1,63.2500019302369,14|0,0:3|0:0,0:0:0:0:
356,84,87100,1,4,0:3:0:0:
306,29,87272,1,8,0:3:0:0:
433,61,87445,6,0,B|459:57|459:57|472:62|472:62|504:55,1,68.9999978942872,4|2,0:3|0:0,0:0:0:0:
108,307,88479,38,0,L|114:272,2,34.4999989471436,0|0|0,1:0|1:0|1:0,0:0:0:0:
158,364,90376,1,2,1:3:0:0:
369,230,91238,38,0,L|363:195,2,34.4999989471436,0|0|0,1:0|1:0|1:0,0:0:0:0:
321,288,93135,37,2,1:1:0:0:
315,291,93307,37,2,3:0:0:0:
320,295,93479,37,0,0:0:0:0:
323,293,93652,5,2,0:1:0:0:
317,291,93824,5,2,0:1:0:0:
298,303,93997,6,0,L|230:290,1,57.5,4|2,0:1|0:0,0:0:0:0:
162,239,94341,2,0,L|93:252,1,57.5,8|2,0:1|0:1,0:0:0:0:
242,183,94686,2,0,P|248:144|260:62,1,115,8|8,0:3|0:1,0:0:0:0:
258,69,95203,1,2,0:1:0:0:
156,10,95376,38,0,L|222:-2,1,57.5,8|2,0:3|0:0,0:0:0:0:
100,93,95721,2,0,P|45:98|-1:60,1,115,4|8,0:3|0:3,0:0:0:0:
165,159,96238,1,4,0:3:0:0:
175,158,96410,1,8,0:1:0:0:
185,157,96583,1,0,3:0:0:0:
219,167,96755,6,0,L|208:234,1,57.5,8|2,0:3|0:0,0:0:0:0:
302,316,97100,2,0,P|301:287|287:252,1,57.5,2|2,0:2|0:3,0:0:0:0:
201,339,97445,2,0,P|154:312|88:321,1,115,8|8,0:3|0:1,0:0:0:0:
95,318,97962,1,4,0:3:0:0:
23,248,98135,6,0,P|28:217|34:178,1,57.5,8|0,0:3|3:0,0:0:0:0:
1,128,98479,2,0,L|14:198,1,57.5,4|2,0:3|0:3,0:0:0:0:
140,147,98824,5,8,0:3:0:0:
134,143,98997,1,2,0:0:0:0:
126,142,99169,1,4,0:3:0:0:
119,143,99341,1,2,3:1:0:0:
99,129,99514,38,0,P|107:76|119:1,1,115,8|8,0:3|0:1,0:0:0:0:
212,98,100031,2,0,L|287:85,1,57.5,2|8,0:3|0:3,0:0:0:0:
329,32,100376,1,2,0:0:0:0:
384,88,100548,2,0,L|371:147,1,57.5,8|2,0:1|0:1,0:0:0:0:
425,214,100893,6,0,P|464:221|513:161,1,115,8|4,0:3|0:3,0:0:0:0:
343,253,101410,2,4,P|305:233|227:234,1,115,2|4,0:1|0:3,0:0:0:0:
167,176,101928,2,0,P|160:151|162:114,1,57.5,8|0,0:1|3:0,0:0:0:0:
19,254,102272,2,0,P|26:229|24:192,1,57.5,8|2,0:3|0:1,0:0:0:0:
114,248,102617,6,0,L|133:364,1,115,8|8,0:1|0:3,0:0:0:0:
132,384,103307,2,0,P|96:377|65:371,1,57.5,8|4,0:1|0:3,0:0:0:0:
203,299,103652,5,8,0:3:0:0:
260,349,103824,2,0,P|288:343|316:338,1,57.5,2|8,0:0|0:1,0:0:0:0:
395,381,104169,2,0,P|408:302|422:249,1,115,2|2,0:1|0:0,0:0:0:0:
326,174,104686,2,0,L|337:231,1,57.5,4|2,0:1|0:1,0:0:0:0:
429,159,105031,38,0,B|442:104|442:104|440:98|440:98|456:27,2,120.749996315003,4|2|2,0:1|0:0|0:0,0:0:0:0:
261,384,106583,2,0,P|259:344|247:300,1,80.499997543335,2|2,0:0|0:0,0:0:0:0:
316,259,107100,2,0,P|356:259|390:278,1,80.499997543335,2|2,0:0|0:0,0:0:0:0:
462,248,107617,1,2,0:1:0:0:
468,242,107790,6,0,P|473:216|491:121,2,120.749996315003,2|2|2,3:2|0:0|0:0,0:0:0:0:
506,312,109169,5,2,1:0:0:0:
506,312,109686,1,2,1:0:0:0:
506,312,110203,2,0,L|466:318,1,40.2499987716675,8|0,3:2|3:0,0:0:0:0:
400,364,110548,6,0,P|368:345|324:343,1,80.499997543335,0|2,3:0|0:0,0:0:0:0:
264,297,111066,1,2,0:0:0:0:
258,295,111238,2,0,P|218:302|172:311,1,80.499997543335,2|2,0:3|0:0,0:0:0:0:
117,357,111755,2,0,P|72:365|17:304,1,120.749996315003,2|2,0:0|0:0,0:0:0:0:
56,255,112445,37,2,0:1:0:0:
176,111,112962,2,0,P|171:83|166:67,1,40.2499987716675,8|0,3:2|3:0,0:0:0:0:
226,22,113307,6,0,P|272:20|304:42,1,80.499997543335,8|2,0:3|0:0,0:0:0:0:
364,82,113824,1,2,0:0:0:0:
368,87,113997,2,0,P|413:80|455:74,1,80.499997543335,2|0,0:3|0:0,0:0:0:0:
504,22,114514,5,2,0:0:0:0:
430,192,115031,2,0,L|438:240,1,40.2499987716675,2|2,0:1|0:0,0:0:0:0:
495,294,115376,5,2,0:3:0:0:
491,300,115548,1,2,0:0:0:0:
490,308,115721,1,0,3:0:0:0:
491,315,115893,1,0,3:0:0:0:
506,329,116066,38,0,P|428:344|367:290,1,160.99999508667,8|8,0:3|0:1,0:0:0:0:
58,236,117445,2,0,P|118:186|194:202,1,160.99999508667,0|8,3:0|0:1,0:0:0:0:
260,163,118307,2,0,P|272:123|263:79,1,80.499997543335,2|0,0:0|3:0,0:0:0:0:
208,39,118824,5,8,0:3:0:0:
208,39,119514,1,8,0:1:0:0:
254,259,120203,1,0,3:0:0:0:
254,259,120893,1,8,0:1:0:0:
326,223,121066,2,0,L|414:239,1,80.499997543335,2|2,0:0|0:0,0:0:0:0:
466,180,121583,6,0,P|473:130|442:76,1,103.499996841431,8|2,0:3|0:0,0:0:0:0:
254,259,122617,2,0,P|231:304|238:355,1,103.499996841431,2|2,0:0|0:0,0:0:0:0:
352,204,123652,6,0,L|347:167,1,34.4999989471436,2|0,3:2|0:0,0:0:0:0:
293,121,123997,2,0,L|298:84,1,34.4999989471436,2|0,0:0|0:0,0:0:0:0:
344,26,124341,37,10,3:0:0:0:
346,34,124514,1,2,3:2:0:0:
293,121,124859,5,2,3:2:0:0:
352,204,125203,5,0,3:0:0:0:
350,212,125376,1,10,3:2:0:0:
347,220,125548,1,10,3:2:0:0:
364,249,125721,6,0,B|304:225|235:254|250:331|211:395|97:371|59:299|113:241,1,382.374989789486,4|0,0:3|0:0,0:0:0:0:
162,195,127100,38,0,L|130:-5,1,198.375003783703,14|0,3:0|0:0,0:0:0:0:
104,29,127790,2,0,P|135:34|166:39,1,63.2500019302369,8|0,0:0|0:0,0:0:0:0:
244,112,128135,2,0,P|284:105|314:100,1,63.2500019302369,8|2,3:1|0:1,0:0:0:0:
502,47,128479,5,6,0:3:0:0:
444,8,128652,1,2,0:0:0:0:
404,66,128824,2,0,P|398:99|392:133,1,63.2500019302369,10|2,0:1|0:0,0:0:0:0:
212,284,129169,6,0,P|239:241|310:232,1,126.500003860474,8|8,0:0|3:1,0:0:0:0:
362,179,129686,1,2,3:1:0:0:
424,223,129859,6,0,P|430:261|442:335,1,94.8750028953553,14|0,0:3|0:0,0:0:0:0:
504,367,130203,2,0,P|506:344|511:327,1,40.2499987716675,8|0,3:1|0:0,0:0:0:0:
400,384,130548,2,0,P|350:350|286:351,1,126.500003860474,8|8,0:0|3:1,0:0:0:0:
217,316,131066,1,2,0:1:0:0:
259,255,131238,37,6,0:3:0:0:
230,184,131410,1,8,0:3:0:0:
305,196,131583,1,10,0:1:0:0:
76,306,131928,5,8,0:0:0:0:
335,113,132272,1,10,3:1:0:0:
398,80,132445,1,10,0:3:0:0:
462,121,132617,6,0,P|468:88|478:52,1,63.2500019302369,14|0,0:3|0:0,0:0:0:0:
390,168,132962,2,0,L|401:238,1,63.2500019302369,8|0,0:1|0:0,0:0:0:0:
453,291,133307,2,0,P|485:293|518:274,1,63.2500019302369,8|2,0:0|0:0,0:0:0:0:
395,348,133652,2,0,P|330:332|268:332,1,126.500003860474,8|6,3:1|0:3,0:0:0:0:
22,280,134341,6,0,P|52:262|86:260,1,63.2500019302369,8|2,0:1|0:1,0:0:0:0:
150,311,134686,2,0,P|143:349|137:390,1,63.2500019302369,8|2,0:0|0:0,0:0:0:0:
73,174,135031,2,0,P|78:142|84:111,1,63.2500019302369,8|0,3:1|0:0,0:0:0:0:
162,50,135376,38,0,P|238:39|312:127,1,189.750005790711,14|2,0:3|0:0,0:0:0:0:
415,146,136066,2,0,P|405:108|406:71,1,63.2500019302369,8|2,0:0|0:0,0:0:0:0:
344,189,136410,2,0,P|337:232|323:316,1,126.500003860474,8|6,3:1|0:3,0:0:0:0:
370,372,136928,1,2,0:0:0:0:
436,345,137100,5,8,0:1:0:0:
131,224,137445,1,12,0:2:0:0:
286,29,137790,5,8,3:1:0:0:
231,82,137962,1,8,0:3:0:0:
302,121,138135,6,0,B|342:84|397:90|397:90|425:127|480:111,1,189.750005790711,4|0,0:0|0:0,0:0:0:0:
371,181,138824,2,0,P|358:218|359:248,1,63.2500019302369,8|0,0:0|0:0,0:0:0:0:
459,350,139169,2,0,P|457:318|445:289,1,63.2500019302369,8|2,3:1|0:1,0:0:0:0:
342,349,139514,1,6,0:3:0:0:
289,298,139686,1,2,0:0:0:0:
228,337,139859,2,0,L|161:328,1,63.2500019302369,10|2,0:1|0:0,0:0:0:0:
103,377,140203,37,8,0:0:0:0:
0,188,140548,1,8,3:1:0:0:
52,132,140721,1,2,3:1:0:0:
124,150,140893,6,0,P|143:107|124:29,1,126.500003860474,14|8,0:3|0:1,0:0:0:0:
234,198,141410,1,2,0:0:0:0:
161,234,141583,2,0,P|154:270|148:304,1,63.2500019302369,8|0,0:0|0:0,0:0:0:0:
292,131,141928,2,0,P|286:99|280:68,1,63.2500019302369,8|2,3:1|0:1,0:0:0:0:
398,215,142272,5,6,0:3:0:0:
327,252,142444,1,0,0:0:0:0:
395,299,142617,2,0,P|425:308|460:304,1,63.2500019302369,10|0,0:1|0:0,0:0:0:0:
496,183,142962,5,8,0:0:0:0:
253,383,143307,1,10,3:1:0:0:
237,307,143479,1,10,0:3:0:0:
221,231,143652,38,0,P|214:270|197:369,1,126.500003860474,14|8,0:3|0:1,0:0:0:0:
120,238,144169,1,0,0:0:0:0:
75,298,144341,2,0,P|39:305|2:312,1,63.2500019302369,8|2,0:0|0:0,0:0:0:0:
152,115,144686,2,0,P|116:122|15:141,1,126.500003860474,8|6,3:1|0:3,0:0:0:0:
26,152,145376,6,0,P|62:156|98:166,1,63.2500019302369,8|2,0:1|0:1,0:0:0:0:
150,10,145721,2,0,P|119:17|87:20,1,63.2500019302369,8|2,0:0|0:0,0:0:0:0:
213,99,146066,2,0,L|281:111,1,63.2500019302369,8|8,3:1|3:1,0:0:0:0:
346,160,146410,6,0,P|400:170|485:67,1,189.750005790711,14|2,0:3|0:0,0:0:0:0:
281,218,147100,2,0,P|267:256|270:297,1,63.2500019302369,8|2,0:0|0:0,0:0:0:0:
368,384,147445,2,0,P|365:346|349:319,1,63.2500019302369,8|0,3:1|0:0,0:0:0:0:
390,257,147790,5,6,0:3:0:0:
460,243,147962,1,2,0:2:0:0:
510,298,148135,1,2,0:3:0:0:
281,154,148479,37,8,0:0:0:0:
352,127,148652,1,8,0:3:0:0:
210,90,148824,5,8,0:3:0:0:
103,52,148997,1,8,0:3:0:0:
259,38,149169,6,0,P|253:82|233:230,1,189.750005790711,4|2,0:0|0:0,0:0:0:0:
347,276,149859,2,0,P|338:243|340:208,1,63.2500019302369,8|0,0:0|0:0,0:0:0:0:
259,322,150203,2,0,P|252:365|247:392,1,63.2500019302369,12|2,0:3|0:1,0:0:0:0:
170,269,150548,6,0,B|104:283|104:283|84:313|84:313|-22:336,1,189.750005790711,2|0,3:0|0:0,0:0:0:0:
229,207,151238,2,0,L|198:14,1,189.750005790711,8|2,0:0|0:0,0:0:0:0:
292,0,151928,38,0,P|333:63|315:123,1,126.500003860474,10|8,0:3|0:1,0:0:0:0:
110,190,152445,2,0,P|79:121|106:64,1,126.500003860474,2|2,0:3|0:1,0:0:0:0:
206,226,152962,6,0,B|268:188|342:249|342:249|382:139|474:158,1,316.250009651184,14|2,0:3|0:0,0:0:0:0:
463,156,153997,2,0,P|472:126|465:87,1,63.2500019302369,8|0,0:0|0:0,0:0:0:0:
433,248,154341,2,0,P|439:286|445:320,1,63.2500019302369,14|8,0:3|0:3,0:0:0:0:
383,364,154686,6,0,B|333:374|281:330|281:330|224:346|235:395,1,189.750005790711,8|2,0:3|0:0,0:0:0:0:
151,357,155376,2,8,P|143:323|150:290,1,63.2500019302369,8|0,0:0|0:0,0:0:0:0:
21,217,155721,2,0,P|15:256|7:286,1,63.2500019302369,6|2,3:3|0:1,0:0:0:0:
116,200,156066,6,0,P|106:138|85:7,1,189.750005790711,2|2,3:2|0:0,0:0:0:0:
212,131,156755,2,0,B|302:137|288:68|391:86,1,189.750005790711,8|2,0:0|0:1,0:0:0:0:
478,148,157445,38,0,P|499:88|480:25,1,126.500003860474,10|8,0:3|0:1,0:0:0:0:
362,184,157962,2,0,P|369:236|381:323,1,126.500003860474,2|2,0:3|0:0,0:0:0:0:
249,370,158479,6,0,B|203:259|81:248|34:311|66:376|111:394|153:365,1,316.250009651184,14|2,0:3|0:0,0:0:0:0:
137,374,159514,5,12,0:0:0:0:
273,184,159859,1,12,3:3:0:0:
290,103,160031,1,8,0:3:0:0:
305,24,160203,5,4,0:0:0:0:
505,273,160548,1,8,0:1:0:0:
451,324,160721,1,2,0:0:0:0:
398,264,160893,38,0,L|412:196,1,63.2500019302369,8|0,0:0|0:0,0:0:0:0:
290,103,161238,2,0,L|302:164,1,63.2500019302369,6|2,0:3|0:1,0:0:0:0:
224,271,161583,6,0,B|130:246|141:329|30:306,1,189.750005790711,2|0,3:0|0:0,0:0:0:0:
264,384,162272,2,0,B|315:292|410:323|410:323|376:317|365:346,1,215.625,8|2,0:0|0:0,0:0:0:0:
494,287,162962,6,0,P|455:234|396:232,1,126.500003860474,10|8,0:3|0:1,0:0:0:0:
217,183,163479,2,0,P|277:195|326:158,1,126.500003860474,2|2,0:3|0:1,0:0:0:0:
445,126,163997,6,0,B|410:135|403:165|403:165|422:71|430:6|318:-103|238:-17|252:76|306:86|339:74,1,416.875012722016,14|2,0:3|0:0,0:0:0:0:
318,77,165031,2,0,P|352:71|392:64,1,63.2500019302369,8|0,0:0|0:0,0:0:0:0:
271,150,165376,2,0,P|233:151|208:139,1,63.2500019302369,14|8,0:3|0:3,0:0:0:0:
137,87,165721,38,0,B|89:96|6:113|6:113|36:98|38:66,1,189.750005790711,8|2,0:3|0:0,0:0:0:0:
130,172,166410,2,0,B|142:207|142:207|135:243,1,63.2500019302369,8|0,0:0|0:0,0:0:0:0:
25,334,166755,2,0,B|17:308|17:308|26:272,1,63.2500019302369,6|2,3:3|0:1,0:0:0:0:
173,339,167100,6,0,B|259:322|259:322|305:368|355:352,1,189.750005790711,2|2,3:2|0:0,0:0:0:0:
426,293,167790,2,0,P|464:301|498:309,1,63.2500019302369,8|0,0:0|0:0,0:0:0:0:
366,223,168135,2,0,P|330:226|304:236,1,63.2500019302369,6|2,3:3|0:1,0:0:0:0:
445,171,168479,6,0,P|467:133|440:49,1,126.500003860474,10|8,0:3|0:1,0:0:0:0:
219,270,168997,2,0,P|197:308|224:392,1,126.500003860474,0|0,0:0|0:0,0:0:0:0:
316,170,169514,6,0,B|270:258|173:320|32:232|73:144|156:120|183:169,1,379.500011581421,14|2,0:3|0:0,0:0:0:0:
177,161,171238,38,0,P|169:224|160:287,1,126.500003860474,4|8,0:2|0:1,0:0:0:0:
205,349,171755,1,2,0:0:0:0:
139,384,171928,2,0,P|89:352|22:358,1,126.500003860474,8|8,0:0|3:1,0:0:0:0:
205,349,172445,1,2,0:1:0:0:
279,378,172617,6,0,P|313:378|345:357,1,63.2500019302369,4|2,0:3|0:0,0:0:0:0:
473,311,172962,2,0,P|445:296|413:297,1,63.2500019302369,8|2,0:1|0:0,0:0:0:0:
342,249,173307,5,8,0:0:0:0:
473,44,173652,1,8,3:1:0:0:
414,82,173824,1,8,0:3:0:0:
485,113,173997,6,0,L|413:101,1,63.2500019302369,6|2,0:3|0:0,0:0:0:0:
287,24,174341,1,8,0:1:0:0:
353,17,174514,38,0,L|281:30,1,63.2500019302369,2|8,0:3|0:0,0:0:0:0:
158,97,174859,1,2,0:0:0:0:
222,103,175032,6,0,L|150:90,1,63.2500019302369,2|2,3:3|0:1,0:0:0:0:
46,2,175376,1,4,0:3:0:0:
0,53,175548,2,0,B|49:38|49:38|72:52|72:52|133:36,1,126.500003860474,0|0,3:0|0:0,0:0:0:0:
184,8,176066,5,8,0:0:0:0:
82,185,176410,1,8,3:1:0:0:
145,239,176583,1,8,0:3:0:0:
95,303,176755,6,0,P|30:333|-22:322,1,126.500003860474,4|8,0:3|0:1,0:0:0:0:
145,239,177272,1,0,0:0:0:0:
216,290,177445,2,0,B|278:299|284:252|353:271,1,126.500003860474,8|8,0:0|3:1,0:0:0:0:
405,228,177962,1,2,0:1:0:0:
471,284,178135,2,0,P|475:252|485:218,1,63.2500019302369,4|2,0:3|0:0,0:0:0:0:
371,94,178479,2,0,L|383:164,1,63.2500019302369,8|0,0:1|0:1,0:0:0:0:
405,228,178824,37,8,0:0:0:0:
234,353,179169,1,8,3:1:0:0:
163,382,179341,1,8,0:3:0:0:
110,327,179514,6,0,P|112:297|129:252,1,63.2500019302369,6|2,0:3|0:0,0:0:0:0:
163,382,179859,1,8,0:1:0:0:
110,326,180031,2,0,P|103:277|91:191,1,126.500003860474,2|2,0:3|0:0,0:0:0:0:
17,157,180548,2,0,P|60:168|128:126,1,126.500003860474,2|4,3:3|0:3,0:0:0:0:
195,60,181066,2,0,P|152:53|119:48,1,63.2500019302369,8|8,0:3|0:1,0:0:0:0:
64,4,181410,5,2,0:0:0:0:
222,140,181583,2,0,P|254:141|285:130,1,63.2500019302369,12|0,0:0|0:0,0:0:0:0:
390,81,181928,5,8,0:0:0:0:
354,296,182100,1,8,0:0:0:0:
431,234,182272,38,0,P|393:207|316:210,1,126.500003860474,4|8,0:2|0:1,0:0:0:0:
256,261,182790,1,2,0:0:0:0:
198,198,182962,2,0,P|205:158|220:62,1,126.500003860474,8|8,0:0|3:1,0:0:0:0:
256,261,183479,1,2,0:1:0:0:
191,307,183652,6,0,P|153:315|126:311,1,63.2500019302369,4|2,0:3|0:0,0:0:0:0:
0,253,183997,2,0,P|46:244|77:238,1,63.2500019302369,8|2,0:1|0:0,0:0:0:0:
121,181,184341,5,8,0:0:0:0:
296,339,184686,1,8,3:1:0:0:
370,302,184859,1,8,0:3:0:0:
439,346,185031,6,0,P|445:304|450:266,1,63.2500019302369,6|2,0:3|0:0,0:0:0:0:
334,159,185376,1,8,0:1:0:0:
341,227,185548,38,0,P|334:185|329:147,1,63.2500019302369,2|8,0:3|0:0,0:0:0:0:
437,52,185893,1,2,0:0:0:0:
430,120,186065,6,0,L|441:40,1,63.2500019302369,2|2,3:3|0:1,0:0:0:0:
261,0,186410,1,4,0:3:0:0:
208,74,186583,2,0,P|268:88|323:56,1,126.500003860474,0|0,3:0|0:0,0:0:0:0:
380,0,187100,5,8,0:0:0:0:
251,191,187445,1,8,3:1:0:0:
270,259,187617,1,8,0:3:0:0:
277,325,187790,6,0,L|285:276,3,46,0|0|0|0,3:0|3:0|3:0|3:0,0:0:0:0:
339,370,190203,38,0,L|362:367,2,17.2499994735718,0|2|0,3:0|0:1|3:0,0:0:0:0:
277,325,191238,6,0,B|270:301|294:272|294:272|263:311|195:393|19:408|-32:253|49:184|146:203|144:265,1,493.350016561432,4|0,0:3|0:0,0:0:0:0:
124,267,193307,6,0,P|131:219|152:69,1,189.750005790711,14|2,3:0|0:0,0:0:0:0:
57,3,193997,2,0,P|64:42|71:76,1,63.2500019302369,8|0,0:0|0:0,0:0:0:0:
178,19,194341,2,0,B|236:6|236:50|304:39,1,126.500003860474,8|6,3:1|0:3,0:0:0:0:
369,5,194859,1,2,0:0:0:0:
437,62,195031,2,0,P|441:29|452:-12,1,63.2500019302369,10|2,0:1|0:0,0:0:0:0:
373,121,195376,2,0,P|408:145|492:131,1,126.500003860474,8|8,0:0|3:1,0:0:0:0:
437,62,195893,1,2,3:1:0:0:
332,203,196066,6,0,P|338:240|348:304,1,94.8750028953553,14|0,0:3|0:0,0:0:0:0:
270,346,196410,2,0,P|271:322|283:292,1,43.1250016450883,8|0,3:1|0:0,0:0:0:0:
436,384,196755,2,0,P|438:348|406:284,1,94.8750028953553,8|0,0:0|0:0,0:0:0:0:
417,278,197100,2,0,P|461:285|494:290,1,63.2500019302369,8|2,3:1|0:1,0:0:0:0:
270,346,197445,38,0,B|209:355|208:314|147:326,1,126.500003860474,6|10,0:3|0:1,0:0:0:0:
85,285,197962,1,0,0:0:0:0:
21,328,198135,5,8,0:0:0:0:
188,59,198479,1,10,3:1:0:0:
250,107,198652,1,10,0:3:0:0:
194,163,198824,6,0,P|122:171|80:135,1,126.500003860474,14|8,0:3|0:1,0:0:0:0:
268,220,199341,1,0,0:0:0:0:
199,264,199514,2,0,P|191:303|184:339,1,63.2500019302369,8|2,0:0|0:0,0:0:0:0:
353,185,199859,2,0,P|346:153|340:123,1,63.2500019302369,8|0,3:1|0:0,0:0:0:0:
439,245,200203,1,6,0:3:0:0:
369,287,200376,1,2,0:0:0:0:
435,337,200548,6,0,P|474:349|500:346,1,63.2500019302369,8|2,0:1|0:1,0:0:0:0:
280,267,200893,2,0,P|245:269|219:279,1,63.2500019302369,8|2,0:0|0:0,0:0:0:0:
20,346,201238,2,0,P|63:351|88:358,1,63.2500019302369,8|0,3:1|0:0,0:0:0:0:
129,281,201583,38,0,B|119:236|99:146|99:146|127:175|149:175,1,189.750005790711,14|2,0:3|0:0,0:0:0:0:
231,251,202272,2,0,P|273:244|308:239,1,63.2500019302369,8|2,0:0|0:0,0:0:0:0:
115,363,202617,2,0,P|75:378|6:327,1,126.500003860474,8|6,3:1|0:3,0:0:0:0:
73,289,203135,1,2,0:0:0:0:
12,235,203307,5,8,0:1:0:0:
216,367,203652,1,12,0:2:0:0:
288,333,203824,1,2,0:0:0:0:
377,278,203997,5,8,3:1:0:0:
481,351,204169,1,8,0:3:0:0:
348,373,204341,6,0,P|357:317|379:176,1,189.750005790711,4|0,0:0|0:0,0:0:0:0:
450,142,205031,2,0,P|468:175|466:212,1,63.2500019302369,8|0,0:0|0:0,0:0:0:0:
370,78,205376,2,0,P|403:43|487:56,1,126.500003860474,8|6,3:1|0:3,0:0:0:0:
335,153,205893,1,2,0:0:0:0:
264,143,206066,38,0,P|227:137|187:131,1,63.2500019302369,10|2,0:1|0:0,0:0:0:0:
120,181,206410,2,0,P|114:137|102:40,1,126.500003860474,8|8,0:0|3:1,0:0:0:0:
198,211,206928,1,2,3:1:0:0:
138,266,207100,6,0,B|80:253|80:297|12:286,1,126.500003860474,14|8,0:3|0:1,0:0:0:0:
198,211,207617,1,2,0:0:0:0:
254,276,207790,2,0,P|249:312|243:356,1,63.2500019302369,8|0,0:0|0:0,0:0:0:0:
322,379,208135,6,0,P|391:384|435:334,1,126.500003860474,8|6,3:1|0:3,0:0:0:0:
467,281,208652,1,8,0:3:0:0:
510,348,208824,5,10,0:1:0:0:
333,97,209169,1,8,0:0:0:0:
385,33,209341,1,0,0:0:0:0:
421,103,209514,37,10,3:1:0:0:
505,177,209686,1,10,0:3:0:0:
440,219,209859,6,0,B|391:207|391:207|370:221|370:221|309:209,1,126.500003860474,14|8,0:3|0:1,0:0:0:0:
244,246,210376,1,0,0:0:0:0:
191,176,210548,2,0,P|232:168|265:161,1,63.2500019302369,8|2,0:0|0:0,0:0:0:0:
148,271,210893,2,0,P|109:283|36:241,1,126.500003860474,8|6,3:1|0:3,0:0:0:0:
83,187,211410,1,2,0:0:0:0:
22,98,211583,6,0,P|17:133|11:173,1,63.2500019302369,8|2,0:1|0:1,0:0:0:0:
148,271,211928,2,0,P|153:236|159:196,1,63.2500019302369,8|2,0:0|0:0,0:0:0:0:
0,350,212272,1,8,3:1:0:0:
60,297,212445,1,8,3:1:0:0:
122,353,212617,6,0,B|218:368|205:300|305:325,1,189.750005790711,14|2,0:3|0:0,0:0:0:0:
367,270,213307,2,0,P|365:236|354:207,1,63.2500019302369,8|2,0:0|0:0,0:0:0:0:
449,364,213652,2,0,P|458:316|468:261,1,92,4|2,3:0|0:0,0:0:0:0:
346,11,214341,37,2,0:0:0:0:
353,13,214686,1,2,0:0:0:0:
349,17,215031,2,0,L|346:47,1,23,2|0,0:0|0:0,0:0:0:0:
296,96,215376,54,0,P|223:114|143:37,1,189.750005790711,4|2,0:0|0:0,0:0:0:0:
173,34,216066,2,0,L|161:110,1,63.2500019302369,8|0,0:0|0:0,0:0:0:0:
74,195,216410,2,0,P|73:165|64:132,1,63.2500019302369,12|2,0:3|0:1,0:0:0:0:
198,283,216755,6,0,B|113:257|108:343|6:316,1,189.750005790711,2|2,3:0|0:0,0:0:0:0:
258,225,217445,2,0,P|294:232|334:239,1,63.2500019302369,8|0,0:0|0:0,0:0:0:0:
482,338,217790,70,0,L|491:307,1,31.6250009651184,4|0,3:0|0:0,0:0:0:0:
419,232,217962,2,0,L|426:262,1,31.6250009651184,0|0,3:3|0:0,0:0:0:0:
496,198,218135,6,0,P|436:152|385:159,1,126.500003860474,10|8,0:3|0:1,0:0:0:0:
261,7,218652,2,0,P|270:59|282:137,1,126.500003860474,2|2,0:3|0:1,0:0:0:0:
223,213,219169,70,0,B|105:349|-31:288|-38:160|70:127|113:172|107:219,1,379.500011581421,14|8,0:3|0:0,0:0:0:0:
277,314,220548,6,0,L|320:308,1,31.6250009651184,4|0,3:0|0:0,0:0:0:0:
373,350,220721,2,0,L|416:344,1,31.6250009651184,0|0,3:3|0:0,0:0:0:0:
479,382,220893,70,0,B|423:361|423:361|466:225,1,189.750005790711,8|2,0:3|0:0,0:0:0:0:
373,147,221583,2,0,P|379:183|384:212,1,63.2500019302369,8|0,0:0|0:0,0:0:0:0:
496,91,221928,2,0,P|490:127|485:156,1,63.2500019302369,6|2,3:3|0:1,0:0:0:0:
315,274,222272,6,0,B|230:248|225:334|123:307,1,189.750005790711,2|2,3:2|0:0,0:0:0:0:
10,240,222962,70,0,B|38:234|58:256|58:256|-4:130|78:48|140:69|174:133|113:169,1,342.125006525517,8|2,0:0|0:1,0:0:0:0:
130,154,223652,6,0,P|61:161|17:120,1,126.500003860474,10|8,0:3|0:1,0:0:0:0:
198,238,224169,2,0,P|259:226|331:216,1,126.500003860474,2|2,0:3|0:0,0:0:0:0:
467,115,224686,70,0,B|376:96|376:96|414:261,1,253.000007720947,14|8,0:3|0:1,0:0:0:0:
357,317,225548,1,2,0:0:0:0:
422,361,225721,1,12,0:0:0:0:
178,293,226066,5,12,3:3:0:0:
368,238,226238,1,8,0:3:0:0:
269,341,226410,70,0,P|277:293|298:143,1,189.750005790711,4|2,0:0|0:0,0:0:0:0:
201,57,227100,2,0,P|206:91|211:124,1,63.2500019302369,8|0,0:0|0:0,0:0:0:0:
149,198,227445,2,0,P|114:202|87:192,1,63.2500019302369,6|2,0:3|0:1,0:0:0:0:
270,318,227790,6,0,B|355:292|360:378|462:351,1,189.750005790711,2|2,3:0|0:0,0:0:0:0:
506,288,228479,2,0,P|504:251|492:219,1,63.2500019302369,8|2,0:0|0:0,0:0:0:0:
356,12,228824,2,0,L|347:49,1,31.6250009651184,4|0,3:0|0:0,0:0:0:0:
287,129,228997,2,0,P|284:107|276:86,1,31.6250009651184,0|0,3:3|0:0,0:0:0:0:
376,115,229169,70,0,P|424:108|507:97,1,126.500003860474,10|8,0:3|0:1,0:0:0:0:
326,213,229686,2,0,P|270:224|210:184,1,126.500003860474,2|2,0:3|0:1,0:0:0:0:
0,365,230203,6,0,B|78:203|225:226|265:348|170:408|116:376|110:329,1,379.500011581421,14|10,0:3|0:0,0:0:0:0:
82,192,231583,70,0,L|89:149,1,31.6250009651184,4|0,3:0|0:0,0:0:0:0:
54,99,231755,2,0,L|59:67,1,31.6250009651184,0|0,3:3|0:0,0:0:0:0:
0,139,231928,6,0,B|59:125|59:125|95:152|95:152|187:131,1,189.750005790711,8|2,0:3|0:0,0:0:0:0:
277,51,232617,2,0,P|272:84|267:118,1,63.2500019302369,8|0,0:0|0:0,0:0:0:0:
330,194,232962,2,0,P|372:187|406:183,1,63.2500019302369,6|2,3:3|0:1,0:0:0:0:
243,272,233307,70,0,B|103:244|103:244|135:262|134:300,1,189.750005790711,2|2,3:2|0:0,0:0:0:0:
305,357,233997,2,0,P|333:343|376:343,1,63.2500019302369,8|2,0:0|0:1,0:0:0:0:
219,99,234341,6,0,L|211:57,1,31.6250009651184,4|0,3:0|0:0,0:0:0:0:
283,148,234514,2,0,L|277:179,1,31.6250009651184,0|0,3:3|0:0,0:0:0:0:
334,248,234686,70,0,P|380:256|436:197,1,126.500003860474,10|8,0:3|0:1,0:0:0:0:
253,318,235203,2,0,P|211:291|129:298,1,126.500003860474,0|0,0:0|0:0,0:0:0:0:
68,245,235721,6,0,B|21:177|42:55|115:7|186:23|212:81|185:139|129:131,1,379.500011581421,14|2,0:3|0:0,0:0:0:0:
131,131,237445,6,0,P|167:105|217:107,1,86.25,2|0,0:0|0:0,0:0:0:0:
275,68,238135,2,0,L|370:84,1,86.25,2|0,0:0|0:0,0:0:0:0:
416,33,238824,6,0,P|445:7|414:31,1,115,2|2,0:0|0:0,0:0:0:0:
360,82,239859,2,0,L|365:113,1,28.75,2|0,0:0|0:0,0:0:0:0:
419,162,240203,6,0,P|450:164|480:146,1,57.5,2|0,0:3|0:0,0:0:0:0:
487,137,240721,2,0,P|482:170|471:234,1,86.25,2|2,0:3|0:3,0:0:0:0:
391,333,241583,1,2,0:0:0:0:
394,327,241755,2,0,P|392:297|384:265,1,57.5,2|2,0:3|0:0,0:0:0:0:
449,229,242272,2,0,L|508:242,1,57.5,2|2,0:3|0:0,0:0:0:0:
282,344,242962,6,0,P|241:337|185:328,1,86.25,2|0,0:0|0:0,0:0:0:0:
129,279,243652,2,0,P|151:254|211:255,1,86.25,2|0,0:0|0:0,0:0:0:0:
267,209,244341,38,0,P|288:166|274:93,1,115,2|2,0:0|0:0,0:0:0:0:
153,11,245376,2,0,L|161:46,1,28.75,2|0,0:0|0:0,0:0:0:0:
100,95,245721,6,0,P|76:99|40:105,1,57.5,2|0,0:3|0:0,0:0:0:0:
34,111,246238,2,0,B|25:149|25:149|27:154|27:154|15:205,1,86.25,2|2,0:3|0:3,0:0:0:0:
76,269,247100,1,2,0:0:0:0:
80,264,247272,2,0,P|112:257|136:254,1,57.5,2|2,0:3|0:0,0:0:0:0:
149,242,247790,6,0,P|181:245|248:253,1,86.25,2|0,0:3|0:0,0:0:0:0:
295,200,248479,6,0,L|289:165,2,34.4999989471436,0|0|0,1:0|1:0|1:0,0:0:0:0:
352,243,250376,1,2,1:3:0:0:
137,269,251238,38,0,L|143:234,2,34.4999989471436,0|0|0,1:0|1:0|1:0,0:0:0:0:
79,313,253135,1,2,1:3:0:0:
284,344,253997,6,0,L|278:309,2,34.4999989471436,0|0|0,1:0|1:0|1:0,0:0:0:0:
348,377,255894,1,2,1:3:0:0:
254,192,256755,5,0,1:0:0:0:
254,192,257445,1,0,1:0:0:0:
254,192,258135,1,0,1:0:0:0:
291,124,258652,5,2,1:3:0:0:
254,192,259169,37,2,0:0:0:0:
257,205,259341,1,2,3:2:0:0:
