osu file format v14

[General]
AudioFilename: audio.mp3
AudioLeadIn: 0
PreviewTime:35530
Countdown: 0
SampleSet: Soft
StackLeniency: 0.4
Mode: 2
LetterboxInBreaks: 0
WidescreenStoryboard: 1

[Editor]
Bookmarks:37069,49376,61684,73992
DistanceSpacing: 0.7
BeatDivisor: 4
GridSize: 32
TimelineZoom: 2.6

[Metadata]
Title:Avid (TV Size)
TitleUnicode:Avid (TV Size)
Artist:SawanoHiroyuki[nZk]:mizuki
ArtistUnicode:SawanoHiroyuki[nZk]:mizuki
Creator:Secre
Version:Spearhead
Source:86―エイティシックス―
Tags:chickenbible greaper nokashi eight eighty six spearhead vladilena milize sawanohiroyuki[nzk] sawano hiroyuki mizuki nzk japanese anime ending rock jrock pop jpop
BeatmapID:3041668
BeatmapSetID:1482946

[Difficulty]
HPDrainRate:5
CircleSize:3.9
OverallDifficulty:8.6
ApproachRate:8.6
SliderMultiplier:3.59999990463257
SliderTickRate:4

[Events]
//Background and Video events
0,0,"the undertaker is rushia.jpg",0,0
//Break Periods
//Storyboard Layer 0 (Background)
//Storyboard Layer 1 (Fail)
//Storyboard Layer 2 (Pass)
//Storyboard Layer 3 (Foreground)
//Storyboard Layer 4 (Overlay)
//Storyboard Sound Samples

[TimingPoints]
146,769.230769230769,4,2,1,40,1,0
146,-83.3333333333333,4,2,1,40,0,0
12453,-83.3333333333333,4,2,1,50,0,0
23222,-83.3333333333333,4,2,1,50,0,0
24761,-83.3333333333333,4,2,1,50,0,0
27453,-83.3333333333333,4,2,1,50,0,0
34569,-83.3333333333333,4,2,1,50,0,0
35530,-83.3333333333333,4,2,1,50,0,0
37069,-83.3333333333333,4,2,1,70,0,1
46876,-76.9230769230769,4,2,1,70,0,1
47453,-83.3333333333333,4,2,1,70,0,1
60722,-83.3333333333333,4,2,1,70,0,0
61684,-83.3333333333333,4,2,2,73,0,0
85915,-83.3333333333333,4,2,2,73,0,0
86684,-83.3333333333333,4,2,1,5,0,0

[Colours]
Combo1 : 60,159,213
Combo2 : 176,203,219
Combo3 : 171,219,254
Combo4 : 237,167,120

[HitObjects]
376,199,146,6,0,L|252:196,2,107.999993843079,2|2|0,0:0|0:0|0:0,0:0:0:0:
195,292,722,2,0,P|123:206|220:181,1,215.999987686158,2|2,0:0|0:0,0:0:0:0:
294,169,1299,2,0,L|303:45,1,107.999993843079,2|2,0:0|0:0,0:0:0:0:
105,121,1684,6,0,L|238:122,2,107.999993843079,2|2|0,0:0|0:0|0:0,0:0:0:0:
305,242,2261,2,0,P|371:155|288:135,1,215.999987686158,2|2,0:0|0:0,0:0:0:0:
196,159,2838,2,0,L|191:31,1,107.999993843079,2|2,0:0|0:0,0:0:0:0:
383,46,3222,6,0,L|393:193,1,107.999993843079,2|2,0:0|0:0,0:0:0:0:
290,157,3607,1,0,0:0:0:0:
107,242,3799,2,0,L|327:241,1,215.999987686158,2|2,0:0|0:0,0:0:0:0:
211,174,4376,2,0,L|204:42,1,107.999993843079,2|2,0:0|0:0,0:0:0:0:
387,88,4761,6,0,L|396:218,1,107.999993843079,2|2,0:0|0:0,0:0:0:0:
289,202,5145,1,0,0:0:0:0:
102,217,5338,2,0,P|38:124|145:97,1,215.999987686158,2|2,0:0|0:0,0:0:0:0:
199,79,5915,2,0,L|318:77,1,107.999993843079,2|2,0:0|0:0,0:0:0:0:
123,158,6299,6,0,L|15:159,2,107.999993843079,2|2|0,0:0|0:0|0:0,0:0:0:0:
322,97,6876,2,0,P|386:190|299:198,1,215.999987686158,2|2,0:0|0:0,0:0:0:0:
222,223,7453,2,0,L|356:215,1,107.999993843079,2|2,0:0|0:0,0:0:0:0:
132,249,7838,6,0,L|14:252,2,107.999993843079,2|2|0,0:0|0:0|0:0,0:0:0:0:
319,281,8415,2,0,P|389:210|295:165,1,215.999987686158,2|2,0:0|0:0,0:0:0:0:
208,155,8992,2,0,L|324:157,1,107.999993843079,2|2,0:0|0:0,0:0:0:0:
133,268,9376,6,0,L|131:150,1,107.999993843079,2|2,0:0|0:0,0:0:0:0:
240,148,9761,1,0,0:0:0:0:
49,182,9953,2,0,L|277:180,1,215.999987686158,2|2,0:0|0:0,0:0:0:0:
152,122,10530,2,0,L|145:7,1,107.999993843079,2|2,0:0|0:0,0:0:0:0:
334,268,10915,6,0,L|336:150,1,107.999993843079,2|2,0:0|0:0,0:0:0:0:
227,148,11300,1,0,0:0:0:0:
418,182,11492,2,0,L|190:180,1,215.999987686158,2|2,0:0|0:0,0:0:0:0:
315,122,12069,2,0,L|322:7,1,107.999993843079,2|2,0:0|0:0,0:0:0:0:
30,155,12453,5,2,0:0:0:0:
30,155,12645,2,0,L|177:152,1,107.999993843079,2|0,0:0|0:0,0:0:0:0:
333,220,13030,2,0,L|96:213,2,215.999987686158,2|2|2,0:0|0:0|0:0,0:0:0:0:
72,141,13992,6,0,L|67:16,1,107.999993843079,2|2,0:0|0:0,0:0:0:0:
180,17,14376,1,0,0:0:0:0:
364,191,14569,2,0,L|126:191,1,215.999987686158,2|2,0:0|0:0,0:0:0:0:
254,129,15145,2,0,L|375:128,1,107.999993843079,2|2,0:0|0:0,0:0:0:0:
76,255,15530,6,0,L|68:134,1,107.999993843079,2|2,0:0|0:0,0:0:0:0:
170,121,15915,1,0,0:0:0:0:
357,82,16107,2,0,P|430:167|329:192,1,215.999987686158,2|2,0:0|0:0,0:0:0:0:
186,203,16684,1,2,0:0:0:0:
351,186,16876,1,2,0:0:0:0:
78,207,17069,6,0,L|210:201,2,107.999993843079,2|2|0,0:0|0:0|0:0,0:0:0:0:
259,287,17645,2,0,P|323:198|227:155,1,215.999987686158,2|2,0:0|0:0,0:0:0:0:
77,172,18222,2,0,L|66:41,1,107.999993843079,2|2,0:0|0:0,0:0:0:0:
344,132,18607,6,0,L|206:130,1,107.999993843079,2|2,0:0|0:0,0:0:0:0:
236,130,18992,1,0,0:0:0:0:
436,93,19184,2,0,L|443:323,1,215.999987686158,2|2,0:0|0:0,0:0:0:0:
346,310,19761,1,2,0:0:0:0:
436,302,19953,1,2,0:0:0:0:
246,192,20145,6,0,L|135:191,2,107.999993843079,2|2|0,0:0|0:0|0:0,0:0:0:0:
65,283,20722,2,0,P|-1:190|103:178,1,215.999987686158,2|2,0:0|0:0,0:0:0:0:
169,153,21299,2,0,L|23:157,1,107.999993843079,2|2,0:0|0:0,0:0:0:0:
365,112,21684,6,0,L|371:233,1,107.999993843079,2|2,0:0|0:0,0:0:0:0:
266,233,22069,1,0,0:0:0:0:
446,280,22261,2,0,P|511:194|436:136,1,215.999987686158,2|2,0:0|0:0,0:0:0:0:
254,144,22838,2,0,L|114:141,1,107.999993843079,2|2,0:0|0:0,0:0:0:0:
436,117,23222,5,4,0:0:0:0:
256,192,23415,12,0,24569,0:0:0:0:
179,139,24761,6,0,L|314:138,2,107.999993843079,2|2|0,0:0|0:0|0:0,0:0:0:0:
357,252,25338,2,0,P|423:160|335:139,1,215.999987686158,2|2,0:0|0:0,0:0:0:0:
186,133,25915,1,2,0:0:0:0:
363,103,26107,1,2,0:0:0:0:
74,230,26299,6,0,L|204:231,2,107.999993843079,2|2|0,0:0|0:0|0:0,0:0:0:0:
374,265,26876,1,2,0:0:0:0:
458,211,27068,1,0,0:0:0:0:
377,121,27260,1,2,0:0:0:0:
193,103,27453,2,0,L|49:105,1,107.999993843079,2|2,0:0|0:0,0:0:0:0:
416,243,27838,6,0,L|272:245,2,107.999993843079,2|2|0,0:0|0:0|0:0,0:0:0:0:
224,286,28415,2,0,P|168:252|256:168,1,215.999987686158,2|2,0:0|0:0,0:0:0:0:
425,171,28992,2,0,L|432:38,1,107.999993843079,2|2,0:0|0:0,0:0:0:0:
145,153,29376,6,0,L|379:140,1,215.999987686158,2|0,0:0|0:0,0:0:0:0:
179,237,29953,2,0,L|174:126,1,107.999993843079,2|0,0:0|0:0,0:0:0:0:
350,93,30338,1,2,0:0:0:0:
175,107,30530,2,0,L|31:107,1,107.999993843079,2|2,0:0|0:0,0:0:0:0:
349,200,30915,6,0,L|470:200,1,107.999993843079,2|2,0:0|0:0,0:0:0:0:
185,136,31299,1,4,0:0:0:0:
362,73,31492,2,0,P|431:171|342:194,1,215.999987686158,2|2,0:0|0:0,0:0:0:0:
194,204,32069,2,0,L|74:202,1,107.999993843079,2|2,0:0|0:0,0:0:0:0:
371,197,32453,6,0,L|387:71,1,107.999993843079,2|2,0:0|0:0,0:0:0:0:
113,102,32838,1,4,0:0:0:0:
287,62,33030,1,2,0:0:0:0:
374,111,33222,1,0,0:0:0:0:
283,193,33414,1,2,0:0:0:0:
76,249,33607,2,0,L|59:118,1,107.999993843079,2|2,0:0|0:0,0:0:0:0:
336,133,33992,6,0,L|166:139,1,107.999993843079,2|2,0:0|0:0,0:0:0:0:
488,254,34376,1,4,0:0:0:0:
302,318,34569,2,0,P|128:282|177:56,1,431.999975372315,2|0,0:0|0:0,0:0:0:0:
442,166,35530,5,4,0:0:0:0:
256,192,35722,12,0,36876,0:0:0:0:
349,187,37069,6,0,L|212:187,2,107.999993843079,4|0|2,3:0|0:0|3:0,0:0:0:0:
51,210,37645,2,0,L|48:85,1,107.999993843079,8|2,1:0|3:0,0:0:0:0:
151,86,38030,1,0,3:0:0:0:
437,149,38222,1,8,3:0:0:0:
271,151,38415,1,10,3:0:0:0:
437,149,38607,6,0,L|444:19,1,107.999993843079,0|0,3:0|3:0,0:0:0:0:
267,35,38992,2,0,L|105:41,1,107.999993843079,10|0,3:0|0:0,0:0:0:0:
457,183,39376,1,8,1:0:0:0:
182,209,39761,2,0,L|311:207,1,107.999993843079,4|0,0:0|0:0,0:0:0:0:
25,283,40145,6,0,P|11:164|28:53,1,215.999987686158,8|2,3:0|3:0,0:0:0:0:
304,171,40722,2,0,L|65:169,1,215.999987686158,8|0,3:0|3:0,0:0:0:0:
401,243,41299,2,0,L|421:97,1,107.999993843079,8|2,1:0|3:0,0:0:0:0:
96,158,41684,6,0,L|301:161,2,161.999990764618,0|0|0,3:0|0:0|0:0,0:0:0:0:
367,177,42453,2,0,L|385:27,1,107.999993843079,8|0,1:0|0:0,0:0:0:0:
61,104,42838,2,0,L|46:-17,1,107.999993843079,2|0,3:0|0:0,0:0:0:0:
369,222,43222,6,0,L|122:214,1,215.999987686158,4|2,3:0|3:0,0:0:0:0:
430,302,43799,2,0,P|493:210|397:176,1,215.999987686158,8|0,1:0|3:0,0:0:0:0:
159,143,44376,1,8,3:0:0:0:
350,115,44569,1,10,3:0:0:0:
73,254,44761,5,0,3:0:0:0:
247,210,44953,2,0,L|251:81,1,107.999993843079,0|10,3:0|3:0,0:0:0:0:
74,96,45338,1,0,0:0:0:0:
398,77,45530,2,0,L|416:341,1,215.999987686158,8|4,1:0|0:0,0:0:0:0:
305,293,46107,1,0,0:0:0:0:
16,167,46299,6,0,L|176:163,2,107.999993843079,8|0|2,3:0|0:0|3:0,0:0:0:0:
325,295,46876,2,0,P|318:190|172:193,1,233.999983089448,8|0,3:0|3:0,0:0:0:0:
504,93,47453,2,0,L|507:213,1,107.999993843079,8|2,1:0|3:0,0:0:0:0:
182,198,47838,5,0,3:0:0:0:
285,195,48030,1,8,3:0:0:0:
386,195,48222,1,8,3:0:0:0:
69,273,48415,2,0,L|56:28,1,215.999987686158
240,55,48992,1,2,3:0:0:0:
67,61,49184,1,0,0:0:0:0:
371,232,49376,6,0,P|446:203|347:152,1,215.999987686158,4|2,3:0|3:0,0:0:0:0:
114,179,49953,2,0,L|341:172,1,215.999987686158,8|0,1:0|3:0,0:0:0:0:
160,89,50530,1,8,3:0:0:0:
331,88,50722,1,10,3:0:0:0:
53,192,50915,5,0,3:0:0:0:
221,148,51107,2,0,L|226:293,1,107.999993843079,0|10,3:0|3:0,0:0:0:0:
53,192,51492,1,0,0:0:0:0:
381,115,51684,2,0,L|116:114,1,215.999987686158,8|4,1:0|0:0,0:0:0:0:
346,203,52261,1,0,0:0:0:0:
69,234,52453,6,0,L|310:235,1,215.999987686158,8|2,3:0|3:0,0:0:0:0:
23,284,53030,2,0,L|16:65,1,215.999987686158,8|0,3:0|3:0,0:0:0:0:
326,78,53607,1,8,1:0:0:0:
153,78,53799,1,2,3:0:0:0:
484,245,53992,6,0,L|285:241,2,161.999990764618,0|0|0,3:0|0:0|0:0,0:0:0:0:
200,132,54761,2,0,L|74:133,1,107.999993843079,8|0,1:0|0:0,0:0:0:0:
397,62,55145,2,0,L|507:62,1,107.999993843079,2|0,3:0|0:0,0:0:0:0:
191,253,55530,6,0,L|412:251,1,215.999987686158,4|2,3:0|3:0,0:0:0:0:
113,290,56107,2,0,P|46:241|146:169,1,215.999987686158,8|0,1:0|3:0,0:0:0:0:
366,142,56684,1,8,3:0:0:0:
191,137,56876,1,10,3:0:0:0:
470,212,57069,5,0,3:0:0:0:
302,179,57261,2,0,L|296:57,1,107.999993843079,0|10,3:0|3:0,0:0:0:0:
464,61,57645,1,0,0:0:0:0:
148,212,57838,2,0,L|376:209,1,215.999987686158,8|4,1:0|0:0,0:0:0:0:
199,130,58415,1,0,0:0:0:0:
459,88,58607,6,0,L|470:336,1,215.999987686158,8|2,3:0|3:0,0:0:0:0:
173,291,59184,2,0,L|406:274,1,215.999987686158,8|0,3:0|3:0,0:0:0:0:
101,215,59761,2,0,L|92:67,1,107.999993843079,8|2,1:0|3:0,0:0:0:0:
275,116,60145,6,0,L|147:114,2,107.999993843079,0|8|8,3:0|3:0|3:0,0:0:0:0:
18,162,60722,5,4,0:0:0:0:
256,192,60915,12,0,61492,0:0:0:0:
108,206,61684,6,0,L|354:206,1,215.999987686158,4|2,3:0|3:0,0:0:0:0:
159,127,62261,1,8,1:0:0:0:
453,97,62453,2,0,L|464:235,1,107.999993843079,2|0,3:0|3:0,0:0:0:0:
191,172,62838,1,8,3:0:0:0:
355,164,63030,1,10,3:0:0:0:
40,175,63222,5,0,3:0:0:0:
191,172,63415,1,0,3:0:0:0:
40,175,63607,1,10,3:0:0:0:
191,172,63799,1,0,0:0:0:0:
487,98,63992,2,0,L|496:332,1,215.999987686158,8|4,1:0|0:0,0:0:0:0:
390,318,64569,1,0,0:0:0:0:
111,196,64761,5,8,3:0:0:0:
281,147,64953,2,0,L|289:19,1,107.999993843079,0|2,0:0|3:0,0:0:0:0:
111,196,65338,1,8,3:0:0:0:
419,166,65530,2,0,L|425:13,1,107.999993843079,2|0,3:0|3:0,0:0:0:0:
237,64,65915,2,0,L|109:66,1,107.999993843079,8|2,1:0|3:0,0:0:0:0:
327,250,66299,5,0,3:0:0:0:
420,207,66491,1,8,3:0:0:0:
420,105,66683,1,8,3:0:0:0:
328,62,66875,1,0,0:0:0:0:
31,266,67069,2,0,L|21:33,1,215.999987686158,8|2,1:0|3:0,0:0:0:0:
131,25,67645,1,0,0:0:0:0:
413,251,67838,6,0,L|185:243,1,215.999987686158,4|2,3:0|3:0,0:0:0:0:
360,178,68415,1,8,1:0:0:0:
101,163,68607,2,0,L|84:38,1,107.999993843079,2|0,3:0|3:0,0:0:0:0:
340,43,68992,1,8,3:0:0:0:
186,44,69184,1,10,3:0:0:0:
456,217,69376,5,0,3:0:0:0:
284,171,69569,2,0,L|276:32,1,107.999993843079,0|10,3:0|3:0,0:0:0:0:
448,37,69953,1,0,0:0:0:0:
108,245,70145,2,0,L|346:237,1,215.999987686158,8|4,1:0|0:0,0:0:0:0:
153,153,70722,1,0,0:0:0:0:
431,237,70915,6,0,L|282:238,1,107.999993843079,8|0,3:0|0:0,0:0:0:0:
491,222,71299,2,0,L|498:83,1,107.999993843079,2|8,3:0|3:0,0:0:0:0:
204,144,71684,2,0,L|339:137,1,107.999993843079,2|0,3:0|3:0,0:0:0:0:
137,199,72069,1,8,1:0:0:0:
316,129,72261,1,2,3:0:0:0:
137,199,72453,5,0,3:0:0:0:
42,160,72645,1,8,3:0:0:0:
43,58,72837,1,8,3:0:0:0:
137,21,73029,1,0,0:0:0:0:
420,258,73222,2,0,L|185:255,1,215.999987686158,8|2,1:0|3:0,0:0:0:0:
373,156,73799,1,8,3:0:0:0:
69,152,73992,5,4,3:0:0:0:
341,173,74376,2,0,L|206:177,1,107.999993843079,2|8,3:0|1:0,0:0:0:0:
493,263,74761,1,2,3:0:0:0:
229,222,75145,2,0,L|340:217,1,107.999993843079,8|10,3:0|3:0,0:0:0:0:
55,270,75530,6,0,L|40:139,1,107.999993843079,0|0,3:0|3:0,0:0:0:0:
216,128,75915,2,0,L|97:130,1,107.999993843079,10|0,3:0|0:0,0:0:0:0:
394,265,76299,2,0,P|457:243|376:159,1,215.999987686158,8|4,1:0|0:0,0:0:0:0:
208,157,76876,1,0,0:0:0:0:
476,227,77069,6,0,L|484:92,1,107.999993843079,8|0,3:0|0:0,0:0:0:0:
204,73,77453,1,2,3:0:0:0:
385,63,77645,1,8,3:0:0:0:
92,209,77838,2,0,L|82:75,1,107.999993843079,2|0,3:0|3:0,0:0:0:0:
368,111,78222,1,8,1:0:0:0:
197,103,78415,6,0,L|193:-26,1,107.999993843079,2|0,3:0|3:0,0:0:0:0:
368,111,78799,1,8,3:0:0:0:
111,153,78992,2,0,L|-3:153,1,107.999993843079,8|0,3:0|0:0,0:0:0:0:
364,240,79376,2,0,L|126:241,1,215.999987686158,8|2,1:0|3:0,0:0:0:0:
315,170,79953,1,0,3:0:0:0:
26,157,80145,5,4,3:0:0:0:
289,77,80530,2,0,L|181:78,1,107.999993843079,2|8,3:0|1:0,0:0:0:0:
456,246,80915,2,0,L|466:21,1,215.999987686158,2|8,3:0|3:0,0:0:0:0:
362,26,81492,1,10,3:0:0:0:
60,168,81684,6,0,L|184:164,1,107.999993843079,0|0,3:0|3:0,0:0:0:0:
437,142,82069,1,10,3:0:0:0:
255,138,82261,1,0,0:0:0:0:
505,254,82453,1,8,1:0:0:0:
330,200,82645,1,10,3:0:0:0:
154,151,82838,1,4,0:0:0:0:
430,109,83030,1,8,1:0:0:0:
120,266,83222,6,0,P|64:228|153:149,1,215.999987686158,8|2,3:0|0:0,0:0:0:0:
333,189,83799,2,0,L|114:182,1,215.999987686158,2|0,0:0|0:0,0:0:0:0:
308,121,84376,2,0,L|316:-2,1,107.999993843079,2|2,0:0|0:0,0:0:0:0:
125,153,84761,6,0,L|255:153,2,107.999993843079,0|0|2,0:0|0:0|0:0,0:0:0:0:
308,243,85338,2,0,P|366:218|291:118,1,215.999987686158,2|0,0:0|0:0,0:0:0:0:
139,173,85915,6,0,L|128:52,1,107.999993843079,2|0,0:0|0:0,0:0:0:0:
