osu file format v14

[General]
AudioFilename: audio.mp3
AudioLeadIn: 0
PreviewTime: 35530
Countdown: 0
SampleSet: Soft
StackLeniency: 0.4
Mode: 0
LetterboxInBreaks: 0
WidescreenStoryboard: 0

[Editor]
Bookmarks: 37069,49376,61684,73992
DistanceSpacing: 1
BeatDivisor: 8
GridSize: 32
TimelineZoom: 2.6

[Metadata]
Title:Avid (TV Size)
TitleUnicode:Avid (TV Size)
Artist:SawanoHiroyuki[nZk]:mizuki
ArtistUnicode:SawanoHiroyuki[nZk]:mizuki
Creator:Maot
Version:colorata
Source:86―エイティシックス―
Tags:86 eight eighty six spearhead vladilena milize milizé sawanohiroyuki[nzk] sawano hiroyuki mizuki nzk japanese anime ending rock jrock j-rock pop jpop j-pop moete
BeatmapID:2954172
BeatmapSetID:1435750

[Difficulty]
HPDrainRate:5
CircleSize:4.5
OverallDifficulty:8.2
ApproachRate:8.2
SliderMultiplier:2.5
SliderTickRate:1

[Events]
//Background and Video events
0,0,"CARAKHOOO.jpg",0,0
Video,-80,"video.mp4"
//Break Periods
//Storyboard Layer 0 (Background)
//Storyboard Layer 1 (Fail)
//Storyboard Layer 2 (Pass)
//Storyboard Layer 3 (Foreground)
//Storyboard Layer 4 (Overlay)
//Storyboard Sound Samples

[TimingPoints]
146,769.230769230769,4,2,1,40,1,0
146,-100,4,2,1,40,0,0
12453,-100,4,2,1,50,0,0
23222,-125,4,2,1,50,0,0
24761,-100,4,2,1,50,0,0
34569,-149.253731343284,4,2,1,50,0,0
35530,-100,4,2,1,50,0,0
37069,-83.3333333333333,4,2,1,70,0,0
60722,-111.111111111111,4,2,1,70,0,0
61684,-80,4,2,2,73,0,1
83030,-83.3333333333333,4,2,2,73,0,1
85915,-111.111111111111,4,2,2,30,0,0
86684,-111.111111111111,4,2,1,5,0,0

[Colours]
Combo1 : 60,159,213
Combo2 : 176,203,219
Combo3 : 171,219,254
Combo4 : 237,167,120

[HitObjects]
49,52,146,6,0,B|107:52|104:84|174:86,1,125,2|0,0:0|0:0,0:0:0:0:
49,52,722,1,2,0:0:0:0:
204,146,1107,2,0,P|189:196|177:227,2,62.5,2|0|0,0:0|0:0|0:0,0:0:0:0:
286,274,1684,6,0,P|342:222|394:249,1,125,2|0,0:0|0:0,0:0:0:0:
286,274,2261,1,2,0:0:0:0:
448,207,2645,2,0,P|437:177|429:147,1,62.5,2|0,0:0|0:0,0:0:0:0:
436,69,3030,1,2,0:0:0:0:
322,185,3222,6,0,P|255:161|187:141,1,125,2|0,0:0|0:0,0:0:0:0:
322,185,3799,1,2,0:0:0:0:
124,174,4184,2,0,L|28:204,2,62.5,2|0|0,0:0|0:0|0:0,0:0:0:0:
258,243,4761,6,0,B|255:314|278:288|277:366,1,125,2|0,0:0|0:0,0:0:0:0:
258,243,5338,1,2,0:0:0:0:
258,243,5915,1,2,0:0:0:0:
60,358,6299,6,0,P|11:325|19:266,1,125,2|0,0:0|0:0,0:0:0:0:
61,358,6876,1,2,0:0:0:0:
93,217,7261,2,0,P|70:186|18:174,2,62.5,2|0|0,0:0|0:0|0:0,0:0:0:0:
174,233,7838,6,0,B|268:217|268:217|302:233,1,125,2|0,0:0|0:0,0:0:0:0:
174,233,8415,1,2,0:0:0:0:
355,280,8799,2,0,L|452:254,1,62.5,2|0,0:0|0:0,0:0:0:0:
453,83,9376,6,0,P|415:36|357:49,1,125,2|0,0:0|0:0,0:0:0:0:
453,83,9953,1,2,0:0:0:0:
293,95,10338,2,0,L|317:174,2,62.5,2|0|0,0:0|0:0|0:0,0:0:0:0:
254,213,10915,6,0,B|182:207|202:182|117:182,1,125,2|0,0:0|0:0,0:0:0:0:
254,213,11492,1,2,0:0:0:0:
82,235,11876,2,0,P|52:244|22:254,1,62.5,2|0,0:0|0:0,0:0:0:0:
142,278,12261,1,2,0:0:0:0:
51,158,12453,6,0,P|43:89|109:42,1,125,2|0,0:0|0:0,0:0:0:0:
158,41,13030,2,0,L|240:72,1,62.5,2|0,0:0|0:0,0:0:0:0:
360,186,13415,2,0,B|373:159|373:159|359:130,1,62.5,2|0,0:0|0:0,0:0:0:0:
275,175,13799,6,0,B|283:230|283:230|295:246|295:246|303:303,2,125,2|2|2,0:0|0:0|0:0,0:0:0:0:
371,320,14953,2,0,L|355:394,1,62.5,2|0,0:0|0:0,0:0:0:0:
283,381,15338,1,2,0:0:0:0:
449,315,15530,6,0,P|491:260|470:216,1,125,2|0,0:0|0:0,0:0:0:0:
405,164,16107,2,0,P|343:176|282:187,1,125,2|0,0:0|0:0,0:0:0:0:
208,156,16684,2,0,B|196:127|196:127|208:99,1,62.5,2|0,0:0|0:0,0:0:0:0:
287,273,17069,6,0,P|225:260|164:249,1,125,2|0,0:0|0:0,0:0:0:0:
287,273,17645,1,2,0:0:0:0:
99,297,18030,2,0,L|25:321,1,62.5,2|0,0:0|0:0,0:0:0:0:
0,246,18415,1,0,0:0:0:0:
175,326,18607,6,0,B|235:326|229:358|295:364,1,125,2|0,0:0|0:0,0:0:0:0:
367,311,19184,2,0,L|354:230,1,62.5,2|0,0:0|0:0,0:0:0:0:
245,121,19569,2,0,P|214:124|191:144,1,62.5,2|0,0:0|0:0,0:0:0:0:
328,150,19953,6,0,P|363:94|312:42,2,125,2|2|2,0:0|0:0|0:0,0:0:0:0:
263,8,21107,2,0,L|193:25,1,62.5,2|0,0:0|0:0,0:0:0:0:
263,8,21492,1,2,0:0:0:0:
400,6,21684,6,0,B|496:27|496:27|510:68,1,125,2|0,0:0|0:0,0:0:0:0:
461,126,22261,2,0,L|493:273,1,125,2|0,0:0|0:0,0:0:0:0:
428,297,22838,1,2,0:0:0:0:
428,297,23030,1,2,0:0:0:0:
458,118,23222,6,0,B|400:123|400:123|388:154|388:154|325:205,1,150,2|0,0:0|0:0,0:0:0:0:
175,318,24184,5,0,0:0:0:0:
175,318,24376,2,0,L|102:296,1,50,2|0,0:0|0:0,0:0:0:0:
59,331,24761,2,0,P|11:292|43:228,1,125,2|0,0:0|0:0,0:0:0:0:
97,191,25338,2,0,L|68:53,1,125,2|0,0:0|0:0,0:0:0:0:
188,5,25915,2,0,P|156:3|128:15,1,62.5,2|0,0:0|0:0,0:0:0:0:
196,140,26299,6,0,B|271:147|249:174|336:180,1,125,2|0,0:0|0:0,0:0:0:0:
375,239,26876,2,0,L|349:361,1,125,2|0,0:0|0:0,0:0:0:0:
442,199,27453,2,0,P|482:192|517:220,1,62.5,2|0,0:0|0:0,0:0:0:0:
304,261,27838,6,0,P|240:230|161:209,1,125,2|0,0:0|0:0,0:0:0:0:
304,261,28415,1,2,0:0:0:0:
122,263,28799,2,0,L|49:288,1,62.5,2|0,0:0|0:0,0:0:0:0:
4,343,29184,1,2,0:0:0:0:
113,183,29376,6,0,L|60:44,1,125,2|0,0:0|0:0,0:0:0:0:
134,17,29953,2,0,P|164:13|193:24,1,62.5,2|0,0:0|0:0,0:0:0:0:
266,124,30338,2,0,L|253:185,2,62.5,2|0|0,0:0|0:0|0:0,0:0:0:0:
382,265,30915,6,0,P|412:267|437:249,1,62.5,2|0,0:0|0:0,0:0:0:0:
417,179,31299,1,2,0:0:0:0:
303,248,31492,2,0,L|326:382,1,125,2|0,0:0|0:0,0:0:0:0:
249,383,32069,2,0,B|214:379|214:379|198:356,1,62.5,2|0,0:0|0:0,0:0:0:0:
135,237,32453,6,0,L|74:220,1,62.5,2|0,0:0|0:0,0:0:0:0:
74,220,32838,1,2,0:0:0:0:
201,195,33030,2,0,P|207:121|134:86,1,125,2|0,0:0|0:0,0:0:0:0:
94,83,33607,1,2,0:0:0:0:
94,83,33799,1,2,0:0:0:0:
217,18,33992,6,0,L|294:32,1,62.5,2|0,0:0|0:0,0:0:0:0:
325,95,34376,1,2,0:0:0:0:
201,195,34569,2,0,B|210:250|210:250|220:268|220:268|229:324,1,125.624994057656,2|0,0:0|0:0,0:0:0:0:
227,316,35530,6,0,P|197:263|138:264,1,125,2|0,0:0|0:0,0:0:0:0:
32,198,36107,2,0,P|91:197|121:145,1,125,2|0,0:0|0:0,0:0:0:0:
107,63,36684,1,2,0:0:0:0:
107,63,36876,1,2,0:0:0:0:
201,195,37069,6,0,B|271:193|277:232|365:227,1,149.999995422363,6|0,3:2|0:0,0:0:0:0:
410,172,37645,2,0,L|388:98,1,74.9999977111817,0|0,1:2|0:0,0:0:0:0:
410,172,38030,1,0,3:0:0:0:
492,266,38222,2,0,B|505:302|505:302|486:334,1,74.9999977111817,2|2,3:2|3:2,0:0:0:0:
426,384,38607,6,0,L|275:347,1,149.999995422363,0|4,3:0|0:3,0:0:0:0:
201,374,39184,1,2,0:3:0:0:
318,274,39376,2,0,P|308:238|280:213,1,74.9999977111817,0|0,1:2|0:0,0:0:0:0:
209,189,39761,1,2,0:2:0:0:
209,189,39953,1,2,0:0:0:0:
312,69,40145,6,0,B|251:79|251:79|228:100|228:100|154:115,1,149.999995422363,0|0,3:2|0:0,0:0:0:0:
118,174,40722,2,0,L|144:267,1,74.9999977111817,0|0,3:0|0:0,0:0:0:0:
207,204,41107,1,0,0:0:0:0:
89,306,41299,2,0,P|52:307|25:283,1,74.9999977111817,2|0,1:3|0:0,0:0:0:0:
207,204,41684,6,0,L|294:233,1,74.9999977111817,2|2,3:2|3:3,0:0:0:0:
279,229,41972,1,2,2:0:0:0:
286,238,42069,1,2,3:2:0:0:
434,165,42261,2,0,P|439:127|412:91,1,74.9999977111817,2|0,0:0|1:2,0:0:0:0:
333,63,42645,1,2,0:0:0:0:
245,101,42838,1,4,3:3:0:0:
77,44,43030,1,2,0:2:0:0:
166,5,43222,6,0,B|179:60|137:84|149:164,1,149.999995422363,4|0,3:2|0:3,0:3:0:0:
71,189,43799,2,0,L|93:283,1,74.9999977111817,0|0,1:3|0:0,0:0:0:0:
71,189,44184,1,0,0:0:0:0:
156,315,44376,2,0,P|217:300|232:273,1,74.9999977111817,2|2,3:2|3:2,0:0:0:0:
301,232,44761,6,0,L|374:245,1,74.9999977111817,2|0,0:0|0:0,0:0:0:0:
431,298,45145,1,0,3:3:0:0:
211,190,45530,2,0,P|219:129|259:113,1,74.9999977111817,0|0,1:3|0:0,0:0:0:0:
309,90,45915,1,2,3:2:0:0:
309,90,46107,1,2,0:2:0:0:
187,34,46299,6,0,L|97:44,1,74.9999977111817,0|0,3:3|0:0,0:0:0:0:
68,107,46684,1,2,0:2:0:0:
271,18,46876,2,0,P|328:45|438:68,1,149.999995422363,0|0,3:3|0:0,0:0:0:0:
296,179,47453,2,0,P|324:165|379:153,1,74.9999977111817,0|0,1:3|0:0,0:0:0:0:
255,105,47838,5,2,0:0:0:0:
461,157,48030,2,0,P|470:206|451:234,1,74.9999977111817,0|0,3:3|3:0,0:0:0:0:
319,271,48415,5,2,0:0:0:0:
319,271,48607,1,0,1:0:0:0:
455,358,48799,1,2,0:2:0:0:
410,284,48992,1,4,3:3:0:0:
289,371,49184,1,6,3:3:0:0:
228,224,49376,6,0,P|144:227|116:281,1,149.999995422363,4|0,3:2|0:0,0:0:0:0:
70,345,49953,2,0,L|0:320,1,74.9999977111817,0|0,1:3|0:0,0:0:0:0:
7,239,50338,1,0,3:3:0:0:
120,137,50530,2,0,P|143:166|150:203,1,74.9999977111817,2|0,3:2|3:0,0:0:0:0:
282,287,50915,6,0,B|347:288|359:335|423:336,1,149.999995422363,0|0,3:2|3:2,0:0:0:0:
282,287,51492,1,2,0:3:0:0:
219,340,51684,2,0,L|120:366,1,74.9999977111817,0|0,1:2|0:0,0:0:0:0:
355,224,52069,1,2,0:0:0:0:
355,224,52261,1,2,0:0:0:0:
241,94,52453,6,0,P|168:86|113:134,1,149.999995422363,0|2,3:3|0:3,0:0:0:0:
90,212,53030,2,0,L|120:303,1,74.9999977111817,0|0,3:3|0:0,0:0:0:0:
90,212,53415,1,2,0:3:0:0:
76,350,53607,2,0,P|29:355|3:331,1,74.9999977111817,0|2,1:2|0:3,0:0:0:0:
6,332,53895,1,2,0:2:0:0:
3,324,53992,1,2,0:2:0:0:
175,223,54184,2,0,L|249:247,1,74.9999977111817,2|0,3:2|3:3,0:0:0:0:
354,254,54569,1,2,0:0:0:0:
441,192,54761,5,0,1:0:0:0:
321,166,54953,1,2,0:2:0:0:
287,318,55145,1,0,3:3:0:0:
451,295,55338,1,2,3:2:0:0:
382,116,55530,6,0,B|319:123|319:123|298:137|298:137|206:149,1,149.999995422363,4|0,3:2|0:0,0:0:0:0:
196,222,56107,2,0,L|122:207,1,74.9999977111817,0|0,1:3|0:0,0:0:0:0:
196,222,56492,1,0,3:3:0:0:
62,320,56684,2,0,P|45:287|54:251,1,74.9999977111817,2|0,3:2|3:3,0:0:0:0:
162,140,57069,6,0,B|141:67,1,74.9999977111817,0|0,3:3|0:0,0:0:0:0:
281,225,57453,2,0,B|354:246,1,74.9999977111817,0|0,3:3|0:0,0:0:0:0:
423,203,57838,1,2,1:3:0:0:
232,293,58222,5,2,0:0:0:0:
232,293,58415,1,2,0:0:0:0:
354,164,58607,2,0,B|325:14,1,149.999995422363,4|2,3:2|0:2,0:0:0:0:
354,164,59184,1,0,3:3:0:0:
401,24,59376,2,0,L|476:6,1,74.9999977111817,2|0,0:3|0:0,0:0:0:0:
269,150,59761,2,0,L|194:132,1,74.9999977111817,0|0,1:2|0:0,0:0:0:0:
417,280,60145,2,0,P|429:325|416:364,1,74.9999977111817,2|0,0:2|3:3,0:0:0:0:
353,382,60530,1,2,3:3:0:0:
406,205,60722,6,0,B|285:170|322:247|194:267,1,224.999993133545,2|0,0:2|0:0,0:1:0:0:
154,203,61684,6,0,B|92:214|92:214|69:232|69:232|5:248,1,156.25,4|0,3:2|0:0,0:0:0:0:
154,203,62261,1,0,3:3:0:0:
233,195,62453,2,0,L|259:114,1,78.125,2|0,1:2|0:0,0:0:0:0:
195,64,62838,1,0,3:3:0:0:
322,180,63030,6,0,P|379:154|476:151,1,156.25,2|0,3:2|0:0,0:0:0:0:
326,50,63607,2,0,P|362:64|401:66,1,78.125,0|0,3:0|0:0,0:0:0:0:
255,123,63992,1,0,1:2:0:0:
468,243,64376,2,0,L|446:326,1,78.125,2|2,0:2|0:0,0:0:0:0:
251,356,64761,6,0,B|186:352|176:298|107:298,1,156.25,0|0,3:3|0:0,0:0:0:0:
251,356,65338,1,2,0:3:0:0:
305,292,65530,2,0,L|381:268,1,78.125,0|0,1:3|3:0,0:0:0:0:
396,189,65915,1,2,3:2:0:0:
308,73,66107,6,0,P|234:89|225:167,1,156.25,2|0,0:0|0:0,0:0:0:0:
308,73,66684,1,0,3:3:0:0:
60,24,67069,2,0,L|83:108,1,78.125,0|0,1:2|0:0,0:0:0:0:
173,38,67453,1,2,0:3:0:0:
14,187,67645,1,2,0:3:0:0:
196,269,67838,6,0,B|266:270|273:225|345:235,1,156.25,4|0,3:2|0:0,0:0:0:0:
196,269,68415,1,2,3:2:0:0:
136,323,68607,2,0,P|98:304|58:292,1,78.125,2|0,1:2|0:0,0:0:0:0:
3,342,68992,1,2,3:2:0:0:
126,235,69184,2,0,B|119:171|119:171|104:149|104:149|96:84,1,156.25,2|0,3:2|3:3,0:0:0:0:
167,45,69761,2,0,L|243:15,1,78.125,0|0,3:3|0:0,0:0:0:0:
26,140,70145,1,0,1:2:0:0:
252,334,70530,6,0,L|331:315,1,78.125,2|2,0:0|0:0,0:0:0:0:
437,208,70915,2,0,P|434:133|369:97,1,156.25,0|2,3:3|0:3,0:0:0:0:
437,208,71492,1,2,0:3:0:0:
407,289,71684,2,0,L|441:379,1,78.125,0|2,1:3|3:2,0:0:0:0:
495,287,72069,1,2,3:2:0:0:
344,227,72261,6,0,B|282:225|268:272|193:270,1,156.25,2|0,0:2|0:2,0:2:0:0:
344,227,72838,1,2,3:3:0:0:
137,323,73222,2,0,L|32:291,1,78.125,2|0,1:2|0:0,0:0:0:0:
24,229,73607,1,8,0:3:0:0:
153,168,73799,1,8,0:3:0:0:
236,179,73992,6,0,L|201:17,1,156.25,4|2,3:2|0:2,0:0:0:0:
203,26,74569,1,2,3:2:0:0:
79,143,74761,2,0,P|116:152|153:168,1,78.125,0|0,1:2|0:0,0:0:0:0:
34,72,75145,1,2,3:2:0:0:
34,72,75338,1,2,3:2:0:0:
309,227,75915,6,0,L|405:198,1,78.125,2|0,3:2|0:0,0:0:0:0:
211,336,76299,2,0,L|134:312,1,78.125,2|0,1:2|0:0,0:0:0:0:
227,198,76684,1,2,0:2:0:0:
227,198,76876,1,2,0:2:0:0:
336,336,77069,6,0,P|407:361|472:320,1,156.25,0|2,3:3|0:0,0:0:0:0:
472,321,77645,1,2,0:0:0:0:
399,127,77838,2,0,L|383:205,1,78.125,0|0,1:2|3:3,0:0:0:0:
470,84,78222,1,2,3:2:0:0:
470,84,78415,1,2,0:2:0:0:
271,270,78992,6,0,P|236:253|177:240,1,78.125,2|0,3:2|2:2,0:0:0:0:
62,200,79376,2,0,P|101:187|137:170,1,78.125,2|0,1:2|0:0,0:0:0:0:
113,275,79761,1,2,0:2:0:0:
113,275,79953,1,2,0:2:0:0:
225,151,80145,6,0,P|302:185|378:191,1,156.25,4|2,3:2|0:2,0:0:0:0:
373,191,80722,1,2,3:2:0:0:
199,243,80915,2,0,L|216:326,1,78.125,0|0,1:0|0:0,0:0:0:0:
199,243,81299,1,2,3:2:0:0:
135,172,81492,2,0,B|80:189|80:189|55:212|55:212|-6:231,1,156.25,2|0,3:3|0:0,0:0:0:0:
152,91,82069,5,2,3:2:0:0:
90,33,82261,2,0,L|12:18,1,78.125,2|0,3:2|1:3,0:0:0:0:
168,5,82646,1,8,3:3:0:0:
68,110,82838,1,8,3:3:0:0:
215,153,83030,6,0,P|200:217|195:319,1,149.999995422363,2|0,0:3|0:0,0:0:0:0:
274,354,83607,1,2,0:0:0:0:
274,354,83799,1,2,0:0:0:0:
117,250,84376,1,2,0:0:0:0:
117,250,84569,1,2,0:0:0:0:
298,143,85145,1,2,0:0:0:0:
298,143,85338,1,2,0:0:0:0:
120,43,85915,6,0,B|38:-37|-49:30|-2:116|71:79,1,224.999993133545,2|0,0:0|0:0,0:0:0:0:
