osu file format v14

[General]
AudioFilename: audio.mp3
AudioLeadIn: 0
PreviewTime: 35530
Countdown: 0
SampleSet: Soft
StackLeniency: 0.7
Mode: 0
LetterboxInBreaks: 0
WidescreenStoryboard: 1

[Editor]
DistanceSpacing: 1
BeatDivisor: 8
GridSize: 32
TimelineZoom: 2.6

[Metadata]
Title:Avid (TV Size)
TitleUnicode:Avid (TV Size)
Artist:SawanoHiroyuki[nZk]:mizuki
ArtistUnicode:SawanoHiroyuki[nZk]:mizuki
Creator:Maot
Version:Normal
Source:86―エイティシックス―
Tags:86 eight eighty six spearhead vladilena milize milizé sawanohiroyuki[nzk] sawano hiroyuki mizuki nzk japanese anime ending rock jrock j-rock pop jpop j-pop moete
BeatmapID:2959610
BeatmapSetID:1435750

[Difficulty]
HPDrainRate:4
CircleSize:3.5
OverallDifficulty:4
ApproachRate:5
SliderMultiplier:1.6
SliderTickRate:1

[Events]
//Background and Video events
0,0,"CARAKHOOO.jpg",0,0
Video,-80,"video.mp4"
//Break Periods
//Storyboard Layer 0 (Background)
//Storyboard Layer 1 (Fail)
//Storyboard Layer 2 (Pass)
//Storyboard Layer 3 (Foreground)
//Storyboard Layer 4 (Overlay)
//Storyboard Sound Samples

[TimingPoints]
146,769.230769230769,4,2,1,40,1,0
146,-100,4,2,1,40,0,0
12453,-100,4,2,1,50,0,0
23222,-100,4,2,1,50,0,0
24761,-100,4,2,1,50,0,0
37069,-90.9090909090909,4,2,1,70,0,0
61684,-90.9090909090909,4,2,2,73,0,1
85915,-100,4,2,2,30,0,0
86684,-100,4,2,1,5,0,0

[Colours]
Combo1 : 60,159,213
Combo2 : 176,203,219
Combo3 : 171,219,254
Combo4 : 237,167,120

[HitObjects]
213,343,146,6,0,B|257:335|257:335|279:320|279:320|327:312,2,120,2|0|0,0:0|0:0|0:0,0:0:0:0:
156,286,1684,2,0,B|111:278|111:278|89:263|89:263|41:255,2,120,2|0|0,0:0|0:0|0:0,0:0:0:0:
230,257,3222,6,0,L|248:127,1,120,2|0,0:0|0:0,0:0:0:0:
169,46,4376,1,0,0:0:0:0:
242,14,4761,2,0,L|370:34,1,120,2|0,0:0|0:0,0:0:0:0:
406,143,5915,1,0,0:0:0:0:
479,116,6299,6,0,P|491:39|507:-7,2,120,2|0|0,0:0|0:0|0:0,0:0:0:0:
465,195,7838,2,0,P|482:252|490:311,2,120,2|0|0,0:0|0:0|0:0,0:0:0:0:
405,141,9376,6,0,B|270:121,1,120,2|0,0:0|0:0,0:0:0:0:
196,203,10530,1,0,0:0:0:0:
135,150,10915,2,0,L|162:31,2,120,2|0|0,0:0|0:0|0:0,0:0:0:0:
58,174,12453,6,0,B|40:211|40:211|64:266,1,80,2|0,0:0|0:0,0:0:0:0:
84,274,13030,2,0,B|73:370,1,80,2|2,0:0|0:0,0:0:0:0:
154,384,13799,5,2,0:0:0:0:
154,384,13992,2,0,L|217:365,1,40,0|2,0:0|0:0,0:0:0:0:
272,363,14569,2,0,L|377:383,1,80,2|2,0:0|0:0,0:0:0:0:
424,343,15338,5,2,0:0:0:0:
424,343,15530,2,0,B|437:274|384:276|403:205,1,120,2|2,0:0|0:0,0:0:0:0:
316,141,16684,2,0,L|251:157,1,40,2|0,0:0|0:0,0:0:0:0:
248,178,17069,2,0,P|215:169|216:74,1,120,2|2,0:0|0:0,0:0:0:0:
298,30,18222,1,0,0:0:0:0:
364,75,18607,6,0,L|469:82,1,80,2|0,0:0|0:0,0:0:0:0:
482,92,19184,2,0,B|501:130|501:130|487:181,1,80,2|2,0:0|0:0,0:0:0:0:
433,221,19953,2,0,L|447:326,1,80,2|2,0:0|0:0,0:0:0:0:
416,375,20722,2,0,P|365:377|322:358,1,80,2|2,0:0|0:0,0:0:0:0:
280,319,21492,5,2,0:0:0:0:
280,319,21684,2,0,B|231:330|231:330|214:345|214:345|155:360,1,120,2|2,0:0|0:0,0:0:0:0:
51,327,22838,2,0,L|42:276,1,40,2|2,0:0|0:0,0:0:0:0:
71,258,23222,6,0,L|98:137,1,120,2|0,0:0|0:0,0:0:0:0:
152,34,24376,2,0,L|218:42,1,40,2|0,0:0|0:0,0:0:0:0:
228,55,24761,6,0,B|247:97|247:97|207:202,1,120,2|2,0:0|0:0,0:0:0:0:
143,258,25915,2,0,L|160:315,1,40,2|0,0:0|0:0,0:0:0:0:
181,325,26299,6,0,L|305:296,1,120,2|2,0:0|0:0,0:0:0:0:
401,356,27453,2,0,L|449:371,1,40,2|0,0:0|0:0,0:0:0:0:
478,361,27838,6,0,P|513:318|467:248,1,120,2|2,0:0|0:0,0:0:0:0:
454,191,28799,2,0,L|466:144,2,40,2|0|2,0:0|0:0|0:0,0:0:0:0:
416,206,29376,6,0,L|323:189,1,80,2|0,0:0|0:0,0:0:0:0:
301,210,29953,2,0,L|222:224,1,80,2|2,0:0|0:0,0:0:0:0:
147,243,30722,5,0,0:0:0:0:
147,243,30915,2,0,P|118:204|131:159,1,80,2|2,0:0|0:0,0:0:0:0:
138,138,31492,1,2,0:0:0:0:
243,80,32069,2,0,L|305:95,1,40,2|0,0:0|0:0,0:0:0:0:
318,105,32453,6,0,B|332:143|332:143|311:191,1,80,2|2,0:0|0:0,0:0:0:0:
288,207,33030,1,2,0:0:0:0:
191,277,33607,2,0,L|209:330,1,40,2|2,0:0|0:0,0:0:0:0:
217,352,33992,6,0,P|258:362|318:340,1,80,2|2,0:0|0:0,0:0:0:0:
330,336,34569,1,2,0:0:0:0:
433,165,35530,6,0,P|411:129|326:130,1,120,2|2,0:0|0:0,0:0:0:0:
234,181,36684,2,0,L|175:170,1,40,2|2,0:0|0:0,0:0:0:0:
151,168,37069,6,0,B|100:180|100:180|79:195|79:195|15:212,1,132.00000402832,6|0,3:2|1:2,0:0:0:0:
1,335,38222,1,2,3:2:0:0:
1,335,38415,2,0,L|110:354,1,88.000002685547,2|0,3:2|0:0,0:0:0:0:
127,331,38992,1,4,0:3:0:0:
205,367,39376,2,0,P|213:318|188:273,1,88.000002685547,0|2,1:2|0:2,0:0:0:0:
169,250,39953,1,2,0:0:0:0:
169,250,40145,6,0,L|184:137,1,88.000002685547,0|0,3:2|0:0,0:0:0:0:
159,123,40722,1,0,3:0:0:0:
263,42,41299,2,0,L|254:-6,2,44.0000013427735,2|0|2,1:3|0:0|3:2,0:0:0:0:
278,83,41876,1,2,3:3:0:0:
278,83,42069,2,0,B|316:104|316:104|365:87,1,88.000002685547,2|0,3:2|1:2,0:0:0:0:
430,38,42838,1,4,3:3:0:0:
499,91,43222,6,0,L|443:251,1,132.00000402832,4|0,3:2|1:3,0:3:0:0:
402,334,44376,1,2,3:2:0:0:
402,334,44569,2,0,P|352:339|305:302,1,88.000002685547,2|0,3:2|0:0,0:0:0:0:
291,288,45145,1,0,3:3:0:0:
241,215,45530,2,0,L|144:235,1,88.000002685547,0|2,1:3|3:2,0:0:0:0:
69,253,46299,6,0,B|39:222|39:222|57:168,1,88.000002685547,0|2,3:3|0:2,0:0:0:0:
77,142,46876,2,0,L|45:34,1,88.000002685547,0|0,3:3|0:0,0:0:0:0:
74,19,47453,1,0,1:3:0:0:
159,54,47838,1,2,0:0:0:0:
159,54,48030,2,0,L|230:37,1,44.0000013427735,0|0,3:3|3:0,0:0:0:0:
243,70,48415,1,2,0:0:0:0:
243,70,48607,2,0,L|218:154,1,88.000002685547,0|4,1:0|3:3,0:0:0:0:
149,210,49376,6,0,B|133:255|133:255|173:342,1,132.00000402832,4|0,3:2|1:3,0:0:0:0:
294,369,50530,1,2,3:2:0:0:
294,369,50722,2,0,L|406:346,1,88.000002685547,0|0,3:0|0:0,0:0:0:0:
417,375,51299,1,0,3:2:0:0:
487,322,51684,2,0,P|477:244|464:223,1,88.000002685547,0|2,1:2|0:0,0:0:0:0:
436,222,52261,1,2,0:0:0:0:
436,222,52453,6,0,B|376:218|360:253|293:245,1,132.00000402832,0|0,3:3|3:3,0:0:0:0:
191,193,53607,1,0,1:2:0:0:
191,193,53799,2,0,L|115:206,1,44.0000013427735,2|2,0:3|0:2,0:0:0:0:
108,211,54184,1,2,3:2:0:0:
108,211,54376,2,0,P|68:169|73:133,1,88.000002685547,0|0,3:3|1:0,0:0:0:0:
101,60,55145,1,0,3:3:0:0:
181,96,55530,6,0,L|340:58,1,132.00000402832,4|0,3:2|1:3,0:0:0:0:
421,134,56684,1,2,3:2:0:0:
421,134,56876,2,0,P|417:194|345:237,1,132.00000402832,0|0,3:3|3:3,0:0:0:0:
279,207,57838,1,2,1:3:0:0:
210,262,58222,2,0,L|225:344,1,44.0000013427735,2|2,0:0|0:0,0:0:0:0:
232,347,58607,6,0,B|281:380|281:380|363:360,1,132.00000402832,4|0,3:2|3:3,0:0:0:0:
473,311,59761,2,0,L|488:217,1,88.000002685547,0|2,1:2|0:2,0:0:0:0:
489,183,60338,1,0,3:3:0:0:
489,183,60530,2,0,P|425:122|330:143,1,176.000005371094,2|0,3:3|0:0,0:0:0:0:
266,175,61684,6,0,B|255:121|255:121|240:106|240:106|229:51,1,132.00000402832,4|0,3:2|3:3,0:0:0:0:
217,8,62453,1,2,1:2:0:0:
308,7,62838,1,0,3:3:0:0:
308,7,63030,2,0,L|458:45,1,132.00000402832,2|0,3:2|3:0,0:0:0:0:
485,112,63992,1,0,1:2:0:0:
425,176,64376,2,0,L|446:241,1,44.0000013427735,2|2,0:2|0:0,0:0:0:0:
471,247,64761,6,0,P|452:321|378:331,1,132.00000402832,0|2,3:3|0:3,0:0:0:0:
363,312,65530,2,0,L|340:246,2,44.0000013427735,0|0|2,1:3|3:0|3:2,0:0:0:0:
323,339,66107,2,0,B|277:356|277:356|175:316,1,132.00000402832,2|0,0:0|3:3,0:0:0:0:
139,261,67069,2,0,L|89:280,2,44.0000013427735,0|0|2,1:2|0:0|0:3,0:0:0:0:
162,225,67645,1,2,0:3:0:0:
162,225,67838,6,0,B|167:165|129:151|143:84,1,132.00000402832,4|2,3:2|3:2,0:0:0:0:
169,62,68607,1,2,1:2:0:0:
99,17,68992,1,2,3:2:0:0:
99,17,69184,2,0,P|23:27|12:96,1,132.00000402832,2|0,3:2|3:3,0:0:0:0:
65,136,70145,1,0,1:2:0:0:
9,204,70530,2,0,L|22:269,1,44.0000013427735,2|2,0:0|0:0,0:0:0:0:
49,278,70915,6,0,P|111:257|176:285,1,132.00000402832,0|2,3:3|0:3,0:0:0:0:
201,311,71684,2,0,L|186:357,2,44.0000013427735,0|2|2,1:3|3:2|3:2,0:0:0:0:
242,294,72261,2,0,B|264:233|264:233|226:156,1,132.00000402832,2|2,0:2|3:3,0:2:0:0:
283,99,73222,2,0,L|379:91,1,88.000002685547,2|8,1:2|0:3,0:0:0:0:
418,99,73799,1,8,0:3:0:0:
418,99,73992,6,0,P|438:143|413:195,1,88.000002685547,4|2,3:2|0:0,0:0:0:0:
400,214,74569,1,2,3:2:0:0:
400,214,74761,1,0,1:2:0:0:
336,275,75145,2,0,L|346:330,1,44.0000013427735,2|2,3:2|3:2,0:0:0:0:
224,381,75915,2,0,P|190:373|151:356,1,44.0000013427735,2|0,3:2|0:0,0:0:0:0:
149,339,76299,2,0,L|174:224,1,88.000002685547,2|2,1:2|0:2,0:0:0:0:
208,233,76876,1,2,0:2:0:0:
208,233,77069,1,0,3:3:0:0:
249,155,77453,6,0,L|237:112,1,44.0000013427735,2|2,2:0|3:2,0:0:0:0:
205,82,77838,2,0,L|222:19,2,44.0000013427735,0|0|2,1:2|3:3|3:2,0:0:0:0:
161,91,78415,1,2,0:2:0:0:
48,160,78992,2,0,P|35:201|63:245,1,88.000002685547,2|2,3:2|1:2,0:0:0:0:
108,304,79761,2,0,L|89:371,1,44.0000013427735,2|2,0:2|0:2,0:0:0:0:
119,383,80145,6,0,L|230:359,1,88.000002685547,4|2,3:2|0:2,0:0:0:0:
255,376,80722,1,2,3:2:0:0:
255,376,80915,1,0,1:0:0:0:
331,330,81299,1,2,3:2:0:0:
331,330,81492,2,0,L|301:184,1,132.00000402832,2|2,3:3|3:2,0:0:0:0:
369,140,82453,2,0,L|412:147,2,44.0000013427735,0|8|8,1:3|3:3|3:3,0:0:0:0:
353,104,83030,1,2,0:3:0:0:
353,104,83222,6,0,P|307:79|240:94,1,88.000002685547,0|2,0:0|0:0,0:0:0:0:
230,93,83799,1,2,0:0:0:0:
131,180,84376,2,0,L|143:222,1,44.0000013427735,2|2,0:0|0:0,0:0:0:0:
264,274,85145,2,0,L|240:354,1,44.0000013427735,2|2,0:0|0:0,0:0:0:0:
140,360,85915,6,0,P|107:285|158:213,1,160,2|0,0:0|0:0,0:0:0:0:
