osu file format v14

[General]
AudioFilename: audio.mp3
AudioLeadIn: 0
PreviewTime:35530
Countdown: 0
SampleSet: Soft
StackLeniency: 0.7
Mode: 3
LetterboxInBreaks: 0
WidescreenStoryboard: 1
SpecialStyle: 0

[Editor]
Bookmarks: 12453,24761,37069,49376,61684,73992
DistanceSpacing: 1
BeatDivisor: 4
GridSize: 16
TimelineZoom: 0.9999999

[Metadata]
Title:Avid (TV Size)
TitleUnicode:Avid (TV Size)
Artist:SawanoHiroyuki[nZk]:mizuki
ArtistUnicode:SawanoHiroyuki[nZk]:mizuki
Creator:Drum-Hitnormal
Version:_RK's Easy
Source:86―エイティシックス―
Tags:_Rokii Syadow- 86 eighty six 澤野弘之 sawano hiroyuki mizuki nzk japanese anime ending rock jrock j-rock pop jpop j-pop dudehacker cAnON
BeatmapID:3631190
BeatmapSetID:1770429

[Difficulty]
HPDrainRate:7
CircleSize:4
OverallDifficulty:7
ApproachRate:5
SliderMultiplier:1.4
SliderTickRate:1

[Events]
//Background and Video events
0,0,"97003555_p0.jpg",0,0
//Break Periods
//Storyboard Layer 0 (Background)
//Storyboard Layer 1 (Fail)
//Storyboard Layer 2 (Pass)
//Storyboard Layer 3 (Foreground)
//Storyboard Layer 4 (Overlay)
//Storyboard Sound Samples

[TimingPoints]
146,769.230769230769,4,2,1,40,1,0
37069,-100,4,2,1,70,0,0

[HitObjects]
320,192,146,1,0,0:0:0:0:
64,192,338,128,0,1107:0:0:0:0:
448,192,1107,128,0,1684:0:0:0:0:
320,192,1684,1,0,0:0:0:0:
192,192,1876,128,0,2645:0:0:0:0:
448,192,2645,128,0,3222:0:0:0:0:
320,192,3222,1,0,0:0:0:0:
64,192,3415,128,0,4184:0:0:0:0:
320,192,4184,128,0,4761:0:0:0:0:
192,192,4761,1,0,0:0:0:0:
448,192,4953,128,0,5722:0:0:0:0:
64,192,5722,128,0,6299:0:0:0:0:
192,192,6299,1,0,0:0:0:0:
448,192,6492,128,0,7261:0:0:0:0:
192,192,7261,128,0,7838:0:0:0:0:
64,192,7838,1,0,0:0:0:0:
320,192,8030,128,0,8799:0:0:0:0:
64,192,8799,128,0,9376:0:0:0:0:
192,192,9376,1,0,0:0:0:0:
448,192,9569,128,0,10338:0:0:0:0:
64,192,10338,128,0,10915:0:0:0:0:
192,192,10915,1,0,0:0:0:0:
320,192,11107,128,0,11876:0:0:0:0:
64,192,11876,128,0,12453:0:0:0:0:
192,192,12453,1,0,0:0:0:0:
448,192,12645,128,0,13030:0:0:0:0:
320,192,13030,128,0,13415:0:0:0:0:
64,192,13415,1,0,0:0:0:0:
448,192,13799,128,0,14184:0:0:0:0:
192,192,14184,128,0,14569:0:0:0:0:
64,192,14569,128,0,14953:0:0:0:0:
320,192,14953,128,0,15338:0:0:0:0:
192,192,15338,128,0,16684:0:0:0:0:
448,192,16684,1,0,0:0:0:0:
64,192,16876,128,0,17645:0:0:0:0:
64,192,18607,1,0,0:0:0:0:
448,192,18799,128,0,19184:0:0:0:0:
320,192,19184,128,0,19569:0:0:0:0:
192,192,19569,128,0,19953:0:0:0:0:
64,192,19953,128,0,20338:0:0:0:0:
320,192,20338,128,0,20722:0:0:0:0:
448,192,20722,128,0,21107:0:0:0:0:
192,192,21107,128,0,21492:0:0:0:0:
64,192,21492,128,0,22453:0:0:0:0:
192,192,22838,1,0,0:0:0:0:
448,192,23030,128,0,23992:0:0:0:0:
320,192,24376,1,0,0:0:0:0:
64,192,24569,128,0,25915:0:0:0:0:
192,192,25915,1,0,0:0:0:0:
448,192,26107,128,0,27453:0:0:0:0:
320,192,27453,1,0,0:0:0:0:
192,192,27645,128,0,28799:0:0:0:0:
64,192,29376,128,0,29761:0:0:0:0:
448,192,29761,1,0,0:0:0:0:
192,192,29953,128,0,30338:0:0:0:0:
320,192,30338,128,0,30722:0:0:0:0:
64,192,30722,128,0,31299:0:0:0:0:
448,192,31299,1,0,0:0:0:0:
64,192,32069,1,0,0:0:0:0:
320,192,32261,128,0,32838:0:0:0:0:
192,192,32838,1,0,0:0:0:0:
448,192,33607,1,0,0:0:0:0:
64,192,33799,128,0,34376:0:0:0:0:
320,192,34376,1,0,0:0:0:0:
448,192,35530,128,0,36107:0:0:0:0:
320,192,36107,128,0,36684:0:0:0:0:
64,192,36684,128,0,37069:0:0:0:0:
192,192,37069,1,2,0:0:0:0:
448,192,37069,1,4,0:0:0:0:
64,192,37645,1,8,0:0:0:0:
320,192,38222,1,2,0:0:0:0:
192,192,38415,128,2,38992:0:0:0:0:
448,192,38992,1,2,0:0:0:0:
64,192,39376,1,8,0:0:0:0:
192,192,39761,1,0,0:0:0:0:
320,192,39953,128,0,40722:0:0:0:0:
448,192,40722,1,2,0:0:0:0:
64,192,41299,1,8,0:0:0:0:
192,192,41684,1,0,0:0:0:0:
448,192,41876,128,2,42261:0:0:0:0:
320,192,42261,128,0,42645:0:0:0:0:
64,192,42645,1,0,0:0:0:0:
192,192,43030,128,0,43799:0:0:0:0:
448,192,43799,1,8,0:0:0:0:
64,192,44376,1,2,0:0:0:0:
320,192,44569,128,2,45145:0:0:0:0:
448,192,45145,1,2,0:0:0:0:
64,192,45530,1,8,0:0:0:0:
192,192,45915,1,0,0:0:0:0:
320,192,46107,128,0,46492:0:0:0:0:
64,192,46492,1,0,0:0:0:0:
448,192,46684,128,0,47453:0:0:0:0:
192,192,47453,1,8,0:0:0:0:
64,192,47838,1,0,0:0:0:0:
448,192,48030,128,2,48415:0:0:0:0:
64,192,48415,128,0,48799:0:0:0:0:
320,192,48799,1,0,0:0:0:0:
192,192,49184,128,0,49953:0:0:0:0:
448,192,49953,1,8,0:0:0:0:
320,192,50530,1,2,0:0:0:0:
64,192,50722,128,2,51684:0:0:0:0:
192,192,51684,1,8,0:0:0:0:
320,192,52069,1,0,0:0:0:0:
448,192,52261,128,0,53607:0:0:0:0:
192,192,53607,1,8,0:0:0:0:
320,192,53799,1,0,0:0:0:0:
64,192,53992,128,0,54376:0:0:0:0:
448,192,54376,1,2,0:0:0:0:
192,192,54569,128,0,54953:0:0:0:0:
320,192,54953,128,0,55338:0:0:0:0:
448,192,55338,128,0,56107:0:0:0:0:
192,192,56107,1,8,0:0:0:0:
320,192,56684,1,2,0:0:0:0:
64,192,56876,128,2,57838:0:0:0:0:
448,192,57838,1,8,0:0:0:0:
192,192,58222,1,0,0:0:0:0:
320,192,58415,128,0,60338:0:0:0:0:
192,192,60338,1,2,0:0:0:0:
448,192,60530,1,2,0:0:0:0:
64,192,61684,1,2,0:0:0:0:
320,192,61684,1,4,0:0:0:0:
192,192,62453,128,8,63030:0:0:0:0:
448,192,63030,128,2,63992:0:0:0:0:
64,192,63992,1,8,0:0:0:0:
320,192,64376,1,0,0:0:0:0:
192,192,64569,128,0,65530:0:0:0:0:
448,192,65530,1,8,0:0:0:0:
64,192,65915,1,2,0:0:0:0:
320,192,66107,128,0,66684:0:0:0:0:
192,192,66684,1,2,0:0:0:0:
448,192,67069,1,8,0:0:0:0:
64,192,67838,1,2,0:0:0:0:
448,192,68415,1,2,0:0:0:0:
192,192,68607,128,8,68992:0:0:0:0:
320,192,68992,1,2,0:0:0:0:
64,192,69184,128,2,70145:0:0:0:0:
448,192,70145,1,8,0:0:0:0:
192,192,70530,1,0,0:0:0:0:
320,192,70722,128,0,71684:0:0:0:0:
64,192,71684,1,8,0:0:0:0:
192,192,72069,1,2,0:0:0:0:
448,192,72261,128,0,72838:0:0:0:0:
64,192,72838,1,2,0:0:0:0:
192,192,73222,1,8,0:0:0:0:
320,192,73607,1,2,0:0:0:0:
64,192,73992,1,2,0:0:0:0:
448,192,73992,1,4,0:0:0:0:
192,192,74376,1,0,0:0:0:0:
320,192,74569,128,2,75145:0:0:0:0:
448,192,75145,1,2,0:0:0:0:
64,192,75338,1,2,0:0:0:0:
320,192,75915,1,2,0:0:0:0:
192,192,76107,128,0,76684:0:0:0:0:
448,192,76684,1,0,0:0:0:0:
320,192,76876,1,0,0:0:0:0:
192,192,77069,1,2,0:0:0:0:
64,192,77453,1,0,0:0:0:0:
448,192,77645,128,0,78222:0:0:0:0:
192,192,78222,1,2,0:0:0:0:
320,192,78415,1,0,0:0:0:0:
448,192,78992,1,2,0:0:0:0:
64,192,79184,128,0,79761:0:0:0:0:
320,192,79761,1,0,0:0:0:0:
192,192,79953,1,0,0:0:0:0:
448,192,80145,1,2,0:0:0:0:
64,192,80530,1,0,0:0:0:0:
320,192,80722,128,2,81299:0:0:0:0:
192,192,81299,1,2,0:0:0:0:
448,192,81492,1,2,0:0:0:0:
448,192,82069,1,10,0:0:0:0:
192,192,82261,128,0,82838:0:0:0:0:
320,192,82838,1,0,0:0:0:70:Tom2.wav
64,192,83030,1,8,0:0:0:0:
448,192,83607,128,0,84376:0:0:0:0:
192,192,84376,128,0,85145:0:0:0:0:
320,192,85145,128,0,85915:0:0:0:0:
64,192,85915,128,0,86492:0:0:0:0:
