osu file format v14

[General]
AudioFilename: audio.mp3
AudioLeadIn: 0
PreviewTime: 35530
Countdown: 0
SampleSet: Soft
StackLeniency: 0.7
Mode: 3
LetterboxInBreaks: 0
SpecialStyle: 0
WidescreenStoryboard: 1

[Editor]
Bookmarks: 6299,12453,24761,37069,49376,61684,73992
DistanceSpacing: 1
BeatDivisor: 4
GridSize: 16
TimelineZoom: 1.4

[Metadata]
Title:Avid (TV Size)
TitleUnicode:Avid (TV Size)
Artist:SawanoHiroyuki[nZk]:mizuki
ArtistUnicode:SawanoHiroyuki[nZk]:mizuki
Creator:Drum-Hitnormal
Version:White Pig
Source:86―エイティシックス―
Tags:_Rokii Syadow- 86 eighty six 澤野弘之 sawano hiroyuki mizuki nzk japanese anime ending rock jrock j-rock pop jpop j-pop dudehacker cAnON
BeatmapID:3624196
BeatmapSetID:1770429

[Difficulty]
HPDrainRate:8
CircleSize:4
OverallDifficulty:8
ApproachRate:5
SliderMultiplier:1.4
SliderTickRate:1

[Events]
//Background and Video events
0,0,"97003555_p0.jpg",0,0
//Break Periods
//Storyboard Layer 0 (Background)
//Storyboard Layer 1 (Fail)
//Storyboard Layer 2 (Pass)
//Storyboard Layer 3 (Foreground)
//Storyboard Layer 4 (Overlay)
//Storyboard Sound Samples

[TimingPoints]
146,769.230769230769,4,2,1,40,1,0
37069,-100,4,2,1,70,0,0

[HitObjects]
320,192,146,5,0,0:0:0:0:
448,192,146,1,0,0:0:0:0:
64,192,338,1,0,0:0:0:0:
448,192,722,1,0,0:0:0:0:
192,192,722,1,0,0:0:0:0:
320,192,1107,1,0,0:0:0:0:
64,192,1299,1,0,0:0:0:0:
192,192,1492,1,0,0:0:0:0:
320,192,1684,1,0,0:0:0:0:
448,192,1684,1,0,0:0:0:0:
64,192,1876,1,0,0:0:0:0:
448,192,2261,1,0,0:0:0:0:
192,192,2261,1,0,0:0:0:0:
320,192,2645,1,0,0:0:0:0:
64,192,2838,1,0,0:0:0:0:
192,192,3030,1,0,0:0:0:0:
320,192,3222,1,0,0:0:0:0:
448,192,3222,1,0,0:0:0:0:
64,192,3415,1,0,0:0:0:0:
448,192,3799,1,0,0:0:0:0:
192,192,3799,1,0,0:0:0:0:
320,192,4184,1,0,0:0:0:0:
64,192,4376,1,0,0:0:0:0:
192,192,4569,1,0,0:0:0:0:
320,192,4761,1,0,0:0:0:0:
448,192,4761,1,0,0:0:0:0:
64,192,4953,1,0,0:0:0:0:
448,192,5338,1,0,0:0:0:0:
192,192,5338,1,0,0:0:0:0:
64,192,5722,1,0,0:0:0:0:
448,192,5915,1,0,0:0:0:0:
320,192,6107,1,0,0:0:0:0:
192,192,6299,5,0,0:0:0:0:
64,192,6299,1,0,0:0:0:0:
448,192,6492,1,0,0:0:0:0:
320,192,6876,1,0,0:0:0:0:
64,192,6876,1,0,0:0:0:0:
192,192,7261,1,0,0:0:0:0:
448,192,7453,1,0,0:0:0:0:
320,192,7645,1,0,0:0:0:0:
64,192,7838,1,0,0:0:0:0:
192,192,7838,1,0,0:0:0:0:
448,192,8030,1,0,0:0:0:0:
320,192,8415,1,0,0:0:0:0:
64,192,8415,1,0,0:0:0:0:
192,192,8799,1,0,0:0:0:0:
448,192,8992,1,0,0:0:0:0:
320,192,9184,1,0,0:0:0:0:
64,192,9376,1,0,0:0:0:0:
192,192,9376,1,0,0:0:0:0:
448,192,9569,1,0,0:0:0:0:
320,192,9953,1,0,0:0:0:0:
64,192,9953,1,0,0:0:0:0:
192,192,10338,1,0,0:0:0:0:
448,192,10530,1,0,0:0:0:0:
320,192,10722,1,0,0:0:0:0:
64,192,10915,1,0,0:0:0:0:
192,192,10915,1,0,0:0:0:0:
448,192,11107,1,0,0:0:0:0:
320,192,11492,1,0,0:0:0:0:
64,192,11492,1,0,0:0:0:0:
448,192,11876,1,0,0:0:0:0:
192,192,12069,1,0,0:0:0:0:
320,192,12261,1,0,0:0:0:0:
64,192,12453,1,0,0:0:0:0:
448,192,12453,128,0,12838:0:0:0:0:
320,192,12645,128,0,12838:0:0:0:0:
192,192,13030,128,0,13222:0:0:0:0:
64,192,13415,128,0,13607:0:0:0:0:
320,192,13799,128,0,13992:0:0:0:0:
64,192,13992,1,0,0:0:0:0:
192,192,13992,1,0,0:0:0:0:
448,192,14184,1,0,0:0:0:0:
192,192,14280,128,0,14472:0:0:0:0:
320,192,14569,128,0,14953:0:0:0:0:
64,192,14953,128,0,15145:0:0:0:0:
448,192,15338,1,0,0:0:0:0:
64,192,15530,1,0,0:0:0:0:
192,192,15530,128,0,16299:0:0:0:0:
448,192,15722,1,0,0:0:0:0:
320,192,16107,1,0,0:0:0:0:
64,192,16299,1,0,0:0:0:0:
448,192,16492,1,0,0:0:0:0:
320,192,16684,1,0,0:0:0:0:
320,192,16876,1,0,0:0:0:0:
64,192,17069,128,0,17453:0:0:0:0:
192,192,17069,1,0,0:0:0:0:
448,192,17261,1,0,0:0:0:0:
320,192,17645,1,0,0:0:0:0:
448,192,17645,1,0,0:0:0:0:
64,192,18030,1,0,0:0:0:0:
320,192,18222,1,0,0:0:0:0:
64,192,18415,1,0,0:0:0:0:
192,192,18607,1,0,0:0:0:0:
448,192,18607,1,0,0:0:0:0:
448,192,18799,128,0,18992:0:0:0:0:
192,192,19184,128,0,19376:0:0:0:0:
320,192,19569,128,0,19761:0:0:0:0:
448,192,19857,1,0,0:0:0:0:
64,192,19953,128,0,20145:0:0:0:0:
320,192,20145,1,0,0:0:0:0:
448,192,20145,1,0,0:0:0:0:
192,192,20338,128,0,20530:0:0:0:0:
448,192,20626,1,0,0:0:0:0:
320,192,20722,128,0,20915:0:0:0:0:
64,192,21107,128,0,21492:0:0:0:0:
448,192,21492,1,0,0:0:0:0:
192,192,21684,1,0,0:0:0:0:
448,192,21684,128,0,22261:0:0:0:0:
320,192,21876,1,0,0:0:0:0:
64,192,22261,1,0,0:0:0:0:
192,192,22261,1,0,0:0:0:0:
320,192,22453,1,0,0:0:0:0:
448,192,22645,1,0,0:0:0:0:
320,192,22838,1,0,0:0:0:0:
320,192,23030,1,0,0:0:0:0:
64,192,23222,128,0,24761:0:0:0:0:
192,192,23222,1,0,0:0:0:0:
448,192,23415,1,0,0:0:0:0:
320,192,23607,1,0,0:0:0:0:
192,192,23799,1,0,0:0:0:0:
448,192,23992,1,0,0:0:0:0:
320,192,24184,1,0,0:0:0:0:
192,192,24376,1,0,0:0:0:0:
192,192,24569,1,0,0:0:0:0:
320,192,24761,1,0,0:0:0:0:
448,192,24761,128,0,25722:0:0:0:0:
192,192,24953,1,0,0:0:0:0:
64,192,25338,1,0,0:0:0:0:
320,192,25530,1,0,0:0:0:0:
192,192,25722,1,0,0:0:0:0:
64,192,25915,1,0,0:0:0:0:
64,192,26107,128,0,27261:0:0:0:0:
320,192,26299,1,0,0:0:0:0:
448,192,26299,1,0,0:0:0:0:
192,192,26492,1,0,0:0:0:0:
448,192,26876,1,0,0:0:0:0:
192,192,27453,1,0,0:0:0:0:
192,192,27645,1,0,0:0:0:0:
320,192,27838,1,0,0:0:0:0:
448,192,27838,128,0,28799:0:0:0:0:
64,192,28030,1,0,0:0:0:0:
320,192,28415,1,0,0:0:0:0:
64,192,28799,1,0,0:0:0:0:
320,192,28992,1,0,0:0:0:0:
192,192,29184,1,0,0:0:0:0:
64,192,29376,1,0,0:0:0:0:
448,192,29376,128,0,29569:0:0:0:0:
192,192,29761,1,0,0:0:0:0:
192,192,29953,128,0,30145:0:0:0:0:
320,192,29953,1,0,0:0:0:0:
448,192,30338,128,0,30530:0:0:0:0:
192,192,30530,1,0,0:0:0:0:
320,192,30722,1,0,0:0:0:0:
64,192,30915,128,0,31684:0:0:0:0:
448,192,30915,1,0,0:0:0:0:
192,192,31299,128,0,32069:0:0:0:0:
320,192,31492,1,0,0:0:0:0:
448,192,31876,1,0,0:0:0:0:
320,192,32069,1,0,0:0:0:0:
320,192,32261,1,0,0:0:0:0:
64,192,32453,1,0,0:0:0:0:
448,192,32453,128,0,33607:0:0:0:0:
320,192,32838,128,0,33607:0:0:0:0:
192,192,33607,1,0,0:0:0:0:
192,192,33799,1,0,0:0:0:0:
64,192,33992,128,0,35434:0:0:0:0:
448,192,33992,1,0,0:0:0:0:
320,192,34184,1,0,0:0:0:0:
192,192,34376,128,0,35434:0:0:0:0:
320,192,34761,128,0,35434:0:0:0:0:
64,192,35530,128,0,35915:0:0:0:0:
448,192,35530,128,0,35915:0:0:0:0:
192,192,36107,128,0,36492:0:0:0:0:
448,192,36107,128,0,36492:0:0:0:0:
320,192,36684,128,0,36876:0:0:0:0:
192,192,36876,128,0,37069:0:0:0:0:
64,192,37069,1,2,0:0:0:0:
320,192,37069,1,4,0:0:0:0:
448,192,37069,128,0,37645:0:0:0:0:
192,192,37261,1,0,0:0:0:0:
320,192,37453,1,0,0:0:0:0:
64,192,37645,1,8,0:0:0:0:
192,192,37645,1,0,0:0:0:0:
320,192,37838,1,0,0:0:0:0:
448,192,38030,1,0,0:0:0:0:
64,192,38222,1,2,0:0:0:0:
192,192,38222,1,0,0:0:0:0:
64,192,38415,128,2,39376:0:0:0:0:
192,192,38415,1,0,0:0:0:0:
320,192,38607,1,0,0:0:0:0:
192,192,38799,1,0,0:0:0:0:
320,192,38992,1,2,0:0:0:0:
448,192,38992,1,0,0:0:0:0:
192,192,39184,1,0,0:0:0:0:
320,192,39376,1,8,0:0:0:0:
448,192,39376,1,0,0:0:0:0:
192,192,39569,1,0,0:0:0:0:
448,192,39761,1,0,0:0:0:0:
448,192,39953,128,0,41107:0:0:0:0:
64,192,40145,1,2,0:0:0:0:
192,192,40145,1,0,0:0:0:0:
320,192,40338,1,0,0:0:0:0:
192,192,40530,1,0,0:0:0:0:
64,192,40722,1,2,0:0:0:0:
320,192,40722,1,0,0:0:0:0:
192,192,40915,1,0,0:0:0:0:
320,192,41107,1,0,0:0:0:0:
64,192,41299,1,8,0:0:0:0:
192,192,41299,1,0,0:0:0:0:
448,192,41299,1,0,0:0:0:0:
320,192,41492,1,0,0:0:0:0:
448,192,41684,128,0,41812:0:0:0:0:
64,192,41876,1,2,0:0:0:0:
448,192,41940,128,0,42069:0:0:0:0:
64,192,42069,1,2,0:0:0:0:
320,192,42261,128,0,42453:0:0:0:0:
64,192,42453,1,8,0:0:0:0:
192,192,42453,1,0,0:0:0:0:
448,192,42453,1,0,0:0:0:0:
320,192,42645,128,0,42838:0:0:0:0:
64,192,42838,1,2,0:0:0:0:
448,192,42838,1,0,0:0:0:0:
192,192,43030,128,0,43799:0:0:0:0:
320,192,43222,1,2,0:0:0:0:
448,192,43222,1,0,0:0:0:0:
64,192,43415,1,0,0:0:0:0:
320,192,43607,1,0,0:0:0:0:
64,192,43799,1,8,0:0:0:0:
448,192,43799,1,0,0:0:0:0:
320,192,43992,1,0,0:0:0:0:
192,192,44184,1,0,0:0:0:0:
320,192,44376,1,2,0:0:0:0:
448,192,44376,1,0,0:0:0:0:
320,192,44569,1,2,0:0:0:0:
448,192,44569,128,0,45530:0:0:0:0:
64,192,44761,1,0,0:0:0:0:
192,192,44953,1,0,0:0:0:0:
64,192,45145,1,2,0:0:0:0:
320,192,45145,1,0,0:0:0:0:
192,192,45338,1,0,0:0:0:0:
64,192,45530,1,8,0:0:0:0:
320,192,45530,1,0,0:0:0:0:
448,192,45722,1,0,0:0:0:0:
192,192,45915,1,0,0:0:0:0:
192,192,46107,128,0,46299:0:0:0:0:
320,192,46299,1,2,0:0:0:0:
448,192,46299,1,0,0:0:0:0:
64,192,46492,1,0,0:0:0:0:
64,192,46684,128,0,47069:0:0:0:0:
320,192,46876,1,2,0:0:0:0:
448,192,46876,1,0,0:0:0:0:
192,192,47069,1,0,0:0:0:0:
320,192,47261,1,0,0:0:0:0:
64,192,47453,1,8,0:0:0:0:
192,192,47453,1,0,0:0:0:0:
448,192,47453,1,0,0:0:0:0:
320,192,47645,1,0,0:0:0:0:
320,192,47838,128,0,48030:0:0:0:0:
64,192,48030,1,2,0:0:0:0:
192,192,48030,1,0,0:0:0:0:
64,192,48222,1,2,0:0:0:0:
192,192,48222,1,0,0:0:0:0:
448,192,48415,128,0,48607:0:0:0:0:
64,192,48607,1,8,0:0:0:0:
192,192,48607,1,0,0:0:0:0:
320,192,48799,128,0,48992:0:0:0:0:
64,192,48992,1,2,0:0:0:0:
448,192,48992,1,0,0:0:0:0:
192,192,49184,128,0,49376:0:0:0:0:
64,192,49376,1,4,0:0:0:0:
320,192,49376,1,2,0:0:0:0:
448,192,49376,128,0,49953:0:0:0:0:
192,192,49569,1,0,0:0:0:0:
320,192,49761,1,0,0:0:0:0:
64,192,49953,1,8,0:0:0:0:
192,192,49953,1,0,0:0:0:0:
320,192,50145,1,0,0:0:0:0:
448,192,50338,1,0,0:0:0:0:
64,192,50530,1,2,0:0:0:0:
192,192,50530,1,0,0:0:0:0:
64,192,50722,128,2,51684:0:0:0:0:
192,192,50722,1,0,0:0:0:0:
320,192,50915,1,0,0:0:0:0:
192,192,51107,1,0,0:0:0:0:
320,192,51299,1,2,0:0:0:0:
448,192,51299,1,0,0:0:0:0:
192,192,51492,1,0,0:0:0:0:
320,192,51684,1,8,0:0:0:0:
448,192,51684,1,0,0:0:0:0:
192,192,51876,1,0,0:0:0:0:
448,192,52069,1,0,0:0:0:0:
448,192,52261,128,0,53415:0:0:0:0:
64,192,52453,1,2,0:0:0:0:
192,192,52453,1,0,0:0:0:0:
320,192,52645,1,0,0:0:0:0:
192,192,52838,1,0,0:0:0:0:
64,192,53030,1,2,0:0:0:0:
320,192,53030,1,0,0:0:0:0:
192,192,53222,1,0,0:0:0:0:
320,192,53415,1,0,0:0:0:0:
64,192,53607,1,8,0:0:0:0:
192,192,53607,1,0,0:0:0:0:
448,192,53607,1,0,0:0:0:0:
320,192,53799,1,0,0:0:0:0:
448,192,53992,128,0,54184:0:0:0:0:
64,192,54184,1,2,0:0:0:0:
192,192,54184,1,0,0:0:0:0:
320,192,54280,1,0,0:0:0:0:
64,192,54376,1,2,0:0:0:0:
192,192,54376,1,0,0:0:0:0:
320,192,54569,128,0,54761:0:0:0:0:
64,192,54761,1,8,0:0:0:0:
192,192,54761,1,0,0:0:0:0:
448,192,54761,1,0,0:0:0:0:
320,192,54953,128,0,55145:0:0:0:0:
64,192,55145,1,2,0:0:0:0:
448,192,55145,1,0,0:0:0:0:
192,192,55338,128,0,56107:0:0:0:0:
320,192,55530,1,2,0:0:0:0:
448,192,55530,1,0,0:0:0:0:
64,192,55722,1,0,0:0:0:0:
320,192,55915,1,0,0:0:0:0:
64,192,56107,1,8,0:0:0:0:
448,192,56107,1,0,0:0:0:0:
320,192,56299,1,0,0:0:0:0:
192,192,56492,1,0,0:0:0:0:
320,192,56684,1,2,0:0:0:0:
448,192,56684,1,0,0:0:0:0:
320,192,56876,1,2,0:0:0:0:
448,192,56876,128,0,57838:0:0:0:0:
64,192,57069,1,0,0:0:0:0:
192,192,57261,1,0,0:0:0:0:
64,192,57453,1,2,0:0:0:0:
320,192,57453,1,0,0:0:0:0:
192,192,57645,1,0,0:0:0:0:
64,192,57838,1,8,0:0:0:0:
320,192,57838,1,0,0:0:0:0:
448,192,58030,1,0,0:0:0:0:
192,192,58222,1,0,0:0:0:0:
192,192,58415,128,0,60145:0:0:0:0:
320,192,58607,1,2,0:0:0:0:
448,192,58607,1,0,0:0:0:0:
448,192,58992,128,0,59184:0:0:0:0:
64,192,59184,1,2,0:0:0:0:
320,192,59569,128,0,59761:0:0:0:0:
64,192,59761,1,8,0:0:0:0:
448,192,59761,1,0,0:0:0:0:
64,192,60145,128,0,60338:0:0:0:0:
320,192,60338,1,2,0:0:0:0:
448,192,60338,1,0,0:0:0:0:
320,192,60530,1,2,0:0:0:0:
448,192,60530,1,0,0:0:0:0:
192,192,60722,128,0,60915:0:0:0:0:
448,192,60915,128,0,61684:0:0:0:0:
320,192,60915,1,0,0:0:0:0:
320,192,61299,128,0,61684:0:0:0:0:
64,192,61684,1,2,0:0:0:0:
192,192,61684,1,4,0:0:0:0:
320,192,61876,1,0,0:0:0:0:
192,192,62069,1,0,0:0:0:0:
320,192,62261,1,2,0:0:0:0:
448,192,62261,1,0,0:0:0:0:
64,192,62453,1,8,0:0:0:0:
192,192,62453,1,0,0:0:0:0:
448,192,62453,1,0,0:0:0:0:
320,192,62645,1,0,0:0:0:0:
64,192,62838,1,2,0:0:0:0:
192,192,62838,1,0,0:0:0:0:
64,192,63030,1,2,0:0:0:0:
192,192,63030,1,0,0:0:0:0:
448,192,63222,1,0,0:0:0:0:
192,192,63415,1,0,0:0:0:0:
320,192,63607,1,2,0:0:0:0:
448,192,63607,1,0,0:0:0:0:
192,192,63799,1,0,0:0:0:0:
320,192,63992,1,0,0:0:0:0:
448,192,63992,1,0,0:0:0:0:
64,192,63992,1,8,0:0:0:0:
192,192,64184,1,0,0:0:0:0:
320,192,64376,1,0,0:0:0:0:
448,192,64569,1,0,0:0:0:0:
64,192,64761,1,2,0:0:0:0:
192,192,64761,1,0,0:0:0:0:
320,192,64953,1,0,0:0:0:0:
448,192,65145,1,0,0:0:0:0:
192,192,65338,1,0,0:0:0:0:
64,192,65530,1,8,0:0:0:0:
320,192,65530,1,0,0:0:0:0:
448,192,65530,1,0,0:0:0:0:
192,192,65722,1,2,0:0:0:0:
320,192,65722,1,0,0:0:0:0:
192,192,65915,1,2,0:0:0:0:
320,192,65915,1,0,0:0:0:0:
448,192,66107,1,0,0:0:0:0:
64,192,66299,1,0,0:0:0:0:
192,192,66492,1,0,0:0:0:0:
320,192,66684,1,2,0:0:0:0:
448,192,66684,1,0,0:0:0:0:
192,192,66876,1,0,0:0:0:0:
64,192,67069,1,8,0:0:0:0:
320,192,67069,1,0,0:0:0:0:
448,192,67069,1,0,0:0:0:0:
192,192,67261,1,0,0:0:0:0:
320,192,67453,1,0,0:0:0:0:
192,192,67645,1,0,0:0:0:0:
320,192,67838,1,2,0:0:0:0:
448,192,67838,1,0,0:0:0:0:
64,192,68030,1,0,0:0:0:0:
192,192,68222,1,0,0:0:0:0:
320,192,68415,1,2,0:0:0:0:
448,192,68415,1,0,0:0:0:0:
64,192,68607,1,8,0:0:0:0:
192,192,68607,1,0,0:0:0:0:
448,192,68607,1,0,0:0:0:0:
320,192,68799,1,0,0:0:0:0:
64,192,68992,1,2,0:0:0:0:
192,192,68992,1,0,0:0:0:0:
64,192,69184,1,2,0:0:0:0:
192,192,69184,1,0,0:0:0:0:
320,192,69376,1,0,0:0:0:0:
192,192,69569,1,0,0:0:0:0:
320,192,69761,1,2,0:0:0:0:
448,192,69761,1,0,0:0:0:0:
192,192,69953,1,0,0:0:0:0:
64,192,70145,1,8,0:0:0:0:
320,192,70145,1,0,0:0:0:0:
448,192,70145,1,0,0:0:0:0:
192,192,70338,1,0,0:0:0:0:
320,192,70530,1,0,0:0:0:0:
448,192,70722,1,0,0:0:0:0:
64,192,70915,1,2,0:0:0:0:
192,192,70915,1,0,0:0:0:0:
320,192,71107,1,0,0:0:0:0:
192,192,71299,1,0,0:0:0:0:
320,192,71492,1,0,0:0:0:0:
64,192,71684,1,8,0:0:0:0:
192,192,71684,1,0,0:0:0:0:
448,192,71684,1,0,0:0:0:0:
192,192,71876,1,2,0:0:0:0:
320,192,71876,1,0,0:0:0:0:
192,192,72069,1,2,0:0:0:0:
320,192,72069,1,0,0:0:0:0:
448,192,72261,1,0,0:0:0:0:
64,192,72453,1,0,0:0:0:0:
192,192,72645,1,0,0:0:0:0:
320,192,72838,1,2,0:0:0:0:
448,192,72838,1,0,0:0:0:0:
192,192,73030,1,0,0:0:0:0:
64,192,73222,1,8,0:0:0:0:
320,192,73222,1,0,0:0:0:0:
448,192,73222,1,0,0:0:0:0:
192,192,73415,1,0,0:0:0:0:
320,192,73607,1,2,0:0:0:0:
448,192,73607,1,0,0:0:0:0:
192,192,73799,1,2,0:0:0:0:
320,192,73799,1,0,0:0:0:0:
64,192,73992,1,2,0:0:0:0:
192,192,73992,1,4,0:0:0:0:
448,192,73992,1,0,0:0:0:0:
320,192,74376,1,0,0:0:0:0:
448,192,74376,128,0,74761:0:0:0:0:
320,192,74569,128,2,74761:0:0:0:0:
64,192,74569,1,0,0:0:0:0:
64,192,74761,1,8,0:0:0:0:
192,192,74761,1,0,0:0:0:0:
448,192,74953,1,0,0:0:0:0:
192,192,75145,128,2,75530:0:0:0:0:
320,192,75145,1,0,0:0:0:0:
320,192,75338,128,2,75530:0:0:0:0:
448,192,75338,1,0,0:0:0:0:
64,192,75530,1,0,0:0:0:0:
192,192,75722,1,0,0:0:0:0:
64,192,75915,128,2,76299:0:0:0:0:
448,192,75915,1,0,0:0:0:0:
448,192,76107,128,0,76299:0:0:0:0:
192,192,76299,1,8,0:0:0:0:
320,192,76299,1,0,0:0:0:0:
448,192,76492,1,0,0:0:0:0:
192,192,76684,1,0,0:0:0:0:
320,192,76684,128,0,77069:0:0:0:0:
192,192,76876,128,0,77069:0:0:0:0:
64,192,77069,1,2,0:0:0:0:
448,192,77069,1,0,0:0:0:0:
320,192,77261,1,0,0:0:0:0:
192,192,77453,128,0,77838:0:0:0:0:
448,192,77453,1,0,0:0:0:0:
448,192,77645,128,0,77838:0:0:0:0:
64,192,77838,1,8,0:0:0:0:
320,192,77838,1,0,0:0:0:0:
64,192,78030,1,2,0:0:0:0:
192,192,78030,1,0,0:0:0:0:
64,192,78222,1,2,0:0:0:0:
192,192,78222,128,0,78607:0:0:0:0:
320,192,78415,128,0,78607:0:0:0:0:
448,192,78607,1,0,0:0:0:0:
64,192,78799,1,0,0:0:0:0:
192,192,78992,1,2,0:0:0:0:
448,192,78992,128,0,79376:0:0:0:0:
192,192,79184,128,0,79376:0:0:0:0:
64,192,79376,1,8,0:0:0:0:
320,192,79376,1,0,0:0:0:0:
192,192,79569,1,0,0:0:0:0:
64,192,79761,128,0,80145:0:0:0:0:
320,192,79761,1,0,0:0:0:0:
320,192,79953,128,0,80145:0:0:0:0:
192,192,80145,1,2,0:0:0:0:
448,192,80145,1,0,0:0:0:0:
320,192,80338,1,0,0:0:0:0:
64,192,80530,1,0,0:0:0:0:
192,192,80530,128,0,80915:0:0:0:0:
64,192,80722,128,2,80915:0:0:0:0:
448,192,80722,1,0,0:0:0:0:
320,192,80915,1,8,0:0:0:0:
448,192,80915,1,0,0:0:0:0:
192,192,81107,1,0,0:0:0:0:
320,192,81299,128,2,81684:0:0:0:0:
448,192,81299,1,0,0:0:0:0:
64,192,81492,1,2,0:0:0:0:
448,192,81492,128,0,81684:0:0:0:0:
192,192,81684,1,0,0:0:0:0:
320,192,81876,1,0,0:0:0:0:
64,192,82069,128,2,82453:0:0:0:0:
192,192,82069,1,8,0:0:0:0:
192,192,82261,128,0,82453:0:0:0:0:
320,192,82453,1,8,0:0:0:0:
448,192,82453,1,0,0:0:0:0:
192,192,82645,1,0,0:0:0:70:Tom1.wav
448,192,82645,1,0,0:0:0:0:
64,192,82838,1,0,0:0:0:70:Tom2.wav
320,192,82838,128,0,83030:0:0:0:0:
64,192,83030,1,8,0:0:0:0:
192,192,83030,1,0,0:0:0:0:
448,192,83030,128,0,83222:0:0:0:0:
320,192,83222,1,0,0:0:0:0:
192,192,83415,1,0,0:0:0:0:
64,192,83607,128,0,83992:0:0:0:0:
448,192,83799,128,0,83992:0:0:0:0:
320,192,83992,128,0,84376:0:0:0:0:
192,192,84376,128,0,84761:0:0:0:0:
448,192,84569,128,0,84761:0:0:0:0:
64,192,84761,128,0,85145:0:0:0:0:
320,192,84953,128,0,85145:0:0:0:0:
448,192,85145,128,0,85722:0:0:0:0:
192,192,85338,128,0,85530:0:0:0:0:
320,192,85530,128,0,85722:0:0:0:0:
64,192,85722,128,0,85915:0:0:0:0:
192,192,85915,128,0,86492:0:0:0:0:
