osu file format v14

[General]
AudioFilename: audio.mp3
AudioLeadIn: 0
PreviewTime:35530
Countdown: 0
SampleSet: Soft
StackLeniency: 0.7
Mode: 3
LetterboxInBreaks: 0
WidescreenStoryboard: 1
SpecialStyle: 0

[Editor]
Bookmarks: 12453,24761,37069,49376,61684,73992
DistanceSpacing: 1
BeatDivisor: 4
GridSize: 16
TimelineZoom: 1.4

[Metadata]
Title:Avid (TV Size)
TitleUnicode:Avid (TV Size)
Artist:SawanoHiroyuki[nZk]:mizuki
ArtistUnicode:SawanoHiroyuki[nZk]:mizuki
Creator:Drum-Hitnormal
Version:Sya's Normal
Source:86―エイティシックス―
Tags:_Rokii Syadow- 86 eighty six 澤野弘之 sawano hiroyuki mizuki nzk japanese anime ending rock jrock j-rock pop jpop j-pop dudehacker cAnON
BeatmapID:3641121
BeatmapSetID:1770429

[Difficulty]
HPDrainRate:7.5
CircleSize:4
OverallDifficulty:7.5
ApproachRate:5
SliderMultiplier:1.4
SliderTickRate:1

[Events]
//Background and Video events
0,0,"97003555_p0.jpg",0,0
//Break Periods
//Storyboard Layer 0 (Background)
//Storyboard Layer 1 (Fail)
//Storyboard Layer 2 (Pass)
//Storyboard Layer 3 (Foreground)
//Storyboard Layer 4 (Overlay)
//Storyboard Sound Samples

[TimingPoints]
146,769.230769230769,4,2,1,40,1,0
37069,-100,4,2,1,70,0,0

[HitObjects]
192,192,146,1,0,0:0:0:0:
448,192,146,1,0,0:0:0:0:
64,192,338,1,0,0:0:0:0:
320,192,722,1,0,0:0:0:0:
192,192,1107,128,0,1684:0:0:0:0:
64,192,1684,1,0,0:0:0:0:
320,192,1684,1,0,0:0:0:0:
448,192,1876,1,0,0:0:0:0:
192,192,2261,1,0,0:0:0:0:
320,192,2645,128,0,3222:0:0:0:0:
64,192,3222,1,0,0:0:0:0:
192,192,3222,1,0,0:0:0:0:
448,192,3415,1,0,0:0:0:0:
192,192,3799,1,0,0:0:0:0:
448,192,4184,128,0,4761:0:0:0:0:
64,192,4761,1,0,0:0:0:0:
320,192,4761,1,0,0:0:0:0:
192,192,4953,1,0,0:0:0:0:
320,192,5338,1,0,0:0:0:0:
64,192,5722,128,0,6299:0:0:0:0:
320,192,6299,1,0,0:0:0:0:
448,192,6299,1,0,0:0:0:0:
192,192,6492,1,0,0:0:0:0:
320,192,6876,1,0,0:0:0:0:
192,192,7261,128,0,7838:0:0:0:0:
64,192,7838,1,0,0:0:0:0:
320,192,7838,1,0,0:0:0:0:
448,192,8030,1,0,0:0:0:0:
192,192,8415,1,0,0:0:0:0:
320,192,8799,128,0,9376:0:0:0:0:
192,192,9376,1,0,0:0:0:0:
448,192,9376,1,0,0:0:0:0:
64,192,9569,1,0,0:0:0:0:
320,192,9953,1,0,0:0:0:0:
448,192,10338,128,0,10915:0:0:0:0:
64,192,10915,1,0,0:0:0:0:
192,192,10915,1,0,0:0:0:0:
320,192,11107,1,0,0:0:0:0:
192,192,11492,1,0,0:0:0:0:
64,192,11876,128,0,12453:0:0:0:0:
320,192,12453,128,0,12645:0:0:0:0:
448,192,12453,1,0,0:0:0:0:
192,192,12645,128,0,13030:0:0:0:0:
448,192,13030,1,0,0:0:0:0:
64,192,13415,128,0,13799:0:0:0:0:
448,192,13799,128,0,13992:0:0:0:0:
64,192,13992,1,0,0:0:0:0:
192,192,13992,1,0,0:0:0:0:
320,192,14184,128,0,14569:0:0:0:0:
192,192,14569,128,0,14953:0:0:0:0:
448,192,14953,128,0,15338:0:0:0:0:
320,192,15338,1,0,0:0:0:0:
64,192,15530,128,0,16299:0:0:0:0:
192,192,15530,1,0,0:0:0:0:
320,192,16107,1,0,0:0:0:0:
448,192,16299,1,0,0:0:0:0:
192,192,16684,128,0,16876:0:0:0:0:
320,192,16876,128,0,17069:0:0:0:0:
64,192,17069,1,0,0:0:0:0:
448,192,17069,128,0,17838:0:0:0:0:
192,192,17645,1,0,0:0:0:0:
64,192,17838,1,0,0:0:0:0:
320,192,18222,1,0,0:0:0:0:
64,192,18607,1,0,0:0:0:0:
192,192,18607,128,0,18799:0:0:0:0:
320,192,18799,128,0,18992:0:0:0:0:
64,192,19184,128,0,19376:0:0:0:0:
448,192,19569,128,0,19761:0:0:0:0:
192,192,19953,128,0,20145:0:0:0:0:
64,192,20145,1,0,0:0:0:0:
448,192,20145,1,0,0:0:0:0:
320,192,20338,128,0,20530:0:0:0:0:
64,192,20530,1,0,0:0:0:0:
448,192,20722,128,0,20915:0:0:0:0:
192,192,21107,128,0,21492:0:0:0:0:
320,192,21492,128,0,21684:0:0:0:0:
64,192,21684,128,0,22453:0:0:0:0:
448,192,21684,1,0,0:0:0:0:
192,192,22261,1,0,0:0:0:0:
448,192,22453,1,0,0:0:0:0:
320,192,22838,128,0,23030:0:0:0:0:
192,192,23030,128,0,23222:0:0:0:0:
64,192,23222,1,0,0:0:0:0:
448,192,23222,128,0,24761:0:0:0:0:
320,192,23799,1,0,0:0:0:0:
192,192,24376,128,0,24569:0:0:0:0:
320,192,24569,128,0,24761:0:0:0:0:
64,192,24761,128,0,25722:0:0:0:0:
192,192,24761,1,0,0:0:0:0:
448,192,25338,1,0,0:0:0:0:
320,192,25915,128,0,26107:0:0:0:0:
192,192,26107,128,0,27261:0:0:0:0:
448,192,26299,1,0,0:0:0:0:
320,192,26876,1,0,0:0:0:0:
64,192,27453,128,0,27645:0:0:0:0:
448,192,27645,128,0,28799:0:0:0:0:
192,192,27838,1,0,0:0:0:0:
320,192,28415,1,0,0:0:0:0:
64,192,28799,1,0,0:0:0:0:
192,192,28992,1,0,0:0:0:0:
320,192,29184,1,0,0:0:0:0:
64,192,29376,128,0,29761:0:0:0:0:
192,192,29376,1,0,0:0:0:0:
448,192,29761,128,0,29953:0:0:0:0:
192,192,29953,128,0,30145:0:0:0:0:
320,192,29953,1,0,0:0:0:0:
320,192,30338,128,0,30530:0:0:0:0:
192,192,30530,1,0,0:0:0:0:
64,192,30722,128,0,31684:0:0:0:0:
448,192,30915,1,0,0:0:0:0:
192,192,31299,1,0,0:0:0:0:
320,192,31492,1,0,0:0:0:0:
448,192,31684,1,0,0:0:0:0:
192,192,32069,128,0,32261:0:0:0:0:
448,192,32261,128,0,33222:0:0:0:0:
64,192,32453,1,0,0:0:0:0:
320,192,32838,1,0,0:0:0:0:
192,192,33030,1,0,0:0:0:0:
64,192,33222,1,0,0:0:0:0:
320,192,33607,128,0,33799:0:0:0:0:
192,192,33799,128,0,34761:0:0:0:0:
448,192,33992,1,0,0:0:0:0:
64,192,34376,1,0,0:0:0:0:
448,192,34569,1,0,0:0:0:0:
320,192,34761,1,0,0:0:0:0:
192,192,35145,1,0,0:0:0:0:
64,192,35530,128,0,36684:0:0:0:0:
448,192,35530,1,0,0:0:0:0:
192,192,36107,128,0,36684:0:0:0:0:
448,192,36107,1,0,0:0:0:0:
320,192,36684,128,0,36876:0:0:0:0:
192,192,36876,128,0,37069:0:0:0:0:
64,192,37069,1,2,0:0:0:0:
448,192,37069,128,4,37645:0:0:0:0:
64,192,37645,1,8,0:0:0:0:
192,192,37645,1,0,0:0:0:0:
320,192,38222,128,2,38415:0:0:0:0:
192,192,38415,128,2,39376:0:0:0:0:
64,192,38992,1,2,0:0:0:0:
320,192,39376,1,8,0:0:0:0:
448,192,39376,1,0,0:0:0:0:
64,192,39761,128,0,39953:0:0:0:0:
448,192,39953,128,0,41299:0:0:0:0:
192,192,40145,1,2,0:0:0:0:
320,192,40722,1,2,0:0:0:0:
64,192,41299,1,8,0:0:0:0:
192,192,41299,1,0,0:0:0:0:
320,192,41492,128,0,41684:0:0:0:0:
192,192,41684,128,0,41876:0:0:0:0:
448,192,41876,128,2,42069:0:0:0:0:
320,192,42069,1,2,0:0:0:0:
64,192,42261,128,0,42453:0:0:0:0:
320,192,42453,1,8,0:0:0:0:
448,192,42453,1,0,0:0:0:0:
192,192,42645,128,0,42838:0:0:0:0:
448,192,42838,1,2,0:0:0:0:
320,192,43030,128,0,43799:0:0:0:0:
64,192,43222,1,2,0:0:0:0:
64,192,43799,1,8,0:0:0:0:
448,192,43799,1,0,0:0:0:0:
192,192,44376,128,2,44569:0:0:0:0:
64,192,44569,128,2,45530:0:0:0:0:
448,192,45145,1,2,0:0:0:0:
192,192,45530,1,8,0:0:0:0:
320,192,45530,1,0,0:0:0:0:
448,192,45915,128,0,46107:0:0:0:0:
64,192,46107,128,0,46299:0:0:0:0:
320,192,46299,1,2,0:0:0:0:
192,192,46492,128,0,46684:0:0:0:0:
448,192,46684,128,0,47453:0:0:0:0:
64,192,46876,1,2,0:0:0:0:
64,192,47453,1,8,0:0:0:0:
320,192,47453,1,0,0:0:0:0:
192,192,47645,128,0,47838:0:0:0:0:
320,192,47838,128,0,48030:0:0:0:0:
64,192,48030,128,2,48222:0:0:0:0:
192,192,48222,1,2,0:0:0:0:
448,192,48415,128,0,48607:0:0:0:0:
64,192,48607,1,8,0:0:0:0:
192,192,48607,1,0,0:0:0:0:
320,192,48799,128,0,48992:0:0:0:0:
64,192,48992,1,2,0:0:0:0:
192,192,49184,128,0,49953:0:0:0:0:
320,192,49376,1,4,0:0:0:0:
448,192,49376,1,2,0:0:0:0:
64,192,49953,1,8,0:0:0:0:
320,192,49953,1,0,0:0:0:0:
448,192,50530,128,2,50722:0:0:0:0:
320,192,50722,128,2,51684:0:0:0:0:
64,192,51299,1,2,0:0:0:0:
192,192,51684,1,8,0:0:0:0:
448,192,51684,1,0,0:0:0:0:
64,192,52069,128,0,52261:0:0:0:0:
448,192,52261,128,0,53607:0:0:0:0:
192,192,52453,1,2,0:0:0:0:
320,192,53030,1,2,0:0:0:0:
64,192,53607,1,8,0:0:0:0:
192,192,53607,1,0,0:0:0:0:
320,192,53799,128,0,53992:0:0:0:0:
192,192,53992,128,0,54184:0:0:0:0:
448,192,54184,1,2,0:0:0:0:
320,192,54376,128,2,54569:0:0:0:0:
64,192,54569,128,0,54761:0:0:0:0:
320,192,54761,1,8,0:0:0:0:
448,192,54761,1,0,0:0:0:0:
192,192,54953,128,0,55145:0:0:0:0:
448,192,55145,1,2,0:0:0:0:
320,192,55338,128,0,56107:0:0:0:0:
64,192,55530,1,2,0:0:0:0:
64,192,56107,1,8,0:0:0:0:
448,192,56107,1,0,0:0:0:0:
192,192,56684,128,2,56876:0:0:0:0:
448,192,56876,128,2,57838:0:0:0:0:
64,192,57261,1,0,0:0:0:0:
320,192,57453,1,2,0:0:0:0:
64,192,57838,1,8,0:0:0:0:
192,192,57838,1,0,0:0:0:0:
320,192,58222,128,0,58415:0:0:0:0:
64,192,58415,128,0,59761:0:0:0:0:
448,192,58607,1,2,0:0:0:0:
192,192,59184,1,2,0:0:0:0:
320,192,59761,1,8,0:0:0:0:
448,192,59761,1,0,0:0:0:0:
192,192,60338,1,2,0:0:0:0:
320,192,60530,128,2,61684:0:0:0:0:
64,192,61684,1,2,0:0:0:0:
192,192,61684,1,4,0:0:0:0:
448,192,62261,1,2,0:0:0:0:
64,192,62453,128,8,62838:0:0:0:0:
320,192,62453,1,0,0:0:0:0:
192,192,62838,1,2,0:0:0:0:
320,192,63030,128,2,63992:0:0:0:0:
64,192,63607,1,2,0:0:0:0:
64,192,63992,1,8,0:0:0:0:
448,192,63992,1,0,0:0:0:0:
192,192,64376,128,0,64569:0:0:0:0:
448,192,64569,128,0,65530:0:0:0:0:
64,192,64761,1,2,0:0:0:0:
64,192,65530,1,8,0:0:0:0:
320,192,65530,1,0,0:0:0:0:
192,192,65722,1,2,0:0:0:0:
320,192,65915,128,2,66107:0:0:0:0:
64,192,66107,128,0,67069:0:0:0:0:
448,192,66684,1,2,0:0:0:0:
192,192,67069,1,8,0:0:0:0:
448,192,67069,1,0,0:0:0:0:
320,192,67453,1,0,0:0:0:0:
192,192,67838,1,2,0:0:0:0:
64,192,68415,1,2,0:0:0:0:
192,192,68607,1,8,0:0:0:0:
448,192,68607,128,0,68992:0:0:0:0:
320,192,68992,1,2,0:0:0:0:
192,192,69184,128,2,70145:0:0:0:0:
448,192,69761,1,2,0:0:0:0:
64,192,70145,1,8,0:0:0:0:
448,192,70145,1,0,0:0:0:0:
320,192,70530,128,0,70722:0:0:0:0:
64,192,70722,128,0,71684:0:0:0:0:
448,192,70915,1,2,0:0:0:0:
192,192,71684,1,8,0:0:0:0:
448,192,71684,1,0,0:0:0:0:
320,192,71876,1,2,0:0:0:0:
192,192,72069,128,2,72261:0:0:0:0:
448,192,72261,128,0,72838:0:0:0:0:
64,192,72838,1,2,0:0:0:0:
64,192,73222,1,8,0:0:0:0:
320,192,73222,128,0,73607:0:0:0:0:
192,192,73607,1,2,0:0:0:0:
320,192,73799,128,2,73992:0:0:0:0:
64,192,73992,1,2,0:0:0:0:
448,192,73992,1,4,0:0:0:0:
192,192,74376,128,0,74569:0:0:0:0:
320,192,74569,128,2,74761:0:0:0:0:
64,192,74761,1,8,0:0:0:0:
192,192,74761,1,0,0:0:0:0:
448,192,75145,128,2,75338:0:0:0:0:
192,192,75338,128,2,75530:0:0:0:0:
64,192,75915,128,2,76107:0:0:0:0:
192,192,76107,128,0,76299:0:0:0:0:
320,192,76299,1,8,0:0:0:0:
448,192,76299,1,0,0:0:0:0:
320,192,76684,128,0,76876:0:0:0:0:
192,192,76876,128,0,77069:0:0:0:0:
448,192,77069,1,2,0:0:0:0:
64,192,77453,128,0,77645:0:0:0:0:
448,192,77645,128,0,77838:0:0:0:0:
64,192,77838,1,8,0:0:0:0:
320,192,77838,1,0,0:0:0:0:
192,192,78030,1,2,0:0:0:0:
320,192,78222,128,2,78415:0:0:0:0:
192,192,78415,128,0,78607:0:0:0:0:
64,192,78992,128,2,79184:0:0:0:0:
320,192,79184,128,0,79376:0:0:0:0:
64,192,79376,1,8,0:0:0:0:
192,192,79376,1,0,0:0:0:0:
192,192,79761,128,0,79953:0:0:0:0:
448,192,79953,128,0,80145:0:0:0:0:
64,192,80145,1,2,0:0:0:0:
320,192,80530,128,0,80722:0:0:0:0:
192,192,80722,128,2,80915:0:0:0:0:
64,192,80915,1,8,0:0:0:0:
448,192,80915,1,0,0:0:0:0:
64,192,81299,128,2,81492:0:0:0:0:
448,192,81492,128,2,81684:0:0:0:0:
64,192,82069,1,2,0:0:0:0:
320,192,82069,128,8,82261:0:0:0:0:
192,192,82261,128,0,82453:0:0:0:0:
320,192,82453,1,8,0:0:0:0:
448,192,82453,1,0,0:0:0:0:
192,192,82645,1,0,0:0:0:70:Tom1.wav
64,192,82838,128,0,83030:0:0:0:70:Tom2.wav
320,192,83030,1,8,0:0:0:0:
448,192,83030,128,0,83222:0:0:0:0:
192,192,83607,128,0,83799:0:0:0:0:
320,192,83799,128,0,84376:0:0:0:0:
448,192,84376,128,0,84569:0:0:0:0:
64,192,84569,128,0,85145:0:0:0:0:
320,192,85145,128,0,85915:0:0:0:0:
192,192,85915,128,0,86492:0:0:0:0:
