osu file format v14

[General]
AudioFilename: audio.mp3
AudioLeadIn: 0
PreviewTime: 146425
Countdown: 0
SampleSet: Soft
StackLeniency: 0.4
Mode: 0
LetterboxInBreaks: 0
WidescreenStoryboard: 1

[Editor]
Bookmarks: 378,12685,37301,61916,86531,98829,107291,123454,148070,172685,197301,221916
DistanceSpacing: 1
BeatDivisor: 4
GridSize: 32
TimelineZoom: 1.7

[Metadata]
Title:Avid
TitleUnicode:Avid
Artist:SawanoHiroyuki[nZk]:mizuki
ArtistUnicode:SawanoHiroyuki[nZk]:mizuki
Creator:Mir
Version:mnyui's Hard
Source:86―エイティシックス―
Tags:Eiti Shikkusu 86 eight eighty six spearhead vladilena milize milizé sawanohiroyuki[nzk] sawano hiroyuki mizuki nzk japanese anime ending rock jrock j-rock pop jpop j-pop asato ascii media works square enix mnyui gelidum
BeatmapID:3111191
BeatmapSetID:1514385

[Difficulty]
HPDrainRate:4.5
CircleSize:4
OverallDifficulty:6
ApproachRate:7
SliderMultiplier:2
SliderTickRate:1

[Events]
//Background and Video events
0,0,"86.jpg",0,0
//Break Periods
//Storyboard Layer 0 (Background)
//Storyboard Layer 1 (Fail)
//Storyboard Layer 2 (Pass)
//Storyboard Layer 3 (Foreground)
//Storyboard Layer 4 (Overlay)
//Storyboard Sound Samples

[TimingPoints]
368,769.230769230769,4,2,1,25,1,0
23444,-142.857142857143,4,2,1,25,0,0
24983,-100,4,2,1,25,0,0
35752,-100,4,2,1,30,0,0
37291,-90.9090909090909,4,2,1,30,0,0
49598,-142.857142857143,4,2,1,30,0,0
52675,-90.9090909090909,4,2,1,30,0,0
60367,-111.111111111111,4,2,1,30,0,0
61906,-99.9999999999999,4,2,1,45,0,0
86521,-111.111111111111,4,2,1,45,0,0
88829,-90.9090909090908,4,2,1,45,0,0
89598,-111.111111111111,4,2,1,45,0,0
91906,-90.9090909090908,4,2,1,45,0,0
92675,-111.111111111111,4,2,1,45,0,0
94983,-90.9090909090908,4,2,1,45,0,0
95752,-111.111111111111,4,2,1,45,0,0
98060,-90.9090909090908,4,2,1,45,0,0
98829,-99.9999999999999,4,2,1,45,0,0
104214,-90.9090909090909,4,2,1,45,0,0
104598,-99.9999999999999,4,2,1,45,0,0
107291,-90.9090909090909,4,2,1,45,0,0
107675,-99.9999999999999,4,2,1,45,0,0
110367,-90.9090909090909,4,2,1,45,0,0
110751,-99.9999999999999,4,2,1,45,0,0
113444,-90.9090909090909,4,2,1,45,0,0
113828,-99.9999999999999,4,2,1,45,0,0
119598,-90.9090909090909,4,2,1,45,0,0
119982,-99.9999999999999,4,2,1,45,0,0
122675,-90.9090909090909,4,2,1,45,0,0
123059,-99.9999999999999,4,2,1,45,0,0
123444,-90.9090909090909,4,2,1,45,0,0
134694,-90.9090909090909,4,2,1,5,0,0
134791,-90.9090909090909,4,2,1,45,0,0
148060,-71.4285714285714,4,2,1,60,0,0
150367,-62.5,4,2,1,60,0,0
150656,-62.5,4,2,1,5,0,0
150752,-71.4285714285714,4,2,1,60,0,0
153444,-62.5,4,2,1,60,0,0
153733,-62.5,4,2,1,5,0,0
153829,-71.4285714285714,4,2,1,60,0,0
156521,-62.5,4,2,1,60,0,0
156810,-62.5,4,2,1,5,0,0
156906,-71.4285714285714,4,2,1,60,0,0
159598,-62.5,4,2,1,60,0,0
159887,-62.5,4,2,1,5,0,0
159983,-71.4285714285714,4,2,1,60,0,0
162675,-62.5,4,2,1,60,0,0
162964,-62.5,4,2,1,5,0,0
163060,-71.4285714285714,4,2,1,60,0,0
165752,-62.5,4,2,1,60,0,0
166041,-62.5,4,2,1,5,0,0
166137,-71.4285714285714,4,2,1,60,0,0
168829,-62.5,4,2,1,60,0,0
169214,-71.4285714285714,4,2,1,60,0,0
172675,-83.3333333333333,4,2,1,60,0,0
174983,-76.9230769230769,4,2,1,60,0,0
175367,-83.3333333333333,4,2,1,60,0,0
178060,-76.9230769230769,4,2,1,60,0,0
178348,-76.9230769230769,4,2,1,5,0,0
178444,-83.3333333333333,4,2,1,60,0,0
181137,-76.9230769230769,4,2,1,60,0,0
181425,-76.9230769230769,4,2,1,5,0,0
181521,-83.3333333333333,4,2,1,60,0,0
183733,-83.3333333333333,4,2,1,5,0,0
183829,-83.3333333333333,4,2,1,60,0,0
184214,-76.9230769230769,4,2,1,60,0,0
184502,-76.9230769230769,4,2,1,5,0,0
184598,-83.3333333333333,4,2,1,60,0,0
184694,-83.3333333333333,4,2,1,5,0,0
184791,-83.3333333333333,4,2,1,60,0,0
187291,-76.9230769230769,4,2,1,60,0,0
187579,-76.9230769230769,4,2,1,5,0,0
187675,-83.3333333333333,4,2,1,60,0,0
187771,-83.3333333333333,4,2,1,5,0,0
187867,-83.3333333333333,4,2,1,60,0,0
190367,-76.9230769230769,4,2,1,60,0,0
190656,-76.9230769230769,4,2,1,5,0,0
190751,-83.3333333333333,4,2,1,60,0,0
193444,-76.9230769230769,4,2,1,60,0,0
193541,-76.9230769230769,4,2,1,5,0,0
193637,-76.9230769230769,4,2,1,60,0,0
193828,-83.3333333333333,4,2,1,60,0,0
194214,-83.3333333333333,4,2,1,20,0,0
195752,-83.3333333333333,4,2,1,40,0,0
197291,-71.4285714285714,4,2,1,60,0,0
199598,-62.5,4,2,1,60,0,0
199983,-71.4285714285714,4,2,1,60,0,0
202098,-71.4285714285714,4,2,1,5,0,0
202194,-71.4285714285714,4,2,1,60,0,0
202387,-71.4285714285714,4,2,1,5,0,0
202483,-71.4285714285714,4,2,1,60,0,0
202675,-62.5,4,2,1,60,0,0
203060,-71.4285714285714,4,2,1,60,0,0
205656,-71.4285714285714,4,2,1,5,0,0
205752,-62.5,4,2,1,60,0,0
206137,-71.4285714285714,4,2,1,60,0,0
208829,-62.5,4,2,1,60,0,0
209117,-62.5,4,2,1,5,0,0
209214,-71.4285714285714,4,2,1,60,0,0
211906,-62.5,4,2,1,60,0,0
212194,-62.5,4,2,1,5,0,0
212291,-71.4285714285714,4,2,1,60,0,0
214406,-71.4285714285714,4,2,1,5,0,0
214502,-71.4285714285714,4,2,1,60,0,0
214694,-71.4285714285714,4,2,1,5,0,0
214790,-71.4285714285714,4,2,1,60,0,0
214983,-62.5,4,2,1,60,0,0
215368,-71.4285714285714,4,2,1,60,0,0
218060,-62.5,4,2,1,60,0,0
218348,-62.5,4,2,1,5,0,0
218445,-71.4285714285714,4,2,1,60,0,0
220656,-71.4285714285714,4,2,1,5,0,0
220752,-71.4285714285714,4,2,1,60,0,0
221906,-83.3333333333333,4,2,1,60,0,0
222194,-83.3333333333333,4,2,1,5,0,0
222291,-83.3333333333333,4,2,1,60,0,0
224214,-76.9230769230769,4,2,1,60,0,0
224502,-76.9230769230769,4,2,1,5,0,0
224598,-83.3333333333333,4,2,1,60,0,0
227291,-76.9230769230769,4,2,1,60,0,0
227579,-76.9230769230769,4,2,1,5,0,0
227675,-83.3333333333333,4,2,1,60,0,0
228348,-83.3333333333333,4,2,1,5,0,0
228444,-83.3333333333333,4,2,1,60,0,0
230367,-76.9230769230769,4,2,1,60,0,0
230656,-76.9230769230769,4,2,1,5,0,0
230752,-83.3333333333333,4,2,1,60,0,0
233444,-76.9230769230769,4,2,1,60,0,0
233733,-76.9230769230769,4,2,1,5,0,0
233829,-83.3333333333333,4,2,1,60,0,0
234502,-83.3333333333333,4,2,1,5,0,0
234598,-83.3333333333333,4,2,1,60,0,0
236521,-76.9230769230769,4,2,1,60,0,0
236906,-83.3333333333333,4,2,1,60,0,0
239598,-76.9230769230769,4,2,1,60,0,0
239887,-76.9230769230769,4,2,1,5,0,0
239982,-83.3333333333333,4,2,1,60,0,0
242675,-76.9230769230769,4,2,1,60,0,0
243059,-83.3333333333333,4,2,1,60,0,0
246329,-83.3333333333333,4,2,1,20,0,0
246714,-83.3333333333333,4,2,1,5,0,0

[Colours]
Combo1 : 183,230,227
Combo2 : 176,176,217

[HitObjects]
3,96,12675,6,0,P|58:89|103:78,1,100,2|0,0:2|0:2,0:0:0:0:
162,34,13252,1,2,0:2:0:0:
249,122,13637,2,0,P|263:177|223:220,1,100,0|0,0:2|0:2,0:2:0:0:
188,283,14214,1,2,0:2:0:0:
188,283,14406,2,0,P|138:288|90:301,1,100,0|2,0:2|0:2,0:2:0:0:
222,371,15175,1,0,0:2:0:0:
349,289,15560,1,0,0:2:0:0:
349,289,15752,6,0,B|433:266|401:312|508:289,2,150,2|2|0,0:2|0:0|0:2,0:2:0:0:
283,233,17098,1,0,0:2:0:0:
339,168,17291,6,0,P|429:135|421:74,1,150,2|2,0:2|0:2,0:2:0:0:
430,94,18444,1,0,0:2:0:0:
365,19,18829,6,0,B|272:9|306:48|207:34,1,150,2|2,0:2|0:2,0:0:0:0:
70,5,19791,2,0,L|84:60,1,50,0|0,0:2|0:2,0:2:0:0:
20,93,20175,5,0,0:2:0:0:
20,93,20367,2,0,P|84:108|110:203,1,150,2|2,0:2|0:2,0:0:0:0:
20,296,21329,1,0,0:2:0:0:
150,370,21714,1,0,0:2:0:0:
150,370,21906,2,0,B|237:352|196:393|317:371,1,150,2|2,0:2|0:0,0:2:0:0:
483,246,23060,2,0,L|475:190,1,50,0|0,0:2|0:2,0:0:0:0:
419,120,23444,6,0,P|313:85|264:188,1,244.999992523194,2|0,0:2|0:2,0:2:0:0:
330,270,24983,6,0,P|255:261|180:253,1,150,2|2,0:2|0:2,0:0:0:0:
54,334,25944,1,0,0:2:0:0:
54,334,26137,2,0,L|39:271,1,50,0|0,0:2|0:2,0:0:0:0:
80,212,26521,2,0,P|98:143|52:84,1,150,2|2,0:2|0:2,0:0:0:0:
166,11,27483,2,0,L|220:27,1,50,0|0,0:2|0:2,0:2:0:0:
269,82,27867,1,0,0:2:0:0:
269,82,28060,2,0,B|247:174|307:140|284:250,1,150,2|2,0:2|0:0,0:2:0:0:
365,360,29021,1,0,0:2:0:0:
365,360,29214,2,0,L|372:306,1,50,0|0,0:2|0:2,0:0:0:0:
443,264,29598,6,0,P|478:216|427:132,1,150,2|2,0:2|0:2,0:2:0:0:
253,19,30752,2,0,L|236:88,1,50,0|0,0:2|0:2,0:0:0:0:
183,125,31137,5,2,0:2:0:0:
238,183,31329,1,0,0:0:0:0:
238,183,31714,2,0,P|267:242|232:291,1,100,2|0,0:2|0:2,0:2:0:0:
265,354,32291,2,0,L|205:342,1,50,0|0,0:2|0:2,0:0:0:0:
138,370,32675,5,2,0:2:0:0:
84,312,32867,1,0,0:0:0:0:
84,312,33252,2,0,P|95:240|102:183,1,100,2|0,0:2|0:0,0:0:0:0:
146,147,33829,2,0,L|131:86,1,50,0|0,0:2|0:2,0:0:0:0:
187,32,34214,5,2,0:2:0:0:
258,64,34406,1,0,0:0:0:0:
258,64,34791,2,0,P|308:55|357:47,1,100,2|0,0:2|0:0,0:0:0:0:
444,28,35368,2,0,L|435:95,1,50,0|0,0:2|0:2,0:0:0:0:
490,138,35752,5,2,0:2:0:0:
440,207,35944,1,0,0:0:0:0:
440,207,36329,2,0,P|391:210|359:246,1,100,2|0,0:0|0:0,0:0:0:0:
341,321,36906,1,0,0:0:0:0:
195,372,37291,5,2,0:2:0:0:
123,333,37483,2,0,P|97:342|66:351,1,55.0000016784668,0|2,0:2|0:2,0:2:0:0:
1,313,37867,2,0,P|6:244|67:229,1,110.000003356934,0|0,0:2|0:2,0:2:0:0:
118,70,38637,6,0,L|175:81,1,55.0000016784668,0|2,0:2|0:2,0:2:0:0:
255,67,39021,2,0,L|244:124,1,55.0000016784668,0|2,0:2|0:2,0:2:0:0:
185,184,39406,2,0,L|196:241,1,55.0000016784668,0|0,0:2|0:2,0:2:0:0:
265,285,39791,2,0,P|313:294|366:237,1,110.000003356934,0|0,0:2|0:2,0:2:0:0:
399,191,40367,5,2,0:2:0:0:
478,33,40752,2,0,B|369:21|413:57|302:46,1,165.000005035401,2|0,0:2|0:2,0:2:0:0:
237,3,41521,1,0,0:2:0:0:
237,3,41714,1,0,0:2:0:0:
169,58,41906,6,0,P|186:125|197:179,1,110.000003356934,2|2,0:2|0:2,0:2:0:0:
252,227,42483,1,0,0:2:0:0:
203,292,42675,2,0,P|153:310|103:278,1,110.000003356934,0|0,0:2|0:2,0:2:0:0:
18,130,43444,5,2,0:2:0:0:
18,130,43637,2,0,L|7:76,1,55.0000016784668,0|2,0:2|0:2,0:2:0:0:
107,26,44021,2,0,L|96:79,1,55.0000016784668,0|0,0:2|0:2,0:2:0:0:
157,139,44406,2,0,L|222:127,1,55.0000016784668,0|0,0:2|0:2,0:2:0:0:
267,69,44791,6,0,P|320:82|374:92,1,110.000003356934,0|0,0:2|0:2,0:2:0:0:
459,75,45367,1,2,0:2:0:0:
459,75,45560,2,0,L|447:144,1,55.0000016784668,0|0,0:2|0:2,0:2:0:0:
381,172,45944,2,0,P|343:216|376:272,1,110.000003356934,0|0,0:2|0:2,0:2:0:0:
433,317,46521,6,0,P|380:332|328:351,1,110.000003356934,2|2,0:2|0:2,0:2:0:0:
239,380,47098,2,0,B|222:288|282:324|263:202,1,165.000005035401,0|0,0:2|0:2,0:2:0:0:
217,160,47867,1,0,0:2:0:0:
217,160,48060,2,0,L|159:176,1,55.0000016784668,2|0,0:2|0:2,0:2:0:0:
106,229,48444,1,2,0:2:0:0:
42,180,48637,2,0,P|30:127|8:76,1,110.000003356934,0|0,0:2|0:2,0:2:0:0:
45,6,49214,1,0,0:2:0:0:
198,96,49598,6,0,B|335:84|248:26|420:16,1,209.999993591309,2|0,0:2|0:2,0:2:0:0:
477,1,50944,1,0,0:2:0:0:
477,1,51137,2,0,P|461:80|450:223,1,209.999993591309,2|0,0:2|0:2,0:2:0:0:
479,291,52483,1,0,0:2:0:0:
479,291,52675,6,0,P|395:309|340:332,1,110.000003356934,2|0,0:2|0:0,0:2:0:0:
300,375,53252,1,0,0:2:0:0:
100,333,53637,2,0,P|66:255|88:218,1,110.000003356934,0|0,0:2|0:2,0:2:0:0:
74,154,54214,6,0,L|137:173,1,55.0000016784668,2|0,0:2|0:2,0:2:0:0:
195,217,54598,1,0,0:2:0:0:
195,217,54791,2,0,L|269:191,1,55.0000016784668,2|0,0:2|0:2,0:2:0:0:
278,122,55175,2,0,P|351:135|358:205,1,110.000003356934,0|0,0:2|0:2,0:2:0:0:
359,239,55752,5,2,0:2:0:0:
472,380,56137,1,2,0:2:0:0:
472,381,56329,2,0,P|483:327|497:274,1,110.000003356934,0|0,0:2|0:2,0:2:0:0:
442,206,56906,5,0,0:2:0:0:
442,206,57098,1,0,0:2:0:0:
512,162,57291,2,0,P|458:154|426:112,1,110.000003356934,2|2,0:2|0:2,0:2:0:0:
450,29,57867,2,0,B|350:30|394:77|269:79,1,165.000005035401,0|0,0:2|0:2,0:2:0:0:
226,28,58637,1,0,0:2:0:0:
147,73,58829,6,0,P|161:125|174:179,1,110.000003356934,2|2,0:2|0:2,0:2:0:0:
117,245,59406,2,0,P|63:251|31:293,1,110.000003356934,0|0,0:2|0:2,0:2:0:0:
27,371,59983,1,0,0:2:0:0:
187,345,60367,6,0,P|228:327|271:313,1,89.9999972534181,2|0,0:2|0:2,0:2:0:0:
361,332,60944,2,0,P|347:289|336:245,1,89.9999972534181,2|0,0:2|0:2,0:2:0:0:
246,203,61521,1,2,0:2:0:0:
246,203,61714,1,2,0:2:0:0:
352,129,61906,6,0,P|300:80|231:97,2,150,0|0|0,3:2|0:2|0:2,0:2:0:0:
353,130,63252,1,2,0:2:0:0:
467,193,63444,6,0,P|394:210|322:233,2,150,0|0|0,3:2|0:2|0:2,0:2:0:0:
467,193,64790,1,2,0:2:0:0:
492,328,64983,6,0,L|506:280,1,50,0|0,3:2|0:0,0:2:0:0:
427,377,65367,1,0,0:0:0:0:
330,313,65560,2,0,B|242:292|272:339|162:315,1,150,0|0,0:2|0:2,0:0:0:0:
118,361,66329,1,0,0:2:0:0:
22,273,66521,5,2,3:2:0:0:
22,273,66714,2,0,L|15:223,1,50,2|0,0:2|3:2,0:2:0:0:
74,160,67098,2,0,L|123:166,1,50,0|0,0:2|0:2,0:2:0:0:
193,223,67483,2,0,P|241:231|280:202,1,100,2|2,0:2|0:2,0:2:0:0:
386,90,68060,6,0,P|300:75|233:61,2,150,0|0|0,3:2|0:2|0:2,0:2:0:0:
386,90,69406,1,2,0:2:0:0:
454,167,69598,6,0,P|487:123|463:33,2,150,0|0|0,3:2|0:2|0:2,0:2:0:0:
454,167,70944,1,2,0:2:0:0:
418,249,71137,6,0,L|364:237,1,50,0|0,3:2|0:2,0:2:0:0:
294,272,71521,1,0,3:2:0:0:
241,384,71714,2,0,B|250:297|193:324|205:219,1,150,2|0,0:2|0:2,0:2:0:0:
144,175,72483,1,0,0:2:0:0:
218,99,72675,5,2,3:2:0:0:
218,99,72867,2,0,L|276:114,1,50,2|0,0:2|3:2,0:2:0:0:
343,159,73252,2,0,L|391:146,1,50,0|0,0:2|0:2,0:2:0:0:
470,173,73637,2,0,P|491:117|433:81,1,100,2|2,0:2|0:2,0:2:0:0:
368,13,74214,6,0,P|319:23|269:32,1,100,0|0,3:2|0:0,0:2:0:0:
214,83,74791,2,0,P|150:68|96:137,1,150,0|0,0:2|0:2,0:0:0:0:
94,205,75560,1,2,0:2:0:0:
185,172,75752,6,0,P|172:220|163:269,1,100,0|0,3:2|0:0,0:2:0:0:
60,300,76329,2,0,P|131:292|174:350,1,150,0|0,0:2|0:2,0:0:0:0:
248,384,77098,1,2,0:2:0:0:
326,317,77291,6,0,P|313:268|303:219,1,100,0|0,3:2|0:0,0:2:0:0:
228,168,77867,2,0,P|198:102|243:45,1,150,0|0,0:2|0:2,0:0:0:0:
318,0,78637,1,0,0:2:0:0:
412,46,78829,5,2,3:2:0:0:
412,46,79021,2,0,L|467:62,1,50,2|0,0:2|3:2,0:2:0:0:
512,131,79406,2,0,L|496:199,1,50,0|0,0:2|0:2,0:2:0:0:
429,230,79791,2,0,P|374:235|349:291,1,100,2|0,0:2|0:2,0:2:0:0:
272,338,80367,6,0,P|345:358|416:383,2,150,0|0|0,3:2|0:2|0:2,0:2:0:0:
272,338,81714,1,2,0:2:0:0:
161,278,81906,6,0,P|88:280|50:341,2,150,0|0|0,3:2|0:2|0:2,0:2:0:0:
161,278,83253,1,2,0:2:0:0:
260,232,83444,6,0,P|276:184|295:138,1,100,0|0,3:2|0:0,0:2:0:0:
234,45,84021,2,0,P|145:32|88:132,1,200,0|0,0:2|0:2,0:0:0:0:
9,222,84983,5,0,3:2:0:0:
140,263,85367,1,0,3:2:0:0:
33,384,85752,2,0,P|104:358|177:340,1,150,2|0,0:2|0:2,0:2:0:0:
261,380,86521,6,0,L|269:325,1,44.999998626709,0|0,0:2|0:2,0:0:0:0:
346,293,86906,2,0,L|329:204,1,89.9999972534181,2|0,0:2|0:2,0:2:0:0:
284,134,87483,1,0,0:2:0:0:
207,171,87675,5,0,3:2:0:0:
207,171,87867,1,0,3:2:0:0:
125,123,88060,2,0,L|139:62,1,44.999998626709,0|0,0:2|3:2,0:0:0:0:
190,25,88444,1,0,0:2:0:0:
368,116,88829,6,0,P|433:103|474:182,1,165.000005035401,8|0,0:1|0:2,0:2:0:0:
512,250,89598,6,0,L|461:262,1,44.999998626709,0|0,3:2|0:2,0:2:0:0:
409,325,89983,2,0,P|367:308|324:295,1,89.9999972534181,2|0,3:2|0:2,0:2:0:0:
232,325,90560,5,0,3:2:0:0:
232,325,90752,1,0,3:2:0:0:
232,324,90944,2,0,P|241:280|251:236,1,89.9999972534181,2|2,0:2|0:2,0:2:0:0:
312,166,91521,2,0,L|306:109,1,44.999998626709,0|0,3:2|0:0,0:2:0:0:
196,54,91906,6,0,P|120:50|69:132,1,165.000005035401,8|2,0:1|0:2,0:2:0:0:
0,181,92675,6,0,P|44:188|87:202,1,89.9999972534181,0|2,3:2|0:2,0:2:0:0:
173,199,93252,2,0,L|159:250,1,44.999998626709,0|0,3:2|0:2,0:2:0:0:
96,294,93637,2,0,L|110:345,1,44.999998626709,0|0,3:2|3:2,0:0:0:0:
193,384,94021,5,0,3:2:0:0:
193,384,94214,1,0,0:2:0:0:
193,384,94406,2,0,P|260:365|288:361,1,89.9999972534181,2|0,3:2|0:0,0:0:0:0:
371,284,94983,6,0,B|364:197|303:232|292:124,1,165.000005035401,8|0,0:1|0:2,0:2:0:0:
231,87,95752,6,0,L|241:43,1,44.999998626709,0|0,3:2|0:2,0:2:0:0:
323,0,96137,1,2,3:2:0:0:
323,0,96329,2,0,P|388:11|419:50,1,89.9999972534181,0|0,0:0|3:2,0:0:0:0:
475,88,96906,1,0,3:2:0:0:
475,88,97098,2,0,P|464:145|461:182,1,89.9999972534181,2|0,0:2|3:2,0:2:0:0:
468,259,97675,2,0,L|412:246,1,44.999998626709,0|0,3:2|0:0,0:2:0:0:
329,177,98060,6,0,B|227:200|303:240|152:272,1,165.000005035401,8|0,0:1|0:2,0:2:0:0:
65,353,98829,5,4,0:2:0:0:
65,353,99021,2,0,L|46:290,1,50,2|0,0:2|3:2,0:2:0:0:
101,233,99406,2,0,P|110:185|76:147,1,100,0|0,3:2|3:2,0:2:0:0:
14,96,99983,1,0,3:2:0:0:
79,42,100175,6,0,L|150:56,1,50,0|0,3:2|0:2,0:2:0:0:
219,23,100560,2,0,P|204:80|192:140,1,100,0|0,3:2|3:2,0:2:0:0:
257,216,101137,1,8,0:1:0:0:
257,216,101329,2,0,P|301:187|366:201,1,100,2|0,0:2|0:2,0:2:0:0:
438,161,101906,6,0,P|423:209|414:258,1,100,0|2,3:2|3:2,0:2:0:0:
476,335,102483,2,0,P|426:332|386:361,1,100,0|0,0:2|3:2,0:2:0:0:
313,383,103060,1,0,3:2:0:0:
313,383,103252,2,0,P|264:369|215:359,1,100,2|2,0:2|0:2,0:2:0:0:
119,384,103829,2,0,L|132:322,1,50,0|0,3:2|3:2,0:0:0:0:
244,272,104214,6,0,P|229:211|216:150,1,110.000003356934,8|0,0:1|0:2,0:2:0:0:
109,47,104983,5,0,3:2:0:0:
109,47,105175,2,0,L|35:63,1,50,0|0,0:2|3:2,0:2:0:0:
6,121,105560,2,0,P|24:168|35:217,1,100,2|0,3:2|3:2,0:2:0:0:
18,291,106137,1,0,3:2:0:0:
77,340,106329,2,0,L|154:309,1,50,0|0,3:2|0:2,0:2:0:0:
203,356,106714,2,0,P|211:307|192:261,1,100,0|0,3:2|3:2,0:2:0:0:
128,192,107291,6,0,P|137:137|142:83,1,110.000003356934,8|0,0:1|0:2,0:0:0:0:
227,64,107867,1,0,0:2:0:0:
285,150,108060,6,0,P|333:138|380:122,1,100,2|0,3:2|0:2,0:2:0:0:
447,52,108637,2,0,P|458:100|474:147,1,100,0|0,0:2|3:2,0:2:0:0:
424,224,109214,1,0,3:2:0:0:
424,224,109406,2,0,L|416:285,1,50,2|0,0:2|0:2,0:2:0:0:
352,343,109791,5,2,0:2:0:0:
352,343,109983,2,0,L|296:334,1,50,0|0,3:2|3:2,0:0:0:0:
197,367,110367,6,0,B|186:268|249:314|235:178,1,165.000005035401,8|0,0:1|0:2,0:2:0:0:
171,150,111137,5,0,3:2:0:0:
171,150,111329,2,0,L|118:163,1,50,0|0,0:2|3:2,0:2:0:0:
21,142,111714,6,0,P|14:117|5:94,1,50,0|0,3:2|0:2,0:2:0:0:
64,9,112098,2,0,P|70:33|79:56,1,50,0|0,3:2|3:2,0:2:0:0:
165,58,112483,2,0,P|187:48|212:42,1,50,0|0,3:2|0:2,0:2:0:0:
310,9,112867,2,0,P|300:43|294:127,1,100,0|0,3:2|3:2,0:2:0:0:
228,188,113444,2,0,P|280:183|323:244,1,110.000003356934,8|0,0:1|0:2,0:0:0:0:
434,250,114214,6,0,P|415:296|406:345,1,100,0|0,3:2|3:2,0:2:0:0:
324,358,114791,2,0,P|270:315|210:339,1,100,0|0,3:2|3:2,0:2:0:0:
175,369,115367,1,0,3:2:0:0:
115,305,115560,2,0,L|125:251,1,50,0|0,3:2|0:2,0:2:0:0:
186,199,115944,1,2,0:2:0:0:
186,199,116137,2,0,L|176:145,1,50,0|0,3:2|0:2,0:2:0:0:
70,56,116521,5,8,0:1:0:0:
70,56,116906,2,0,L|137:43,1,50,0|2,3:2|0:2,0:0:0:0:
192,7,117291,5,0,3:2:0:0:
304,66,117675,2,0,B|302:146|355:119|343:229,1,150,0|0,3:2|3:2,0:0:0:0:
282,257,118444,1,0,3:2:0:0:
213,203,118637,2,0,P|164:190|115:182,1,100,2|0,3:2|3:2,0:2:0:0:
34,222,119214,1,0,0:0:0:0:
80,375,119598,6,0,P|133:362|187:353,1,110.000003356934,8|0,0:1|0:2,0:2:0:0:
275,384,120175,1,2,0:2:0:0:
330,320,120367,6,0,P|344:273|322:230,1,100,0|0,3:2|3:2,0:2:0:0:
254,170,120944,2,0,P|195:185|149:156,1,100,0|0,0:2|3:2,0:2:0:0:
112,98,121521,1,0,3:2:0:0:
168,32,121714,6,0,P|192:37|217:40,1,50,2|0,0:2|0:2,0:2:0:0:
279,93,122098,1,2,0:2:0:0:
371,25,122291,2,0,L|351:94,1,50,0|0,3:2|0:0,0:2:0:0:
467,159,122675,6,0,P|394:155|342:237,1,165.000005035401,8|0,0:1|0:2,0:2:0:0:
276,308,123444,5,4,0:2:0:0:
343,357,123637,2,0,P|397:367|449:384,2,110.000003356934,2|0|0,0:2|0:2|0:2,0:2:0:0:
276,308,124598,1,0,3:2:0:0:
205,355,124791,2,0,L|190:301,1,55.0000016784668,2|0,3:2|0:2,0:2:0:0:
235,233,125175,2,0,L|250:179,1,55.0000016784668,2|0,0:2|0:0,0:2:0:0:
199,109,125560,2,0,P|146:104|106:140,1,110.000003356934,0|0,0:2|0:2,0:0:0:0:
0,301,126329,1,2,0:2:0:0:
0,301,126521,6,0,P|52:284|106:274,1,110.000003356934,2|2,3:2|0:2,0:2:0:0:
189,304,127098,2,0,L|201:365,1,55.0000016784668,0|0,0:2|0:2,0:2:0:0:
328,380,127675,1,0,3:2:0:0:
328,380,127867,2,0,P|360:323|308:258,1,110.000003356934,2|0,0:2|0:2,0:2:0:0:
293,219,128444,2,0,P|282:165|268:111,1,110.000003356934,2|2,0:2|0:2,0:2:0:0:
459,23,129598,5,0,3:2:0:0:
459,23,129791,2,0,L|441:91,1,55.0000016784668,2|0,0:2|0:0,0:2:0:0:
481,163,130175,2,0,P|428:146|374:138,1,110.000003356934,0|0,0:2|0:2,0:0:0:0:
308,81,130752,1,0,3:2:0:0:
308,81,130944,6,0,L|249:89,1,55.0000016784668,0|0,3:2|0:2,0:2:0:0:
133,32,131521,1,2,0:2:0:0:
70,82,131714,2,0,P|81:111|90:146,1,55.0000016784668,0|0,0:2|0:2,0:2:0:0:
162,174,132098,2,0,P|169:222|125:257,1,110.000003356934,0|0,0:2|0:2,0:2:0:0:
40,293,132675,6,0,B|130:268|99:341|204:321,1,165.000005035401,0|2,3:2|0:2,0:2:0:0:
361,384,133637,5,0,3:2:0:0:
402,315,133829,1,0,3:2:0:0:
336,266,134021,2,0,B|326:205|302:226|291:162,1,110.000003356934,2|0,0:2|0:2,0:2:0:0:
223,122,134598,2,0,P|229:95|234:68,1,55.0000016784668,0|0,3:2|0:0,0:2:0:0:
291,14,134983,1,2,0:2:0:0:
450,54,135367,2,0,L|460:108,1,55.0000016784668,0|2,0:2|0:2,0:0:0:0:
373,176,135752,6,0,P|453:192|475:278,2,165.000005035401,0|2|0,0:2|0:2|0:2,0:2:0:0:
319,239,137098,1,2,0:2:0:0:
237,176,137291,2,0,P|255:97|265:-4,2,165.000005035401,0|2|0,0:2|0:2|0:2,0:2:0:0:
205,247,138637,1,2,0:2:0:0:
120,193,138829,2,0,P|81:187|16:284,2,165.000005035401,0|2|0,0:2|0:2|0:2,0:2:0:0:
227,352,140367,6,0,L|284:342,1,55.0000016784668,2|0,0:2|0:2,0:2:0:0:
368,355,140752,1,0,0:2:0:0:
368,355,140944,2,0,L|350:270,1,55.0000016784668,2|0,0:2|0:2,0:2:0:0:
340,215,141329,2,0,P|285:218|240:189,1,110.000003356934,0|0,0:2|0:2,0:2:0:0:
133,193,141906,6,0,P|151:139|163:87,1,110.000003356934,2|2,0:2|0:2,0:2:0:0:
137,5,142483,2,0,P|190:-1|231:32,1,110.000003356934,0|0,0:2|0:2,0:2:0:0:
240,110,143060,1,0,0:2:0:0:
428,26,143444,6,0,P|413:79|401:132,1,110.000003356934,2|2,0:2|0:2,0:2:0:0:
448,190,144021,2,0,P|396:178|348:203,1,110.000003356934,0|0,0:2|0:2,0:2:0:0:
265,201,144598,2,0,L|287:258,1,55.0000016784668,0|0,0:2|0:2,0:0:0:0:
234,336,144983,6,0,P|182:318|128:307,1,110.000003356934,2|2,0:2|0:2,0:2:0:0:
55,353,145560,2,0,P|31:291|75:255,1,110.000003356934,0|0,0:2|0:2,0:2:0:0:
129,225,146137,1,0,0:2:0:0:
0,47,146521,5,2,0:2:0:0:
136,128,147098,1,2,0:2:0:0:
259,36,147675,1,2,0:2:0:0:
259,36,147867,1,2,0:2:0:0:
303,119,148060,6,0,L|287:222,1,69.9999978637696,4|0,3:2|0:2,0:2:0:0:
212,256,148444,1,2,0:3:0:0:
269,337,148637,2,0,B|350:317|306:287|411:267,1,139.999995727539,8|0,0:2|0:2,0:2:0:0:
481,320,149214,1,0,3:2:0:0:
503,223,149406,2,0,P|451:179|457:112,1,139.999995727539,2|0,3:3|0:2,0:2:0:0:
500,8,149983,2,0,P|464:20|428:28,1,69.9999978637696,0|0,3:2|0:2,0:2:0:0:
333,97,150367,6,0,B|279:67|235:90|235:90|229:131|194:148,1,160,8|2,0:1|0:3,0:2:0:0:
144,74,150944,1,0,0:2:0:0:
71,128,151137,2,0,L|93:206,1,69.9999978637696,0|0,3:2|0:2,0:2:0:0:
172,246,151521,1,2,0:3:0:0:
88,289,151714,2,0,P|155:282|202:330,1,139.999995727539,0|0,3:2|0:2,0:2:0:0:
332,384,152291,1,8,0:2:0:0:
332,384,152675,5,2,0:2:0:0:
289,307,152867,1,2,3:2:0:0:
351,245,153060,2,0,P|358:210|366:176,1,69.9999978637696,0|0,3:2|0:2,0:2:0:0:
308,102,153444,6,0,P|232:90|189:152,1,160,8|2,0:1|3:3,0:2:0:0:
210,234,154021,1,0,0:2:0:0:
119,294,154214,6,0,P|85:282|51:276,1,69.9999978637696,0|0,3:2|0:2,0:2:0:0:
2,215,154598,1,2,0:3:0:0:
75,148,154791,2,0,B|89:72|26:97|54:1,1,139.999995727539,8|0,0:2|0:2,0:2:0:0:
143,0,155367,1,0,3:2:0:0:
220,91,155560,6,0,P|287:70|355:55,1,139.999995727539,2|0,3:3|0:2,0:2:0:0:
416,0,156137,2,0,P|436:27|437:62,1,69.9999978637696,0|0,3:2|0:2,0:2:0:0:
342,146,156521,6,0,P|305:211|351:271,1,160,8|2,0:1|0:3,0:2:0:0:
324,360,157098,2,0,L|392:343,1,69.9999978637696,2|0,0:2|3:2,0:2:0:0:
477,372,157483,1,2,0:2:0:0:
477,372,157675,1,2,0:2:0:0:
512,291,157867,2,0,B|528:214|463:240|493:141,1,139.999995727539,0|0,3:2|0:2,0:2:0:0:
458,76,158444,2,0,L|389:91,1,69.9999978637696,8|2,0:2|0:3,0:0:0:0:
343,174,158829,5,2,0:2:0:0:
261,129,159021,1,2,3:2:0:0:
203,199,159214,1,0,3:2:0:0:
62,112,159598,6,0,P|-4:149|-1:225,1,160,8|2,0:1|3:3,0:2:0:0:
123,311,160367,6,0,B|210:307|170:361|287:363,1,139.999995727539,4|0,3:2|0:2,0:2:0:0:
336,312,160944,2,0,P|358:248|314:198,1,139.999995727539,8|0,0:2|0:2,0:2:0:0:
241,135,161521,1,0,3:2:0:0:
294,56,161714,2,0,B|379:61|347:94|434:103,1,139.999995727539,2|2,3:3|0:0,0:2:0:0:
498,63,162291,2,0,P|513:97|490:148,1,69.9999978637696,0|0,3:2|0:2,0:2:0:0:
400,191,162675,6,0,B|303:203|362:248|238:268,1,160,8|2,0:1|0:3,0:2:0:0:
202,209,163252,1,2,0:2:0:0:
133,265,163444,2,0,P|142:299|147:334,1,69.9999978637696,0|0,3:2|0:2,0:2:0:0:
81,384,163829,1,2,0:3:0:0:
0,332,164021,2,0,P|-22:260|44:212,1,139.999995727539,0|0,3:2|0:2,0:2:0:0:
87,161,164598,2,0,P|74:128|67:95,1,69.9999978637696,8|2,0:2|0:3,0:0:0:0:
120,20,164983,5,2,0:2:0:0:
196,54,165175,1,2,3:2:0:0:
289,24,165367,2,0,P|278:56|271:93,1,69.9999978637696,2|0,3:2|0:2,0:2:0:0:
178,163,165752,6,0,B|216:120|282:140|282:140|288:168|319:190,1,160,8|2,0:1|3:3,0:2:0:0:
469,110,166521,5,0,3:2:0:0:
398,56,166714,1,2,0:2:0:0:
388,143,166906,1,2,0:2:0:0:
388,143,167098,2,0,P|411:209|425:277,1,139.999995727539,8|0,0:2|0:2,0:2:0:0:
486,342,167675,5,2,0:3:0:0:
344,314,167867,2,0,B|260:327|315:362|217:380,1,139.999995727539,0|0,3:2|0:2,0:2:0:0:
151,342,168444,2,0,P|139:312|160:273,1,69.9999978637696,2|0,3:3|0:2,0:2:0:0:
233,228,168829,6,0,B|245:146|188:164|201:75,1,160,8|2,0:1|0:3,0:2:0:0:
268,16,169406,1,0,0:2:0:0:
351,62,169598,6,0,P|384:74|418:84,1,69.9999978637696,0|0,3:2|0:2,0:2:0:0:
486,153,169983,1,2,0:3:0:0:
486,153,170175,2,0,P|452:162|419:174,1,69.9999978637696,0|0,3:2|0:2,0:2:0:0:
341,239,170560,1,2,0:3:0:0:
428,280,170752,1,8,0:2:0:0:
192,372,171137,5,2,0:2:0:0:
274,321,171329,1,0,3:2:0:0:
194,275,171521,1,0,3:2:0:0:
110,319,171714,1,2,0:2:0:0:
490,53,172675,6,0,P|406:49|379:129,1,179.999994506836,6|0,0:2|3:2,0:2:0:0:
462,192,173444,6,0,P|408:202|348:229,1,119.999996337891,10|0,0:2|3:2,0:2:0:0:
289,292,174021,1,2,3:2:0:0:
222,233,174214,2,0,P|229:203|237:174,1,59.9999981689454,0|0,0:2|3:2,0:0:0:0:
297,120,174598,2,0,P|289:90|281:61,1,59.9999981689454,0|0,3:2|0:2,0:2:0:0:
213,13,174983,6,0,P|154:7|109:63,1,129.999994049073,8|2,0:1|0:2,0:2:0:0:
51,107,175560,1,2,0:2:0:0:
127,167,175752,6,0,L|117:226,1,59.9999981689454,0|0,3:2|0:2,0:0:0:0:
39,264,176137,2,0,L|48:323,1,59.9999981689454,2|0,0:3|0:2,0:2:0:0:
145,381,176521,6,0,P|201:362|259:347,1,119.999996337891,8|2,0:2|3:2,0:0:0:0:
340,384,177098,2,0,P|352:314|306:268,1,119.999996337891,2|0,0:3|0:2,0:2:0:0:
251,224,177675,2,0,L|262:158,1,59.9999981689454,0|0,3:2|0:2,0:2:0:0:
222,59,178060,6,0,P|285:73|349:84,1,129.999994049073,8|2,0:1|0:3,0:2:0:0:
512,136,178829,6,0,P|427:140|401:220,1,179.999994506836,0|0,3:2|3:2,0:2:0:0:
474,286,179598,2,0,P|415:296|358:315,1,119.999996337891,10|0,0:2|3:2,0:2:0:0:
289,358,180175,2,0,P|234:366|204:318,1,119.999996337891,2|0,3:2|0:2,0:2:0:0:
254,251,180752,2,0,L|269:181,1,59.9999981689454,0|0,3:2|0:2,0:2:0:0:
232,83,181137,6,0,P|169:72|120:111,1,129.999994049073,8|2,0:1|0:3,0:2:0:0:
25,92,181714,1,2,0:2:0:0:
25,92,181906,2,0,L|46:160,1,59.9999981689454,2|0,3:2|0:2,0:2:0:0:
116,195,182291,1,2,0:3:0:0:
0,290,182675,6,0,P|56:284|87:332,1,119.999996337891,8|2,0:2|3:2,0:0:0:0:
13,384,183252,2,0,P|95:346|184:333,1,179.999994506836,2|0,3:2|3:2,0:2:0:0:
357,384,184214,6,0,B|388:328|388:328|344:264,1,129.999994049073,8|2,0:1|0:3,0:2:0:0:
289,200,184791,1,8,0:2:0:0:
197,234,184983,6,0,P|140:240|101:192,1,119.999996337891,4|2,3:2|0:2,0:2:0:0:
20,144,185560,1,2,3:2:0:0:
55,65,185752,2,0,L|113:78,1,59.9999981689454,8|0,0:2|0:2,0:2:0:0:
184,135,186137,1,2,3:2:0:0:
258,61,186329,6,0,P|324:51|365:98,1,119.999996337891,2|0,3:2|0:2,0:2:0:0:
450,79,186906,2,0,L|432:147,1,59.9999981689454,2|2,3:2|0:2,0:0:0:0:
366,200,187291,2,0,B|382:268|411:231|430:330,1,129.999994049073,8|2,0:1|0:3,0:2:0:0:
368,382,187867,1,2,0:2:0:0:
296,336,188060,5,0,3:2:0:0:
296,336,188444,5,2,0:2:0:0:
214,362,188637,1,2,3:2:0:0:
151,298,188829,2,0,P|144:268|139:239,1,59.9999981689454,8|0,0:2|3:2,0:2:0:0:
213,183,189214,1,2,3:2:0:0:
213,183,189406,2,0,P|238:123|199:66,1,119.999996337891,2|0,0:3|0:2,0:2:0:0:
149,25,189983,5,2,3:2:0:0:
98,87,190175,1,2,3:2:0:0:
0,47,190367,2,0,P|21:108|32:172,1,129.999994049073,8|2,0:1|0:3,0:2:0:0:
13,362,191137,6,0,P|42:353|71:346,1,59.9999981689454,0|0,3:2|0:2,0:2:0:0:
159,380,191521,1,2,0:2:0:0:
225,316,191714,1,2,0:2:0:0:
319,368,191906,2,0,P|351:298|315:251,1,119.999996337891,8|0,0:2|3:2,0:2:0:0:
359,166,192483,6,0,P|303:189|246:207,1,119.999996337891,2|0,3:3|0:2,0:2:0:0:
173,257,193060,1,2,3:2:0:0:
173,257,193252,1,2,0:2:0:0:
95,205,193444,6,0,L|74:129,1,64.9999970245363,8|8,0:1|0:3,0:2:0:0:
139,63,193829,1,4,0:3:0:0:
221,90,194021,1,4,0:3:0:0:
284,32,194214,1,2,0:3:0:0:
512,381,195752,5,2,0:2:0:0:
388,275,196329,1,2,0:2:0:0:
262,359,196906,1,2,0:2:0:0:
262,359,197098,1,2,0:2:0:0:
244,276,197291,6,0,B|228:208|291:223|274:140,1,139.999995727539,4|0,3:2|0:2,0:2:0:0:
220,79,197867,1,0,3:2:0:0:
125,115,198060,2,0,P|88:129|43:138,1,69.9999978637696,8|0,0:2|0:2,0:2:0:0:
4,200,198444,1,2,3:2:0:0:
78,246,198637,1,2,3:2:0:0:
16,319,198829,6,0,L|99:336,1,69.9999978637696,2|0,0:3|0:2,0:0:0:0:
162,384,199214,2,0,P|166:349|176:315,1,69.9999978637696,0|0,3:2|0:2,0:2:0:0:
265,235,199598,6,0,B|360:246|298:289|416:308,1,160,8|2,0:1|0:2,0:2:0:0:
499,283,200175,1,2,0:2:0:0:
409,219,200367,6,0,P|418:149|431:80,1,139.999995727539,2|0,3:3|0:0,0:2:0:0:
199,38,201137,1,8,0:2:0:0:
259,99,201329,1,0,3:2:0:0:
173,122,201521,2,0,P|139:130|107:144,1,69.9999978637696,0|0,3:2|0:2,0:2:0:0:
33,211,201906,6,0,P|19:161|1:112,2,104.999996795654,2|2|2,0:3|0:2|0:2,0:2:0:0:
118,282,202675,2,0,P|186:268|247:358,1,160,8|0,0:1|0:2,0:0:0:0:
312,380,203252,1,2,0:2:0:0:
414,323,203444,6,0,B|414:237|465:288|463:151,1,139.999995727539,2|0,3:3|0:0,0:2:0:0:
512,123,204021,1,0,3:2:0:0:
442,69,204214,2,0,L|349:91,1,69.9999978637696,8|0,0:2|0:0,0:0:0:0:
301,144,204598,5,2,3:2:0:0:
230,91,204791,1,2,3:2:0:0:
214,176,204983,2,0,P|222:208|234:256,1,69.9999978637696,2|0,0:3|0:2,0:2:0:0:
327,247,205367,2,0,P|319:279|307:327,1,69.9999978637696,0|0,3:2|0:0,0:2:0:0:
224,373,205752,6,0,B|186:335|132:344|132:344|113:378|69:388,1,160,8|2,0:1|0:2,0:2:0:0:
13,355,206329,1,2,0:2:0:0:
71,273,206521,2,0,P|61:239|54:204,1,69.9999978637696,2|2,3:3|0:2,0:0:0:0:
0,132,206906,2,0,P|34:124|68:115,1,69.9999978637696,2|0,0:2|0:2,0:2:0:0:
145,44,207291,5,8,0:2:0:0:
218,88,207483,1,0,3:2:0:0:
223,3,207675,1,0,3:2:0:0:
251,174,208060,5,2,0:3:0:0:
251,174,208252,2,0,L|230:240,1,69.9999978637696,2|0,0:2|3:2,0:2:0:0:
165,302,208637,1,2,0:2:0:0:
270,356,208829,6,0,P|355:349|381:288,1,160,8|2,0:1|0:2,0:2:0:0:
329,222,209406,1,0,0:2:0:0:
419,159,209598,6,0,P|436:92|463:27,1,139.999995727539,4|0,3:2|0:2,0:2:0:0:
378,0,210175,1,0,3:2:0:0:
318,61,210367,2,0,L|236:39,1,69.9999978637696,8|0,0:2|0:2,0:2:0:0:
190,104,210752,1,2,3:2:0:0:
106,41,210944,2,0,P|55:83|70:148,1,139.999995727539,2|0,3:2|0:2,0:2:0:0:
25,219,211521,2,0,P|56:233|90:229,1,69.9999978637696,0|0,3:2|0:2,0:2:0:0:
198,193,211906,6,0,P|184:271|173:351,1,160,8|2,0:1|0:2,0:2:0:0:
263,384,212483,1,2,0:2:0:0:
346,316,212675,6,0,P|418:302|453:372,1,139.999995727539,2|0,3:3|0:0,0:2:0:0:
512,200,213444,1,8,0:2:0:0:
436,164,213637,1,0,3:2:0:0:
436,164,213829,2,0,P|395:175|355:185,1,69.9999978637696,0|2,3:2|0:2,0:2:0:0:
285,154,214214,2,0,P|269:201|298:243,2,104.999996795654,2|2|2,0:3|0:2|0:2,0:2:0:0:
387,95,214983,6,0,P|309:74|233:50,1,160,8|0,0:1|0:2,0:0:0:0:
163,0,215560,1,2,0:2:0:0:
77,52,215752,6,0,L|97:125,1,69.9999978637696,2|2,3:3|0:2,0:0:0:0:
164,180,216137,1,2,0:2:0:0:
164,180,216329,1,0,3:2:0:0:
79,208,216521,6,8,P|146:204|184:259,1,139.999995727539,8|2,0:2|3:2,0:2:0:0:
134,359,217098,2,0,P|199:335|269:326,1,139.999995727539,2|0,3:2|0:2,0:2:0:0:
340,383,217675,2,0,P|358:330|343:296,1,69.9999978637696,0|0,3:2|0:2,0:2:0:0:
320,234,218060,6,0,B|311:144|270:184|260:73,1,160,8|2,0:1|0:3,0:2:0:0:
294,13,218637,1,0,0:2:0:0:
378,53,218829,2,0,P|407:64|459:72,1,69.9999978637696,0|2,3:2|0:2,0:0:0:0:
512,24,219214,1,2,0:2:0:0:
465,193,219598,5,8,0:2:0:0:
465,193,219791,1,0,3:2:0:0:
465,193,219983,2,0,L|389:174,1,69.9999978637696,0|0,3:2|0:2,0:2:0:0:
318,125,220367,2,0,P|312:161|301:205,1,69.9999978637696,2|0,3:3|0:0,0:2:0:0:
364,266,220752,1,8,3:3:0:0:
250,370,221137,1,8,0:1:0:0:
250,370,221329,2,0,B|164:350|211:320|99:303,1,139.999995727539,4|2,0:3|0:2,0:2:0:0:
16,233,221906,6,0,P|100:219|125:175,1,119.999996337891,4|2,3:2|0:3,0:2:0:0:
65,110,222483,1,0,3:2:0:0:
129,48,222675,2,0,L|244:79,1,119.999996337891,8|0,0:2|3:2,0:2:0:0:
323,39,223252,2,0,P|367:76|366:134,1,119.999996337891,2|0,3:3|0:2,0:2:0:0:
294,185,223829,2,0,P|280:211|290:239,1,59.9999981689454,0|0,3:2|0:2,0:2:0:0:
372,310,224214,6,0,P|308:325|245:341,1,129.999994049073,8|2,0:1|0:3,0:2:0:0:
175,384,224791,1,2,0:2:0:0:
83,345,224983,2,0,L|95:273,1,59.9999981689454,0|0,0:2|0:2,0:2:0:0:
179,249,225367,2,0,L|169:189,1,59.9999981689454,2|0,0:3|0:2,0:2:0:0:
84,134,225752,5,8,0:2:0:0:
84,134,225944,2,0,P|50:135|10:117,1,59.9999981689454,0|2,3:2|3:2,0:0:0:0:
15,28,226329,2,0,P|71:12|122:42,1,119.999996337891,2|0,0:3|0:2,0:2:0:0:
169,110,226906,1,0,3:2:0:0:
276,12,227291,6,0,B|268:85|318:66|306:160,1,129.999994049073,8|2,0:1|0:3,0:2:0:0:
188,239,228060,6,0,P|162:290|196:335,1,119.999996337891,0|2,3:2|0:3,0:2:0:0:
265,384,228637,1,0,3:2:0:0:
340,322,228829,2,0,L|398:333,1,59.9999981689454,10|0,0:2|0:2,0:2:0:0:
471,384,229214,1,0,3:2:0:0:
471,384,229406,2,0,P|491:295|503:253,1,119.999996337891,2|0,3:3|0:2,0:2:0:0:
512,186,229983,2,0,P|482:180|455:192,1,59.9999981689454,0|0,3:2|0:2,0:2:0:0:
373,273,230367,6,0,P|356:210|333:150,1,129.999994049073,8|2,0:1|0:3,0:2:0:0:
382,72,230944,1,0,0:2:0:0:
285,21,231137,6,0,B|214:33|252:58|172:78,1,119.999996337891,0|2,3:2|0:3,0:2:0:0:
97,39,231714,1,0,0:2:0:0:
22,114,231906,2,0,P|34:144|44:182,1,59.9999981689454,8|0,0:2|3:2,0:0:0:0:
113,215,232291,1,2,3:2:0:0:
41,256,232483,6,0,P|100:263|158:279,1,119.999996337891,2|0,0:3|0:2,0:2:0:0:
230,339,233060,2,0,L|247:277,1,59.9999981689454,0|0,3:2|0:2,0:2:0:0:
319,206,233444,6,0,P|340:148|288:103,1,129.999994049073,8|4,0:1|0:3,0:2:0:0:
214,62,234021,1,4,0:3:0:0:
312,7,234214,2,0,P|375:24|439:32,1,119.999996337891,4|2,3:2|0:3,0:2:0:0:
501,74,234791,1,2,3:2:0:0:
444,156,234983,6,0,P|433:184|426:213,1,59.9999981689454,8|0,0:2|0:2,0:2:0:0:
466,287,235367,1,2,3:2:0:0:
375,347,235560,6,0,P|318:327|259:314,1,119.999996337891,2|0,3:3|0:2,0:2:0:0:
185,366,236137,1,2,3:2:0:0:
185,366,236329,1,2,3:2:0:0:
76,336,236521,6,0,P|50:266|81:222,1,129.999994049073,8|2,0:1|0:3,0:0:0:0:
151,168,237098,1,0,0:2:0:0:
151,168,237291,2,0,L|132:100,1,59.9999981689454,0|0,3:2|0:2,0:2:0:0:
79,50,237675,1,2,0:3:0:0:
79,50,237867,1,2,0:2:0:0:
182,2,238060,6,0,P|240:15|299:22,1,119.999996337891,8|2,0:2|3:2,0:0:0:0:
371,71,238637,2,0,P|382:127|341:168,1,119.999996337891,2|0,0:3|0:2,0:2:0:0:
263,153,239214,5,2,3:2:0:0:
263,153,239406,1,2,3:2:0:0:
193,221,239598,2,0,P|222:287|238:348,1,129.999994049073,8|2,0:1|0:3,0:2:0:0:
321,384,240175,1,2,0:2:0:0:
321,384,240367,6,0,P|365:368|397:361,1,59.9999981689454,0|0,3:2|0:2,0:2:0:0:
453,380,240752,1,2,0:3:0:0:
453,380,240944,1,2,0:2:0:0:
502,299,241137,2,0,B|520:241|520:241|478:182,1,119.999996337891,8|2,0:2|3:2,0:2:0:0:
404,134,241714,6,0,B|334:143|374:175|260:190,1,119.999996337891,2|0,3:3|0:2,0:2:0:0:
226,230,242291,1,2,3:2:0:0:
157,184,242483,1,2,0:2:0:0:
58,252,242675,5,8,0:2:0:0:
132,302,242867,1,8,0:3:0:0:
56,342,243060,1,4,0:3:0:0:
56,342,243252,1,8,0:2:0:0:
12,85,243829,5,2,0:2:0:0:
12,85,244021,1,2,0:2:0:0:
152,163,244598,1,2,0:2:0:0:
152,163,244791,1,2,0:2:0:0:
258,55,245367,5,2,0:2:0:0:
258,55,245560,2,0,P|313:68|403:86,1,119.999996337891,2|0,0:2|0:2,0:2:0:0:
443,124,246137,1,2,0:2:0:0:
401,192,246329,5,2,0:2:0:0:
