osu file format v14

[General]
AudioFilename: audio.mp3
AudioLeadIn: 0
PreviewTime: 146425
Countdown: 0
SampleSet: Soft
StackLeniency: 0.4
Mode: 0
LetterboxInBreaks: 0
WidescreenStoryboard: 0

[Editor]
Bookmarks: 378,12685,37301,61916,86531,98829,123454,148070,172685,197301,221916
DistanceSpacing: 1
BeatDivisor: 4
GridSize: 32
TimelineZoom: 1.7

[Metadata]
Title:Avid
TitleUnicode:Avid
Artist:SawanoHiroyuki[nZk]:mizuki
ArtistUnicode:SawanoHiroyuki[nZk]:mizuki
Creator:Mir
Version:Resolve
Source:86―エイティシックス―
Tags:Eiti Shikkusu 86 eight eighty six spearhead vladilena milize milizé sawanohiroyuki[nzk] sawano hiroyuki mizuki nzk japanese anime ending rock jrock j-rock pop jpop j-pop asato ascii media works square enix mnyui gelidum
BeatmapID:3100537
BeatmapSetID:1514385

[Difficulty]
HPDrainRate:5
CircleSize:4.5
OverallDifficulty:7
ApproachRate:8
SliderMultiplier:2.2
SliderTickRate:1

[Events]
//Background and Video events
0,0,"86.jpg",0,0
//Break Periods
//Storyboard Layer 0 (Background)
//Storyboard Layer 1 (Fail)
//Storyboard Layer 2 (Pass)
//Storyboard Layer 3 (Foreground)
//Storyboard Layer 4 (Overlay)
//Storyboard Sound Samples

[TimingPoints]
368,769.230769230769,4,2,1,25,1,0
368,-133.333333333333,4,2,1,25,0,0
23444,-100,4,2,1,25,0,0
24983,-133.333333333333,4,2,1,25,0,0
35752,-100,4,2,1,30,0,0
37291,-117.647058823529,4,2,1,30,0,0
60367,-200,4,2,1,30,0,0
61906,-500,4,2,1,45,0,0
66521,-117.647058823529,4,2,1,45,0,0
68060,-500,4,2,1,45,0,0
72675,-117.647058823529,4,2,1,45,0,0
74214,-500,4,2,1,45,0,0
78829,-117.647058823529,4,2,1,45,0,0
80367,-500,4,2,1,45,0,0
85752,-100,4,2,1,45,0,0
86521,-133.333333333333,4,2,1,45,0,0
88829,-66.6666666666667,4,2,1,45,0,0
89598,-133.333333333333,4,2,1,45,0,0
91906,-66.6666666666667,4,2,1,45,0,0
92675,-133.333333333333,4,2,1,45,0,0
94983,-66.6666666666667,4,2,1,45,0,0
95752,-133.333333333333,4,2,1,45,0,0
98060,-66.6666666666667,4,2,1,45,0,0
98829,-100,4,2,1,45,0,0
104214,-66.6666666666667,4,2,1,45,0,0
104983,-100,4,2,1,45,0,0
110367,-66.6666666666667,4,2,1,45,0,0
111137,-100,4,2,1,45,0,0
116521,-66.6666666666667,4,2,1,45,0,0
117291,-100,4,2,1,45,0,0
119598,-66.6666666666667,4,2,1,45,0,0
120367,-100,4,2,1,45,0,0
122675,-66.6666666666667,4,2,1,45,0,0
123637,-117.647058823529,4,2,1,45,0,0
128444,-66.6666666666667,4,2,1,45,0,0
128829,-200,4,2,1,45,0,0
129598,-117.647058823529,4,2,1,45,0,0
134598,-66.6666666666667,4,2,1,45,0,0
134694,-66.6666666666667,4,2,1,5,0,0
134791,-66.6666666666667,4,2,1,45,0,0
134983,-200,4,2,1,45,0,0
135752,-117.647058823529,4,2,1,45,0,0
146521,-250,4,2,1,45,0,0
148060,-50,4,2,1,60,0,1
148156,-50,4,2,1,60,0,0
149406,-80,4,2,1,60,0,0
150367,-66.6666666666667,4,2,1,60,0,0
150656,-66.6666666666667,4,2,1,5,0,0
150752,-66.6666666666667,4,2,1,60,0,0
152675,-50,4,2,1,60,0,0
153733,-66.6666666666667,4,2,1,5,0,0
153829,-100,4,2,1,60,0,0
154214,-50,4,2,1,60,0,0
155560,-80,4,2,1,60,0,0
156521,-66.6666666666667,4,2,1,60,0,0
156810,-66.6666666666667,4,2,1,5,0,0
156906,-66.6666666666667,4,2,1,60,0,0
158829,-50,4,2,1,60,0,0
159887,-100,4,2,1,5,0,0
159983,-100,4,2,1,60,0,0
160367,-50,4,2,1,60,0,0
160944,-80,4,2,1,60,0,0
162675,-66.6666666666667,4,2,1,60,0,0
162964,-66.6666666666667,4,2,1,5,0,0
163060,-66.6666666666667,4,2,1,60,0,0
166041,-66.6666666666667,4,2,1,5,0,0
166137,-100,4,2,1,60,0,0
166521,-50,4,2,1,60,0,0
167098,-80,4,2,1,60,0,0
168829,-66.6666666666667,4,2,1,60,0,0
171714,-133.333333333333,4,2,1,60,0,0
172675,-50,4,2,1,60,0,1
172771,-50,4,2,1,60,0,0
173444,-80,4,2,1,60,0,0
174983,-66.6666666666667,4,2,1,60,0,0
175367,-80,4,2,1,60,0,0
178060,-66.6666666666667,4,2,1,60,0,0
178348,-66.6666666666667,4,2,1,5,0,0
178444,-80,4,2,1,60,0,0
181137,-66.6666666666667,4,2,1,60,0,0
181425,-66.6666666666667,4,2,1,5,0,0
181521,-80,4,2,1,60,0,0
183733,-80,4,2,1,5,0,0
183829,-80,4,2,1,60,0,0
184214,-66.6666666666667,4,2,1,60,0,0
184502,-66.6666666666667,4,2,1,5,0,0
184598,-80,4,2,1,60,0,0
184694,-80,4,2,1,5,0,0
184791,-80,4,2,1,60,0,0
187291,-66.6666666666667,4,2,1,60,0,0
187579,-66.6666666666667,4,2,1,5,0,0
187675,-80,4,2,1,60,0,0
187771,-80,4,2,1,5,0,0
187867,-80,4,2,1,60,0,0
190367,-66.6666666666667,4,2,1,60,0,0
190656,-66.6666666666667,4,2,1,5,0,0
190751,-80,4,2,1,60,0,0
193444,-66.6666666666667,4,2,1,60,0,0
193541,-66.6666666666667,4,2,1,5,0,0
193637,-66.6666666666667,4,2,1,60,0,0
193828,-80,4,2,1,60,0,0
194214,-400,4,2,1,20,0,0
195752,-200,4,2,1,40,0,0
197291,-50,4,2,1,60,0,1
197387,-50,4,2,1,60,0,0
198060,-76.9230769230769,4,2,1,60,0,0
199598,-66.6666666666667,4,2,1,60,0,0
200367,-76.9230769230769,4,2,1,60,0,0
201906,-50,4,2,1,60,0,0
202098,-66.6666666666667,4,2,1,5,0,0
202194,-66.6666666666667,4,2,1,60,0,0
202387,-66.6666666666667,4,2,1,5,0,0
202483,-66.6666666666667,4,2,1,60,0,0
203444,-76.9230769230769,4,2,1,60,0,0
205656,-76.9230769230769,4,2,1,5,0,0
205752,-66.6666666666667,4,2,1,60,0,0
208060,-50,4,2,1,60,0,0
208829,-66.6666666666667,4,2,1,60,0,0
209117,-66.6666666666667,4,2,1,5,0,0
209214,-100,4,2,1,60,0,0
209598,-50,4,2,1,60,0,0
210367,-76.9230769230769,4,2,1,60,0,0
211906,-66.6666666666667,4,2,1,60,0,0
212194,-66.6666666666667,4,2,1,5,0,0
212291,-66.6666666666667,4,2,1,60,0,0
212675,-76.9230769230769,4,2,1,60,0,0
214406,-76.9230769230769,4,2,1,5,0,0
214502,-76.9230769230769,4,2,1,60,0,0
214694,-76.9230769230769,4,2,1,5,0,0
214790,-76.9230769230769,4,2,1,60,0,0
218060,-66.6666666666667,4,2,1,60,0,0
218348,-66.6666666666667,4,2,1,5,0,0
218444,-76.9230769230769,4,2,1,60,0,0
220656,-76.9230769230769,4,2,1,5,0,0
220752,-57.1428571428571,4,2,1,60,0,0
221329,-133.333333333333,4,2,1,60,0,0
221906,-50,4,2,1,60,0,1
222002,-50,4,2,1,60,0,0
222194,-50,4,2,1,5,0,0
222291,-76.9230769230769,4,2,1,60,0,0
224214,-66.6666666666667,4,2,1,60,0,0
224502,-66.6666666666667,4,2,1,5,0,0
224598,-66.6666666666667,4,2,1,60,0,0
224983,-76.9230769230769,4,2,1,60,0,0
227291,-66.6666666666667,4,2,1,60,0,0
227579,-66.6666666666667,4,2,1,5,0,0
227675,-76.9230769230769,4,2,1,60,0,0
228060,-50,4,2,1,60,0,0
228348,-50,4,2,1,5,0,0
228444,-76.9230769230769,4,2,1,60,0,0
230367,-66.6666666666667,4,2,1,60,0,0
230656,-66.6666666666667,4,2,1,5,0,0
230752,-76.9230769230769,4,2,1,60,0,0
233444,-66.6666666666667,4,2,1,60,0,0
233733,-66.6666666666667,4,2,1,5,0,0
233829,-66.6666666666667,4,2,1,60,0,0
234214,-50,4,2,1,60,0,0
234502,-50,4,2,1,5,0,0
234598,-50,4,2,1,60,0,0
234983,-76.9230769230769,4,2,1,60,0,0
236521,-66.6666666666667,4,2,1,60,0,0
237291,-76.9230769230769,4,2,1,60,0,0
239598,-66.6666666666667,4,2,1,60,0,0
239887,-66.6666666666667,4,2,1,5,0,0
239983,-100,4,2,1,60,0,0
240367,-76.9230769230769,4,2,1,60,0,0
242675,-66.6666666666667,4,2,1,60,0,0
243252,-200,4,2,1,60,0,0
245367,-100,4,2,1,60,0,0
246137,-1000,4,2,1,60,0,0
246329,-1000,4,2,1,20,0,0
246714,-1000,4,2,1,5,0,0

[Colours]
Combo1 : 183,230,227
Combo2 : 176,176,217

[HitObjects]
126,109,368,5,2,0:2:0:0:
90,47,560,2,0,P|32:32|-17:19,2,82.5000031471254,0|0|0,0:2|0:2|0:2,0:2:0:0:
78,161,1714,5,0,0:2:0:0:
126,108,1906,1,2,0:2:0:0:
194,139,2098,2,0,P|252:124|301:111,2,82.5000031471254,0|0|0,0:2|0:2|0:2,0:2:0:0:
145,196,3060,2,0,P|150:214|156:246,1,41.2500015735627,0|0,0:2|0:2,0:2:0:0:
115,357,3444,5,2,0:2:0:0:
79,295,3636,2,0,P|21:280|-28:267,2,82.5000031471254,0|0|0,0:2|0:2|0:2,0:2:0:0:
115,357,4598,2,0,L|164:346,1,41.2500015735627,0|0,0:2|0:2,0:2:0:0:
229,337,4983,5,2,0:2:0:0:
349,312,5560,5,2,0:2:0:0:
469,287,6137,6,0,L|478:238,1,41.2500015735627,0|0,0:2|0:2,0:2:0:0:
349,312,6521,5,2,0:2:0:0:
412,357,6714,2,0,P|466:363|518:373,2,82.5000031471254,0|0|0,0:2|0:2|0:2,0:2:0:0:
349,312,7675,2,0,L|340:263,1,41.2500015735627,0|0,0:2|0:2,0:2:0:0:
332,199,8060,6,0,P|263:186|214:178,1,82.5000031471254,2|0,0:2|0:2,0:2:0:0:
193,231,8637,2,0,P|152:238|111:246,1,82.5000031471254,0|0,0:2|0:2,0:2:0:0:
48,216,9214,1,0,0:2:0:0:
55,57,9598,5,2,0:2:0:0:
104,6,9791,2,0,P|152:12|171:65,2,82.5000031471254,0|0|0,0:2|0:2|0:2,0:2:0:0:
55,57,10752,2,0,P|64:80|68:102,1,41.2500015735627,0|0,0:2|0:2,0:2:0:0:
186,123,11137,5,2,0:2:0:0:
245,81,11329,2,0,P|296:72|340:66,2,82.5000031471254,0|0|0,0:2|0:2|0:2,0:2:0:0:
186,123,12291,2,0,P|179:157|187:183,1,41.2500015735627,0|0,0:2|0:2,0:2:0:0:
204,321,12675,5,2,0:2:0:0:
257,272,12867,2,0,P|306:288|322:293,1,41.2500015735627,0|0,0:2|0:2,0:2:0:0:
350,335,13252,2,0,P|369:328|389:322,1,41.2500015735627,0|0,0:2|0:2,0:2:0:0:
469,322,13637,2,0,L|452:388,1,41.2500015735627,2|0,0:2|0:2,0:2:0:0:
364,254,14021,6,0,L|353:214,1,41.2500015735627,2|0,0:2|0:2,0:2:0:0:
361,204,14310,1,0,0:2:0:0:
369,194,14406,2,0,L|419:210,1,41.2500015735627,0|0,0:2|0:2,0:2:0:0:
509,239,14791,2,0,L|459:255,1,41.2500015735627,0|0,0:2|0:2,0:2:0:0:
478,172,15175,2,0,L|500:113,1,41.2500015735627,2|0,0:2|0:2,0:2:0:0:
369,194,15560,5,2,0:2:0:0:
330,129,15752,2,0,B|199:116|268:210|116:180,1,206.250007867813,0|0,0:2|0:2,0:2:0:0:
38,153,16906,1,2,0:2:0:0:
38,153,17098,1,0,0:2:0:0:
38,153,17291,2,0,P|50:198|72:300,2,123.750004720688,2|0|0,0:2|0:2|0:2,0:2:0:0:
148,36,18829,5,2,0:2:0:0:
219,49,19021,2,0,L|233:-17,1,41.2500015735627,0|0,0:2|0:2,0:2:0:0:
122,151,19406,2,0,L|108:85,1,41.2500015735627,0|0,0:2|0:2,0:2:0:0:
125,109,19694,1,0,0:2:0:0:
137,108,19791,2,0,L|195:118,1,41.2500015735627,2|0,0:2|0:2,0:2:0:0:
340,42,20175,6,0,L|282:52,1,41.2500015735627,2|0,0:2|0:2,0:2:0:0:
259,114,20560,2,0,L|250:154,1,41.2500015735627,0|0,0:2|0:2,0:2:0:0:
168,216,20944,2,0,L|226:226,1,41.2500015735627,0|0,0:2|0:2,0:2:0:0:
249,288,21329,2,0,L|257:328,1,41.2500015735627,2|0,0:2|0:2,0:2:0:0:
322,367,21714,1,2,0:2:0:0:
398,354,21906,6,0,P|472:345|494:218,1,206.250007867813,0|0,0:2|0:2,0:2:0:0:
449,185,23060,1,2,0:2:0:0:
449,185,23252,1,0,0:2:0:0:
393,128,23444,6,0,P|359:76|483:125,1,385,2|0,0:2|0:2,0:2:0:0:
449,185,24983,5,2,0:2:0:0:
393,128,25175,2,0,P|366:123|336:117,1,41.2500015735627,0|0,0:2|0:2,0:2:0:0:
288,161,25560,2,0,P|267:164|247:168,1,41.2500015735627,0|0,0:2|0:2,0:2:0:0:
236,162,25848,1,0,0:2:0:0:
225,156,25944,2,0,L|237:102,1,41.2500015735627,2|0,0:2|0:2,0:2:0:0:
353,198,26329,6,0,L|361:238,1,41.2500015735627,2|0,0:2|0:2,0:2:0:0:
286,237,26714,2,0,L|277:277,1,41.2500015735627,0|0,0:2|0:2,0:2:0:0:
157,290,27098,2,0,L|148:330,1,41.2500015735627,0|0,0:2|0:2,0:2:0:0:
224,329,27483,2,0,L|232:369,1,41.2500015735627,2|0,0:2|0:2,0:2:0:0:
309,368,27867,1,0,0:2:0:0:
277,277,28060,6,0,P|218:285|67:326,1,206.250007867813,2|0,0:2|0:2,0:2:0:0:
0,375,29214,1,2,0:2:0:0:
0,375,29406,1,0,0:2:0:0:
0,375,29598,2,0,P|-2:318|10:238,2,123.750004720688,2|0|0,0:2|0:2|0:2,0:2:0:0:
76,322,30944,1,0,0:2:0:0:
141,277,31137,6,0,P|180:288|225:298,1,82.5000031471254,2|0,0:2|0:2,0:2:0:0:
261,356,31714,2,0,P|300:345|345:335,1,82.5000031471254,0|0,0:2|0:2,0:2:0:0:
411,370,32291,1,0,0:2:0:0:
411,370,32483,1,0,0:2:0:0:
470,326,32675,6,0,P|482:265|507:201,2,123.750004720688,2|0|0,0:2|0:2|0:2,0:2:0:0:
407,244,34021,1,0,0:2:0:0:
407,244,34214,2,0,B|327:246|371:207|287:200,2,123.750004720688,2|0|0,0:2|0:2|0:2,0:2:0:0:
402,169,35560,1,0,0:2:0:0:
402,169,35752,6,0,P|344:176|10:240,1,385,2|0,0:2|0:2,0:2:0:0:
23,236,37291,5,2,0:2:0:0:
73,158,37483,2,0,P|77:177|88:205,1,46.7500008916855,2|0,0:2|0:2,0:2:0:0:
152,268,37867,2,0,P|156:248|167:221,1,46.7500008916855,0|0,0:2|0:2,0:2:0:0:
201,136,38252,2,0,P|171:147|143:152,1,46.7500008916855,2|0,0:2|0:2,0:2:0:0:
31,265,38637,6,0,P|53:270|75:279,1,46.7500008916855,2|0,0:2|0:2,0:2:0:0:
256,301,39021,2,0,P|233:306|211:315,1,46.7500008916855,0|0,0:2|0:2,0:2:0:0:
147,384,39406,2,0,P|142:355|134:327,1,46.7500008916855,2|0,0:2|0:2,0:2:0:0:
161,219,39791,2,0,P|155:241|151:264,1,46.7500008916855,0|0,0:2|0:2,0:2:0:0:
211,315,40175,1,0,0:2:0:0:
269,378,40367,5,2,0:2:0:0:
269,378,40560,1,0,0:2:0:0:
269,378,40752,2,0,P|334:364|384:345,1,93.500001783371,2|0,0:2|0:2,0:2:0:0:
435,364,41329,1,0,0:2:0:0:
435,364,41521,6,0,P|442:338|454:307,1,46.7500008916855,0|0,0:2|0:2,0:2:0:0:
371,242,41906,2,0,P|378:264|384:286,2,46.7500008916855,2|0|2,0:2|0:2|0:2,0:2:0:0:
454,235,42483,1,0,0:2:0:0:
454,235,42675,2,0,P|461:212|467:190,2,46.7500008916855,0|0|0,0:2|0:2|0:2,0:2:0:0:
219,121,43444,5,2,0:2:0:0:
254,53,43637,2,0,L|316:42,1,46.7500008916855,2|0,0:2|0:2,0:2:0:0:
466,113,44021,2,0,L|528:124,1,46.7500008916855,0|0,0:2|0:2,0:2:0:0:
424,50,44406,2,0,L|412:-11,1,46.7500008916855,2|0,0:2|0:2,0:2:0:0:
386,119,44791,6,0,L|249:143,1,93.500001783371,2|0,0:2|0:2,0:2:0:0:
248,190,45367,1,2,0:2:0:0:
248,190,45560,2,0,P|241:245|239:257,1,46.7500008916855,2|0,0:2|0:2,0:2:0:0:
323,279,45944,2,0,P|319:255|317:232,1,46.7500008916855,0|0,0:2|0:2,0:2:0:0:
161,295,46329,1,2,0:2:0:0:
161,295,46521,6,0,P|216:310|285:328,1,93.500001783371,2|2,0:2|0:2,0:2:0:0:
305,373,47098,2,0,P|367:378|394:315,1,140.250002675057,0|0,0:2|0:2,0:2:0:0:
417,241,47867,1,0,0:2:0:0:
477,286,48060,2,0,P|497:309|534:313,2,46.7500008916855,2|0|2,0:2|0:2|0:2,0:2:0:0:
417,241,48637,2,0,P|408:177|394:112,1,93.500001783371,0|0,0:2|0:2,0:2:0:0:
439,86,49214,1,0,0:2:0:0:
439,86,49406,1,0,0:2:0:0:
512,202,49598,6,0,P|444:190|224:166,1,280.500005350113,2|0,0:2|0:2,0:2:0:0:
177,217,50944,1,0,0:2:0:0:
110,253,51137,2,0,P|44:240|42:43,1,280.500005350113,2|0,0:2|0:2,0:2:0:0:
98,2,52483,1,0,0:2:0:0:
18,49,52675,6,0,P|74:67|181:90,1,140.250002675057,2|0,0:2|0:2,0:2:0:0:
150,92,53637,2,0,P|193:83|251:72,1,93.500001783371,0|0,0:2|0:2,0:2:0:0:
320,78,54214,6,0,L|340:11,1,46.7500008916855,2|0,0:2|0:2,0:2:0:0:
389,102,54598,1,0,0:2:0:0:
389,102,54791,2,0,L|409:35,1,46.7500008916855,2|0,0:2|0:2,0:2:0:0:
461,123,55175,2,0,L|481:56,2,46.7500008916855,0|0|0,0:2|0:2|0:2,0:2:0:0:
512,194,55752,6,0,P|461:202|384:217,1,93.500001783371,2|2,0:2|0:2,0:2:0:0:
309,305,56329,2,0,P|299:265|281:203,1,93.500001783371,0|0,0:2|0:2,0:2:0:0:
220,183,56906,5,0,0:2:0:0:
164,226,57098,1,0,0:2:0:0:
101,189,57291,2,0,P|54:181|8:177,1,93.500001783371,2|2,0:2|0:2,0:2:0:0:
4,334,57867,2,0,P|43:368|106:336,1,93.500001783371,0|0,0:2|0:2,0:2:0:0:
114,295,58444,5,0,0:2:0:0:
114,295,58637,1,0,0:2:0:0:
114,295,58829,2,0,P|183:305|237:314,1,93.500001783371,2|2,0:2|0:2,0:2:0:0:
329,368,59406,2,0,P|375:360|421:354,1,93.500001783371,0|0,0:2|0:2,0:2:0:0:
497,349,59983,1,0,0:2:0:0:
263,134,60367,6,0,P|258:181|252:210,1,55,2|0,0:2|0:2,0:2:0:0:
421,206,60944,2,0,P|426:159|432:130,1,55,2|0,0:2|0:2,0:2:0:0:
428,152,61521,1,2,0:2:0:0:
256,188,61714,1,2,0:2:0:0:
343,174,61906,6,0,L|347:134,2,33,0|0|0,3:2|0:2|0:2,0:2:0:0:
343,174,63252,1,2,0:2:0:0:
188,297,63444,2,0,L|192:337,2,33,0|0|0,3:2|0:2|0:2,0:2:0:0:
188,297,64790,1,2,0:2:0:0:
44,163,64983,2,0,L|48:123,2,33,0|0|0,3:2|0:2|0:2,0:2:0:0:
44,163,66329,1,0,0:2:0:0:
239,246,66521,5,2,3:2:0:0:
318,179,66714,2,0,P|365:187|378:190,1,46.7500008916855,2|0,0:2|3:2,0:2:0:0:
137,242,67098,2,0,P|90:250|77:253,1,46.7500008916855,0|0,0:2|0:2,0:2:0:0:
306,326,67483,2,0,P|353:334|366:337,1,46.7500008916855,2|0,0:2|0:2,0:2:0:0:
239,246,67867,1,2,0:2:0:0:
68,339,68060,6,0,L|72:379,2,33,0|0|0,3:2|0:2|0:2,0:2:0:0:
68,339,69406,1,2,0:2:0:0:
239,246,69598,2,0,L|243:206,2,33,0|0|0,3:2|0:2|0:2,0:2:0:0:
239,246,70944,1,2,0:2:0:0:
412,321,71137,2,0,L|413:335,2,11,0|0|0,3:2|0:2|3:2,0:2:0:0:
411,311,71714,2,0,L|407:278,1,33,2|0,0:2|0:2,0:2:0:0:
407,278,72483,1,0,0:2:0:0:
418,38,72675,5,2,3:2:0:0:
503,94,72867,2,0,P|473:102|444:108,1,46.7500008916855,2|0,0:2|3:2,0:2:0:0:
263,169,73252,2,0,P|235:165|214:130,1,46.7500008916855,0|0,0:2|0:2,0:2:0:0:
189,82,73637,2,0,L|201:11,1,46.7500008916855,2|0,0:2|0:2,0:2:0:0:
196,35,74021,1,2,0:2:0:0:
54,168,74214,6,0,L|18:176,2,33,0|0|0,3:2|0:2|0:2,0:2:0:0:
54,168,75560,1,2,0:2:0:0:
279,236,75752,2,0,L|315:244,2,33,0|0|0,3:2|0:2|0:2,0:2:0:0:
279,236,77098,1,2,0:2:0:0:
84,347,77291,2,0,L|48:355,2,33,0|0|0,3:2|0:2|0:2,0:2:0:0:
84,347,78637,1,0,0:2:0:0:
251,377,78829,5,2,3:2:0:0:
304,328,79021,2,0,P|354:321|379:319,1,46.7500008916855,2|0,0:2|3:2,0:2:0:0:
422,374,79406,2,0,P|429:348|438:316,1,46.7500008916855,0|0,0:2|0:2,0:2:0:0:
512,328,79791,2,0,P|504:302|496:270,1,46.7500008916855,2|0,0:2|0:2,0:2:0:0:
435,250,80175,1,0,0:2:0:0:
257,267,80367,6,0,L|222:262,2,33,0|0|0,3:2|0:2|0:2,0:2:0:0:
266,270,81714,1,2,0:2:0:0:
385,147,81906,2,0,L|420:142,2,33,0|0|0,3:2|0:2|0:2,0:2:0:0:
376,150,83253,1,2,0:2:0:0:
255,24,83444,2,0,L|220:19,2,33,0|0|0,3:2|0:2|0:2,0:2:0:0:
264,27,84791,1,0,0:2:0:0:
371,44,84983,6,0,L|374:28,1,11,0|0,3:2|0:2,0:2:0:0:
444,45,85367,2,0,L|441:55,1,11,0|0,3:2|0:2,0:2:0:0:
512,94,85752,6,0,P|407:113|304:134,1,165,2|0,0:2|0:2,0:2:0:0:
270,242,86521,5,0,0:2:0:0:
270,242,86617,1,0,0:2:0:0:
270,242,86714,1,0,0:2:0:0:
200,207,86906,2,0,P|163:215|148:218,1,41.2500015735627,2|0,0:2|0:2,0:2:0:0:
111,163,87291,5,0,0:2:0:0:
43,147,87483,1,0,0:2:0:0:
116,90,87675,5,0,3:2:0:0:
184,74,87867,1,0,3:2:0:0:
85,20,88060,1,0,0:2:0:0:
85,20,88252,2,0,L|41:11,2,41.2500015735627,0|0|0,3:2|0:2|0:2,0:2:0:0:
270,241,88829,6,0,P|288:132|325:-15,1,247.500009441376,8|0,0:1|0:2,0:2:0:0:
321,0,89598,6,0,P|359:14|366:14,1,41.2500015735627,0|0,3:2|0:2,0:2:0:0:
441,29,89983,2,0,P|459:19|480:15,2,41.2500015735627,2|0|0,3:2|0:2|0:2,0:2:0:0:
393,85,90560,5,0,3:2:0:0:
393,85,90752,1,0,3:2:0:0:
393,85,90944,2,0,P|406:143|412:172,1,82.5000031471254,2|2,0:2|0:2,0:2:0:0:
430,239,91521,2,0,P|459:267|483:268,1,55.0000020980836,0|0,3:2|3:2,0:2:0:0:
486,129,91906,6,0,P|427:137|279:176,1,165.000006294251,8|0,0:1|3:2,0:2:0:0:
243,226,92483,1,2,0:2:0:0:
179,316,92675,6,0,P|171:342|170:374,1,41.2500015735627,0|0,3:2|0:2,0:2:0:0:
90,337,93060,1,2,0:2:0:0:
90,337,93252,2,0,P|98:311|99:279,1,41.2500015735627,0|0,3:2|0:2,0:2:0:0:
153,243,93637,1,0,3:2:0:0:
153,243,93829,1,0,3:2:0:0:
97,191,94021,5,0,3:2:0:0:
24,201,94214,1,0,0:2:0:0:
69,119,94406,5,2,3:2:0:0:
142,129,94599,1,0,0:2:0:0:
284,380,94983,6,0,P|276:316|263:123,1,247.500009441376,8|0,0:1|0:2,0:2:0:0:
291,56,95752,6,0,P|338:77|353:76,1,41.2500015735627,0|0,3:2|0:2,0:2:0:0:
394,45,96137,2,0,P|442:21|482:29,1,82.5000031471254,2|0,3:2|0:2,0:2:0:0:
509,90,96714,1,0,3:2:0:0:
509,90,96906,1,0,3:2:0:0:
443,138,97098,2,0,P|434:195|430:221,1,82.5000031471254,2|0,0:2|3:2,0:2:0:0:
410,285,97675,2,0,L|421:354,1,55.0000020980836,0|0,3:2|3:2,0:2:0:0:
512,273,98060,6,0,P|397:250|201:222,1,247.500009441376,8|0,0:1|0:2,0:2:0:0:
26,169,98829,5,4,0:2:0:0:
80,110,99021,2,0,L|61:47,1,55,2|0,0:2|3:2,0:2:0:0:
249,158,99406,6,0,L|193:147,1,55,0|0,3:2|0:2,0:2:0:0:
121,233,99791,2,0,L|177:222,1,55,0|0,3:2|3:2,0:2:0:0:
238,305,100175,2,0,L|182:294,1,55,0|0,3:2|0:2,0:2:0:0:
45,297,100560,6,0,L|34:361,1,55,0|0,3:2|0:2,0:2:0:0:
35,351,100944,1,0,3:2:0:0:
174,222,101137,5,8,0:1:0:0:
238,305,101329,2,0,P|266:261|342:257,1,110,2|0,0:2|0:2,0:2:0:0:
399,235,101906,6,0,P|406:292|422:385,1,110,0|2,3:2|3:2,0:2:0:0:
490,384,102483,2,0,P|495:357|504:318,1,55,0|0,0:2|0:2,0:2:0:0:
485,258,102867,1,0,3:2:0:0:
485,258,103060,1,0,3:2:0:0:
485,258,103252,2,0,P|480:231|471:192,1,55,2|0,0:2|0:2,0:2:0:0:
344,178,103637,2,0,P|349:151|358:112,1,55,2|0,0:2|3:2,0:2:0:0:
367,111,104021,1,0,3:2:0:0:
400,271,104214,6,0,P|308:256|169:233,1,165.000006294251,8|0,0:1|0:2,0:2:0:0:
133,305,104791,1,2,0:2:0:0:
25,208,104983,5,0,3:2:0:0:
77,158,105175,2,0,L|66:87,1,55,0|0,0:2|3:2,0:2:0:0:
241,10,105560,6,0,L|232:64,1,55,2|0,3:2|0:2,0:2:0:0:
305,160,105944,2,0,L|296:105,1,55,0|0,3:2|3:2,0:2:0:0:
367,5,106329,2,0,L|358:59,1,55,0|0,3:2|0:2,0:2:0:0:
432,183,106714,6,0,L|505:172,1,55,0|0,3:2|0:2,0:2:0:0:
493,173,107098,1,0,3:2:0:0:
305,160,107291,5,8,0:1:0:0:
403,252,107483,2,0,P|419:308|426:336,1,55,0|0,0:2|0:2,0:2:0:0:
418,304,107867,1,0,0:2:0:0:
333,371,108060,6,0,P|251:358|191:351,1,110,2|0,3:2|0:2,0:2:0:0:
173,291,108637,2,0,P|114:293|76:364,1,110,0|0,0:2|3:2,0:2:0:0:
82,329,109214,1,0,3:2:0:0:
18,373,109406,2,0,P|7:345|6:307,1,55,2|0,0:2|0:2,0:2:0:0:
179,216,109791,5,2,0:2:0:0:
206,145,109983,1,0,3:2:0:0:
152,91,110175,1,0,3:2:0:0:
0,16,110367,6,0,P|0:106|144:157,1,247.500009441376,8|0,0:1|0:2,0:2:0:0:
206,145,111137,5,0,3:2:0:0:
258,194,111329,2,0,L|335:211,1,55,0|0,0:2|3:2,0:2:0:0:
488,202,111714,6,0,L|473:123,1,55,0|0,3:2|0:2,0:2:0:0:
332,109,112098,2,0,L|347:30,1,55,0|0,3:2|3:2,0:2:0:0:
495,71,112483,2,0,L|480:-8,1,55,0|0,3:2|0:2,0:2:0:0:
420,95,112867,6,0,L|409:149,1,55,0|0,3:2|0:2,0:2:0:0:
409,149,113252,1,0,3:2:0:0:
258,194,113444,5,8,0:1:0:0:
370,278,113637,6,0,L|380:332,1,55,0|0,0:2|0:2,0:2:0:0:
380,332,114021,1,0,0:2:0:0:
456,210,114214,6,0,P|400:197|303:186,1,110,0|0,3:2|3:2,0:2:0:0:
302,133,114791,2,0,P|246:146|149:157,1,110,0|0,3:2|3:2,0:2:0:0:
127,121,115367,1,0,3:2:0:0:
33,74,115560,6,0,P|27:106|17:166,1,55,0|0,3:2|0:2,0:2:0:0:
2,195,115944,1,2,0:2:0:0:
2,195,116137,2,0,P|33:205|84:224,1,55,0|0,3:2|0:2,0:2:0:0:
251,234,116521,6,0,P|237:103|228:4,1,165.000006294251,8|0,0:1|3:2,0:2:0:0:
278,14,117098,1,2,0:2:0:0:
340,57,117291,6,0,P|428:79|484:94,2,110,0|0|0,3:2|3:2|0:2,0:2:0:0:
278,14,118252,5,0,3:2:0:0:
233,69,118444,1,0,3:2:0:0:
171,25,118637,2,0,P|83:47|27:62,2,110,2|0|0,3:2|3:2|0:2,0:2:0:0:
342,151,119598,6,0,P|328:282|319:381,1,165.000006294251,8|0,0:1|0:2,0:2:0:0:
376,371,120175,1,2,0:2:0:0:
426,313,120367,6,0,P|472:269|538:289,1,110,0|0,3:2|3:2,0:2:0:0:
512,189,120944,2,0,P|466:145|400:165,1,110,0|0,0:2|3:2,0:2:0:0:
376,205,121521,1,0,3:2:0:0:
376,205,121714,2,0,P|342:212|310:217,1,55,2|0,0:2|0:2,0:2:0:0:
265,164,122098,5,2,0:2:0:0:
212,218,122291,2,0,P|205:260|193:301,1,73.3333333333333,0|0,3:2|3:2,0:2:0:0:
11,267,122675,6,0,P|127:300|285:381,1,247.500009441376,8|0,0:1|0:2,0:2:0:0:
315,354,123444,5,4,0:2:0:0:
429,293,123637,2,0,P|437:244|451:195,2,93.500001783371,2|0|0,0:2|0:2|0:2,0:2:0:0:
463,359,124598,5,0,3:2:0:0:
352,252,124791,2,0,P|302:263|289:264,1,46.7500008916855,2|0,3:2|0:2,0:2:0:0:
254,208,125175,2,0,P|208:195|162:188,2,93.500001783371,2|0|0,0:2|0:2|0:2,0:2:0:0:
254,208,126329,1,2,0:2:0:0:
320,165,126521,6,0,P|324:141|327:118,2,46.7500008916855,2|0|2,3:2|0:2|0:2,0:2:0:0:
252,102,127098,2,0,P|248:78|245:55,1,46.7500008916855,0|0,0:2|0:2,0:2:0:0:
306,6,127483,1,0,3:2:0:0:
306,6,127675,1,0,3:2:0:0:
306,6,127867,2,0,P|351:20|411:36,1,93.500001783371,2|0,0:2|0:2,0:2:0:0:
422,120,128444,2,0,P|451:91|512:89,1,82.5000031471254,2|0,0:2|0:2,0:2:0:0:
492,235,128829,6,0,P|455:234|419:184,1,82.5,2|0,0:2|0:2,0:2:0:0:
488,161,129598,5,0,3:2:0:0:
353,258,129791,2,0,P|284:267|259:273,2,93.500001783371,2|0|0,0:2|0:2|0:2,0:2:0:0:
408,312,130752,1,0,3:2:0:0:
217,211,130944,6,0,P|194:207|154:199,1,46.7500008916855,0|0,3:2|0:2,0:2:0:0:
171,202,131521,1,2,0:2:0:0:
118,149,131714,2,0,P|94:153|72:157,1,46.7500008916855,0|0,0:2|0:2,0:2:0:0:
45,227,132098,2,0,P|22:222|0:218,1,46.7500008916855,0|0,0:2|0:2,0:2:0:0:
72,157,132483,1,0,0:2:0:0:
171,202,132675,6,0,P|183:272|198:355,1,140.250002675057,0|2,3:2|0:2,0:2:0:0:
307,382,133637,5,0,3:2:0:0:
351,324,133829,1,0,3:2:0:0:
421,347,134021,2,0,P|471:358|532:368,1,93.500001783371,2|0,0:2|0:2,0:2:0:0:
501,244,134598,2,0,L|489:294,1,41.2500015735627,0|0,3:2|0:2,0:2:0:0:
491,284,134983,6,0,L|478:221,1,55,2|0,0:2|0:2,0:2:0:0:
477,215,135560,1,2,0:2:0:0:
395,244,135752,6,0,P|337:235|245:213,2,140.250002675057,0|2|0,0:2|0:2|0:2,0:2:0:0:
394,168,137098,1,2,0:2:0:0:
210,134,137291,2,0,P|268:125|360:103,2,140.250002675057,0|2|0,0:2|0:2|0:2,0:2:0:0:
162,79,138637,1,2,0:2:0:0:
46,112,138829,2,0,P|35:185|29:266,2,140.250002675057,0|2|0,0:2|0:2|0:2,0:2:0:0:
46,112,140367,6,0,P|78:108|103:102,1,46.7500008916855,2|0,0:2|0:2,0:2:0:0:
117,177,140752,1,0,0:2:0:0:
117,177,140944,2,0,P|149:181|174:187,1,46.7500008916855,2|0,0:2|0:2,0:2:0:0:
77,34,141329,2,0,P|45:38|20:44,1,46.7500008916855,0|0,0:2|0:2,0:2:0:0:
185,115,141714,5,0,0:2:0:0:
245,171,141906,2,0,P|260:113|268:69,1,93.500001783371,2|2,0:2|0:2,0:2:0:0:
387,27,142483,2,0,P|452:19|491:17,1,93.500001783371,0|0,0:2|0:2,0:2:0:0:
508,122,143060,1,0,0:2:0:0:
508,122,143252,1,0,0:2:0:0:
508,122,143444,6,0,P|443:114|404:112,1,93.500001783371,2|2,0:2|0:2,0:2:0:0:
340,201,144021,2,0,P|326:263|317:313,1,93.500001783371,0|0,0:2|0:2,0:2:0:0:
348,364,144598,1,0,0:2:0:0:
348,364,144791,1,0,0:2:0:0:
348,364,144983,6,0,P|381:352|451:339,1,93.500001783371,2|2,0:2|0:2,0:2:0:0:
262,340,145560,2,0,P|229:328|159:315,1,93.500001783371,0|0,0:2|0:2,0:2:0:0:
110,361,146137,1,0,0:2:0:0:
110,361,146329,1,0,0:2:0:0:
250,171,146521,6,0,L|246:124,1,44,2|0,0:2|0:2,0:2:0:0:
100,139,147098,2,0,L|104:186,1,44,2|0,0:2|0:2,0:2:0:0:
178,157,147675,1,2,0:2:0:0:
178,157,147867,1,2,0:2:0:0:
414,369,148060,6,0,P|430:285|442:222,1,110,4|0,3:2|0:2,0:2:0:0:
490,207,148444,1,2,0:3:0:0:
512,29,148637,2,0,P|456:63|298:93,1,220,8|0,0:2|0:2,0:2:0:0:
248,40,149214,1,0,3:2:0:0:
120,235,149406,6,0,P|102:158|77:85,1,137.5,2|0,3:3|0:2,0:2:0:0:
78,30,149983,2,0,P|44:29|3:16,1,68.75,0|0,3:2|0:2,0:2:0:0:
0,263,150367,2,0,P|80:241|132:234,1,123.750004720688,8|0,0:1|0:2,0:2:0:0:
133,246,150752,1,2,0:3:0:0:
205,264,150944,1,0,0:2:0:0:
317,384,151137,6,0,P|329:326|346:266,1,82.5000031471254,0|0,3:2|0:2,0:2:0:0:
398,260,151521,1,2,0:3:0:0:
232,129,151714,2,0,P|261:189|367:181,1,165.000006294251,0|0,3:2|0:2,0:2:0:0:
147,317,152291,1,8,0:2:0:0:
147,317,152483,1,2,0:3:0:0:
312,127,152675,5,2,0:2:0:0:
398,260,152867,1,2,3:2:0:0:
431,199,153060,2,0,P|529:180|553:176,1,110,0|0,3:2|0:2,0:2:0:0:
235,24,153444,2,0,P|212:115|199:206,1,165,8|0,0:1|0:2,0:2:0:0:
192,195,153829,2,0,L|208:265,1,55,2|0,3:3|0:2,0:2:0:0:
26,299,154214,6,0,P|71:359|114:350,1,110,0|0,3:2|0:2,0:2:0:0:
156,303,154598,1,2,0:3:0:0:
227,118,154791,2,0,B|78:103|163:191|5:160,1,220,8|0,0:2|0:2,0:2:0:0:
0,93,155367,1,0,3:2:0:0:
196,200,155560,6,0,P|261:215|361:237,1,137.5,2|0,3:3|0:2,0:2:0:0:
391,268,156137,2,0,P|436:253|458:247,1,68.75,0|0,3:2|0:2,0:2:0:0:
158,384,156521,2,0,P|149:308|137:238,1,123.750004720688,8|0,0:1|0:2,0:2:0:0:
134,250,156906,1,2,0:3:0:0:
242,127,157098,6,0,P|299:141|336:149,1,82.5000031471254,2|0,0:2|3:2,0:2:0:0:
392,120,157483,1,2,0:2:0:0:
180,171,157675,1,2,0:2:0:0:
270,52,157867,6,0,P|289:139|306:243,1,165.000006294251,0|0,3:2|0:2,0:2:0:0:
196,17,158444,1,8,0:2:0:0:
196,17,158637,1,2,0:3:0:0:
397,131,158829,5,2,0:2:0:0:
175,97,159021,1,2,3:2:0:0:
156,170,159214,2,0,P|83:187|21:206,1,110,0|2,3:2|0:2,0:2:0:0:
353,3,159598,2,0,P|445:18|493:113,1,165,8|0,0:1|0:2,0:2:0:0:
501,85,159983,2,0,P|484:122|482:147,1,55,2|0,3:3|0:2,0:2:0:0:
320,384,160367,6,0,B|348:268|223:302|270:172,1,220,4|0,3:2|0:2,0:2:0:0:
0,359,160944,2,0,P|63:343|152:323,1,137.5,8|0,0:2|0:2,0:2:0:0:
199,356,161521,1,0,3:2:0:0:
85,167,161714,6,0,P|75:217|68:247,1,68.75,2|0,3:3|0:2,0:2:0:0:
7,280,162098,1,2,0:0:0:0:
148,246,162291,2,0,P|155:212|161:178,1,68.75,0|0,3:2|0:2,0:2:0:0:
270,329,162675,2,0,P|348:308|428:291,1,123.750004720688,8|0,0:1|0:2,0:2:0:0:
404,309,163060,1,2,0:3:0:0:
495,342,163252,1,2,0:2:0:0:
498,162,163444,6,0,P|448:148|408:141,1,82.5000031471254,0|0,3:2|0:2,0:2:0:0:
371,90,163829,1,2,0:3:0:0:
248,198,164021,2,0,P|235:139|214:23,1,165.000006294251,0|0,3:2|0:2,0:2:0:0:
205,265,164598,1,8,0:2:0:0:
205,265,164791,1,2,0:3:0:0:
143,214,164983,5,2,0:2:0:0:
241,334,165175,1,2,3:2:0:0:
282,274,165367,2,0,P|326:266|379:257,1,82.5000031471254,2|0,3:2|0:2,0:2:0:0:
169,372,165752,2,0,P|94:350|79:283,1,123.750004720688,8|0,0:1|0:2,0:2:0:0:
50,309,166137,2,0,P|72:273|80:253,1,55,2|0,3:3|0:2,0:2:0:0:
241,334,166521,5,0,3:2:0:0:
282,274,166714,1,2,0:2:0:0:
245,212,166906,1,2,0:2:0:0:
512,298,167098,2,0,P|450:309|378:332,1,137.5,8|0,0:2|0:2,0:2:0:0:
334,384,167675,5,2,0:3:0:0:
464,223,167867,2,0,P|471:184|478:150,2,68.75,0|0|0,3:2|0:2|0:2,0:2:0:0:
383,242,168444,2,0,P|376:208|370:174,1,68.75,2|0,3:3|0:2,0:2:0:0:
196,48,168829,2,0,P|191:94|289:110,1,165.000006294251,8|2,0:1|0:3,0:2:0:0:
318,47,169406,1,0,0:2:0:0:
293,259,169598,6,0,P|248:249|190:241,1,82.5000031471254,0|0,3:2|0:2,0:2:0:0:
83,304,169983,1,2,0:3:0:0:
36,249,170175,2,0,P|30:204|17:135,1,82.5000031471254,0|0,3:2|0:2,0:2:0:0:
0,101,170560,1,2,0:3:0:0:
149,208,170752,1,8,0:2:0:0:
149,208,171137,5,2,0:2:0:0:
212,243,171329,1,0,3:2:0:0:
266,193,171521,1,0,3:2:0:0:
266,193,171714,2,0,P|317:184|435:163,1,165.000006294251,2|2,0:2|0:2,0:2:0:0:
500,149,172579,5,2,0:2:0:0:
512,221,172675,2,0,P|446:206|171:153,1,330,6|0,0:2|3:2,0:2:0:0:
63,250,173444,6,0,P|100:239|133:230,1,68.75,10|0,0:2|0:2,0:2:0:0:
270,90,173829,1,0,3:2:0:0:
270,90,174021,1,2,3:2:0:0:
90,117,174214,5,0,0:2:0:0:
55,57,174406,1,0,3:2:0:0:
110,11,174598,2,0,P|164:26|200:35,1,68.75,0|0,3:2|0:2,0:2:0:0:
232,250,174983,6,0,P|249:174|274:73,1,165.000006294251,8|2,0:1|0:2,0:2:0:0:
444,51,175560,1,2,0:2:0:0:
439,166,175752,5,0,3:2:0:0:
512,193,175944,1,0,0:2:0:0:
424,171,176137,2,0,P|354:188|327:195,1,68.75,2|0,0:3|0:2,0:2:0:0:
235,364,176521,5,8,0:2:0:0:
187,310,176714,1,0,3:2:0:0:
187,310,176906,1,2,3:2:0:0:
115,330,177098,2,0,P|49:332|31:269,1,137.5,2|0,0:3|0:2,0:2:0:0:
0,205,177675,2,0,P|61:189|82:183,1,68.75,0|0,3:2|0:2,0:2:0:0:
249,261,178060,6,0,P|237:178|226:102,1,123.750004720688,8|0,0:1|0:2,0:2:0:0:
221,127,178444,2,0,P|229:86|234:54,1,68.75,2|0,0:3|0:2,0:2:0:0:
355,358,178829,6,0,P|424:370|475:238,1,206.25,0|0,3:2|3:2,0:2:0:0:
249,261,179598,2,0,P|302:273|328:278,1,68.75,10|0,0:2|0:2,0:2:0:0:
484,163,179983,1,0,3:2:0:0:
484,163,180175,2,0,P|489:103|504:12,1,137.5,2|0,3:2|0:2,0:2:0:0:
392,25,180752,2,0,P|401:68|408:106,1,68.75,0|0,3:2|0:2,0:2:0:0:
285,176,181137,6,0,P|216:168|125:153,1,123.750004720688,8|0,0:1|0:2,0:2:0:0:
150,172,181521,2,0,P|101:171|76:174,1,68.75,2|2,0:3|0:2,0:2:0:0:
235,369,181906,6,0,P|230:327|227:298,2,68.75,2|0|2,3:2|0:2|0:3,0:2:0:0:
159,338,182483,1,0,0:2:0:0:
469,304,182675,5,8,0:2:0:0:
392,293,182867,1,0,3:2:0:0:
315,282,183060,1,2,3:2:0:0:
303,106,183252,6,0,B|409:125|336:179|450:197,1,171.875,2|0,3:2|0:2,0:2:0:0:
451,209,183829,2,0,P|493:203|513:178,1,68.75,0|0,3:2|0:2,0:2:0:0:
249,22,184214,6,0,P|224:76|219:158,1,123.750004720688,8|0,0:1|0:2,0:2:0:0:
222,153,184598,2,0,P|232:188|232:203,1,34.375,2|0,0:3|0:2,0:2:0:0:
366,44,184791,1,8,0:2:0:0:
156,190,184983,6,0,P|105:199|67:209,1,68.75,4|0,3:2|0:2,0:2:0:0:
27,163,185367,1,2,0:2:0:0:
27,163,185560,1,2,3:2:0:0:
174,271,185752,6,0,P|184:305|192:356,1,68.75,8|0,0:2|0:2,0:2:0:0:
137,384,186137,1,2,3:2:0:0:
257,254,186329,6,0,P|308:263|410:286,1,137.5,2|0,3:2|0:2,0:2:0:0:
464,309,186906,1,2,3:2:0:0:
464,309,187098,1,2,0:2:0:0:
512,68,187291,6,0,P|461:58|425:125,1,123.750004720688,8|0,0:1|0:2,0:2:0:0:
430,127,187675,2,0,P|447:163|453:185,1,34.375,2|0,0:3|0:2,0:2:0:0:
393,206,187867,1,2,0:2:0:0:
256,76,188060,5,0,3:2:0:0:
256,76,188444,5,2,0:2:0:0:
189,97,188637,1,2,3:2:0:0:
255,237,188829,2,0,P|271:165|276:145,1,68.75,8|0,0:2|3:2,0:2:0:0:
131,55,189214,5,2,3:2:0:0:
110,120,189406,2,0,P|33:102|-33:94,1,137.5,2|0,0:3|0:2,0:2:0:0:
138,45,189983,5,2,3:2:0:0:
189,169,190175,1,2,3:2:0:0:
88,367,190367,6,0,P|78:288|64:210,1,123.750004720688,8|0,0:1|0:2,0:2:0:0:
80,221,190752,2,0,P|44:209|6:202,1,68.75,2|2,0:3|0:2,0:2:0:0:
211,332,191137,6,0,P|266:317|305:309,1,68.75,0|0,3:2|0:2,0:2:0:0:
346,350,191521,1,2,0:2:0:0:
512,264,191714,5,2,0:2:0:0:
444,222,191906,2,0,P|436:284|435:304,1,68.75,8|0,0:2|0:2,0:2:0:0:
480,347,192291,1,0,3:2:0:0:
504,169,192483,6,0,P|438:184|355:200,1,137.5,2|0,3:3|0:2,0:2:0:0:
303,160,193060,1,2,3:2:0:0:
303,160,193252,1,2,0:2:0:0:
14,83,193444,6,0,L|66:98,1,41.2500015735627,8|0,0:1|0:2,0:2:0:0:
126,71,193637,5,8,0:3:0:0:
230,178,193829,1,4,0:3:0:0:
303,160,194021,1,4,0:3:0:0:
356,208,194214,2,0,L|398:199,2,41.25,2|0|0,0:3|0:2|0:2,0:2:0:0:
158,367,195752,6,0,P|176:328|176:310,1,55,2|0,0:2|0:2,0:2:0:0:
43,274,196329,2,0,P|25:313|25:331,1,55,2|0,0:2|0:2,0:2:0:0:
103,325,196906,1,2,0:2:0:0:
103,325,197098,1,2,0:2:0:0:
376,334,197291,6,0,B|236:321|313:241|158:235,1,220,4|0,3:2|0:2,0:2:0:0:
117,227,197867,1,0,3:2:0:0:
363,249,198060,2,0,P|379:198|383:153,1,71.4999967269899,8|0,0:2|0:2,0:2:0:0:
361,107,198444,1,2,3:2:0:0:
393,45,198637,1,2,3:2:0:0:
192,98,198829,5,2,0:3:0:0:
240,152,199021,1,0,0:2:0:0:
263,84,199214,2,0,P|247:33|243:-12,1,71.4999967269899,0|0,3:2|0:2,0:2:0:0:
475,214,199598,6,0,P|376:202|299:194,1,165.000006294251,8|2,0:1|0:2,0:2:0:0:
249,235,200175,1,2,0:2:0:0:
171,354,200367,6,0,P|45:338|26:228,1,214.49999018097,2|0,3:3|0:2,0:2:0:0:
147,141,201137,1,8,0:2:0:0:
23,185,201329,1,0,3:2:0:0:
23,185,201521,2,0,P|107:207|145:219,1,71.4999967269899,0|0,3:2|0:2,0:2:0:0:
362,61,201906,6,0,P|304:76|231:90,1,110,2|0,0:3|0:2,0:2:0:0:
195,49,202194,6,0,P|153:45|113:36,1,82.5000031471254,2|0,0:2|0:2,0:2:0:0:
54,0,202483,5,2,0:2:0:0:
255,9,202675,1,8,0:1:0:0:
194,122,202867,2,0,P|183:161|178:202,1,82.5000031471254,2|0,0:2|0:2,0:2:0:0:
195,49,203252,1,2,0:2:0:0:
272,310,203444,6,0,P|356:344|489:352,1,214.49999018097,2|0,3:3|3:2,0:2:0:0:
226,374,204214,1,8,0:2:0:0:
226,374,204598,5,2,3:2:0:0:
162,336,204791,1,2,3:2:0:0:
272,310,204983,2,0,P|281:262|290:219,1,71.4999967269899,2|0,0:3|0:2,0:2:0:0:
160,69,205367,2,0,P|167:104|183:200,1,107.249995090485,0|0,3:2|0:2,0:2:0:0:
183,189,205752,6,0,P|145:226|36:229,1,165.000006294251,8|2,0:1|0:2,0:2:0:0:
10,163,206329,1,2,0:2:0:0:
209,274,206521,5,2,3:3:0:0:
262,224,206714,1,2,0:2:0:0:
329,260,206906,2,0,P|392:272|433:281,1,82.5000031471254,2|0,0:2|0:2,0:2:0:0:
497,53,207291,5,8,0:2:0:0:
414,28,207483,1,0,3:2:0:0:
414,28,207675,2,0,P|426:104|432:136,1,82.5000031471254,0|0,3:2|0:2,0:2:0:0:
183,189,208060,5,2,0:3:0:0:
109,220,208252,2,0,P|99:258|72:353,1,110,2|0,0:2|3:2,0:2:0:0:
18,367,208637,1,2,0:2:0:0:
0,164,208829,2,0,P|68:154|138:136,1,123.750004720688,8|0,0:1|0:2,0:2:0:0:
138,128,209214,1,2,0:2:0:0:
19,244,209406,1,0,0:2:0:0:
191,13,209598,6,0,B|315:36|225:124|374:137,1,220,4|0,3:2|0:2,0:2:0:0:
432,110,210175,1,0,3:2:0:0:
219,167,210367,2,0,P|212:214|206:260,1,71.4999967269899,8|0,0:2|0:2,0:2:0:0:
389,370,210752,1,2,3:2:0:0:
389,370,210944,2,0,P|365:320|278:313,1,142.99999345398,2|0,3:2|0:2,0:2:0:0:
219,349,211521,2,0,P|176:368|135:363,1,71.4999967269899,0|0,3:2|0:2,0:2:0:0:
425,232,211906,6,0,P|353:220|273:205,1,123.750004720688,8|0,0:1|0:2,0:2:0:0:
282,220,212291,1,2,0:2:0:0:
208,237,212483,1,2,0:2:0:0:
12,37,212675,6,0,P|68:27|153:147,1,214.49999018097,2|0,3:3|0:2,0:2:0:0:
256,40,213444,1,8,0:2:0:0:
101,204,213637,5,0,3:2:0:0:
101,204,213829,2,0,P|110:247|118:295,1,71.4999967269899,0|2,3:2|0:2,0:2:0:0:
278,363,214214,6,0,P|283:322|295:290,1,71.4999967269899,2|0,0:3|0:2,0:2:0:0:
342,243,214502,6,0,P|379:256|411:261,1,71.4999967269899,2|0,0:2|0:2,0:2:0:0:
473,231,214791,5,2,0:2:0:0:
219,282,214983,1,8,0:1:0:0:
269,227,215175,2,0,P|264:186|252:154,1,71.4999967269899,2|0,0:2|0:2,0:2:0:0:
213,101,215560,1,2,0:2:0:0:
511,58,215752,5,2,3:3:0:0:
452,102,215944,1,2,0:2:0:0:
397,56,216137,1,2,0:2:0:0:
332,148,216329,5,0,3:2:0:0:
142,72,216521,2,8,P|150:20|157:-22,1,71.4999967269899,8|0,0:2|0:2,0:2:0:0:
403,196,216906,5,2,3:2:0:0:
403,196,217098,2,0,P|356:174|288:246,1,142.99999345398,2|0,3:2|0:2,0:2:0:0:
249,290,217675,2,0,P|260:348|262:381,1,71.4999967269899,0|0,3:2|0:2,0:2:0:0:
19,167,218060,6,0,B|91:178|46:223|157:231,1,123.750004720688,8|0,0:1|0:2,0:2:0:0:
130,237,218444,2,0,P|180:228|201:205,1,71.4999967269899,2|0,0:3|0:2,0:2:0:0:
283,55,218829,5,0,3:2:0:0:
235,1,219021,1,2,0:2:0:0:
213,70,219214,1,2,0:2:0:0:
213,70,219406,1,2,0:3:0:0:
141,160,219598,5,8,0:2:0:0:
357,45,219791,1,0,3:2:0:0:
357,45,219983,2,0,P|391:54|426:62,1,71.4999967269899,0|0,3:2|0:2,0:2:0:0:
512,127,220367,2,0,P|453:141|386:157,1,107.249995090485,2|0,3:3|0:2,0:2:0:0:
388,160,220752,6,0,P|375:224|366:268,1,96.2500009179115,8|0,3:3|0:2,0:2:0:0:
142,260,221137,1,8,0:1:0:0:
392,335,221329,2,0,P|351:335|317:358,1,82.5000031471254,4|2,0:3|0:2,0:2:0:0:
247,337,221810,5,2,0:2:0:0:
247,266,221906,2,0,B|354:275|296:337|428:337,1,165,4|0,3:2|0:2,0:2:0:0:
409,335,222291,2,0,P|451:310|460:272,1,71.4999967269899,2|0,0:3|3:2,0:2:0:0:
210,136,222675,2,0,P|197:195|195:224,1,71.4999967269899,8|0,0:2|0:2,0:2:0:0:
23,349,223060,5,0,3:2:0:0:
23,349,223252,2,0,P|64:366|128:302,1,142.99999345398,2|0,3:3|0:2,0:2:0:0:
114,227,223829,2,0,P|66:217|35:208,1,71.4999967269899,0|0,3:2|0:2,0:2:0:0:
188,60,224214,2,0,P|144:69|50:88,1,123.750004720688,8|0,0:1|0:2,0:2:0:0:
56,70,224598,1,2,0:3:0:0:
210,136,224791,1,2,0:2:0:0:
270,83,224983,6,0,P|323:78|359:75,1,71.4999967269899,0|0,0:2|0:2,0:2:0:0:
491,144,225367,2,0,P|496:91|460:70,1,71.4999967269899,2|0,0:3|0:2,0:2:0:0:
373,2,225752,1,8,0:2:0:0:
435,193,225944,5,0,3:2:0:0:
435,193,226137,1,2,3:2:0:0:
501,224,226329,2,0,P|492:282|402:302,1,142.99999345398,2|0,0:3|0:2,0:2:0:0:
386,383,226906,2,0,P|354:352|318:341,1,71.4999967269899,0|0,3:2|0:2,0:2:0:0:
12,273,227291,2,0,P|21:331|111:351,1,123.750004720688,8|0,0:1|0:2,0:2:0:0:
83,349,227675,2,0,P|115:318|151:307,1,71.4999967269899,2|0,0:3|0:2,0:2:0:0:
233,0,228060,6,0,P|213:111|204:184,1,165,0|0,3:2|0:2,0:2:0:0:
190,170,228444,2,0,P|196:222|197:252,1,71.4999967269899,2|0,0:3|3:2,0:2:0:0:
374,93,228829,2,0,P|326:82|275:71,1,71.4999967269899,10|0,0:2|0:2,0:2:0:0:
113,215,229214,1,0,3:2:0:0:
113,215,229406,2,0,P|61:217|36:130,1,142.99999345398,2|0,3:3|0:2,0:2:0:0:
0,64,229983,2,0,P|48:75|99:86,1,71.4999967269899,0|0,3:2|0:2,0:2:0:0:
242,281,230367,6,0,P|230:203|220:147,1,123.750004720688,8|0,0:1|0:2,0:2:0:0:
208,149,230752,2,0,P|214:111|221:71,1,71.4999967269899,2|0,0:3|0:2,0:2:0:0:
341,202,231137,6,0,B|427:212|379:268|480:282,1,142.99999345398,0|2,3:2|0:3,0:2:0:0:
512,231,231714,1,0,0:2:0:0:
280,321,231906,1,8,0:2:0:0:
454,175,232098,5,0,3:2:0:0:
454,175,232291,1,2,3:2:0:0:
341,279,232483,2,0,P|264:295|178:315,1,142.99999345398,2|0,0:3|0:2,0:2:0:0:
148,362,233060,2,0,P|110:364|80:316,1,71.4999967269899,0|0,3:2|0:2,0:2:0:0:
284,205,233444,6,0,P|294:146|310:63,1,123.750004720688,8|0,0:1|0:2,0:2:0:0:
301,63,233829,1,4,0:3:0:0:
224,115,234021,1,4,0:3:0:0:
291,214,234214,6,0,B|409:204|309:157|482:142,1,165,4|0,3:2|0:2,0:2:0:0:
452,159,234598,1,2,0:3:0:0:
508,114,234791,1,2,3:2:0:0:
375,286,234983,6,0,P|364:342|361:385,1,71.4999967269899,8|0,0:2|0:2,0:2:0:0:
440,368,235367,1,2,3:2:0:0:
289,235,235560,6,0,P|236:248|137:263,1,142.99999345398,2|0,3:3|0:2,0:2:0:0:
92,213,236137,1,2,3:2:0:0:
92,213,236329,1,2,3:2:0:0:
104,0,236521,6,0,P|171:37|156:136,1,165.000006294251,8|2,0:1|0:3,0:0:0:0:
171,117,237098,1,0,0:2:0:0:
262,39,237291,6,0,P|306:30|361:22,1,71.4999967269899,0|0,3:2|0:2,0:2:0:0:
491,77,237675,1,2,0:3:0:0:
436,120,237867,1,2,0:2:0:0:
276,135,238060,5,8,0:2:0:0:
322,192,238252,1,0,3:2:0:0:
322,192,238444,1,2,3:2:0:0:
258,237,238637,2,0,P|247:280|227:379,1,142.99999345398,2|0,0:3|0:2,0:2:0:0:
387,313,239214,5,2,3:2:0:0:
317,336,239406,1,2,3:2:0:0:
183,201,239598,2,0,P|104:199|71:262,1,123.750004720688,8|0,0:1|0:2,0:2:0:0:
56,233,239983,2,0,P|66:268|69:293,1,55,2|2,0:3|0:2,0:2:0:0:
330,260,240367,6,0,P|339:189|346:161,1,71.4999967269899,0|0,3:2|0:2,0:2:0:0:
390,136,240752,1,2,0:3:0:0:
390,136,240944,1,2,0:2:0:0:
270,21,241137,6,0,P|217:31|191:34,1,71.4999967269899,8|0,0:2|0:2,0:2:0:0:
342,51,241521,1,2,3:2:0:0:
122,0,241714,6,0,B|87:78|166:64|137:157,1,142.99999345398,2|0,3:3|0:2,0:2:0:0:
199,33,242291,1,2,3:2:0:0:
70,120,242483,1,2,0:2:0:0:
249,192,242675,5,8,0:2:0:0:
182,298,242867,1,8,0:3:0:0:
97,253,243060,1,4,0:3:0:0:
31,285,243252,2,0,P|25:312|17:347,1,55,8|0,0:2|0:2,0:2:0:0:
280,274,243829,5,2,0:2:0:0:
280,274,244021,2,0,L|337:262,1,55,2|0,0:2|0:2,0:2:0:0:
399,302,244598,1,2,0:2:0:0:
399,302,244790,2,0,L|456:290,1,55,2|0,0:2|0:2,0:2:0:0:
421,114,245367,5,2,0:2:0:0:
421,114,245560,2,0,P|411:157|397:226,1,110,2|0,0:2|0:2,0:2:0:0:
334,349,246137,5,2,0:2:0:0:
334,349,246329,2,0,L|332:339,1,11,2|0,0:2|0:2,0:2:0:0:
