osu file format v14

[General]
AudioFilename: audio.mp3
AudioLeadIn: 0
PreviewTime: 63321
Countdown: 0
SampleSet: Soft
StackLeniency: 0.7
Mode: 0
LetterboxInBreaks: 0
WidescreenStoryboard: 1

[Editor]
DistanceSpacing: 0.5
BeatDivisor: 4
GridSize: 32
TimelineZoom: 2.3

[Metadata]
Title:&Z (TV Size)
TitleUnicode:&Z (TV Size)
Artist:SawanoHiroyuki[nZk]:mizuki
ArtistUnicode:SawanoHiroyuki[nZk]:mizuki
Creator:Yereoz
Version:Sotarks' Inherit the Stars
Source:アルドノア・ゼロ
Tags:EnuHQ Sotarks AsuKow Aldnoah zero Aldnoah.Zero season 2 opening sawano hiroyuki pop jpop j-pop japanese op anime
BeatmapID:3305919
BeatmapSetID:1602500

[Difficulty]
HPDrainRate:5.1
CircleSize:4.4
OverallDifficulty:8.2
ApproachRate:9
SliderMultiplier:1.82
SliderTickRate:1

[Events]
//Background and Video events
0,0,"bg.jpg",0,0
Video,0,"Aldnoah zero 2 OP.avi"
//Break Periods
//Storyboard Layer 0 (Background)
//Storyboard Layer 1 (Fail)
//Storyboard Layer 2 (Pass)
//Storyboard Layer 3 (Foreground)
//Storyboard Layer 4 (Overlay)
//Storyboard Sound Samples

[TimingPoints]
3605,379.746835443038,4,2,17,55,1,0
3605,-98.0392156862745,4,2,17,55,0,0
9681,-98.0392156862745,4,2,17,60,0,0
15757,-121.951219512195,4,2,17,55,0,0
27909,-108.695652173913,4,2,17,55,0,0
40061,-121.951219512195,4,2,17,50,0,0
63605,-98.0392156862745,4,2,17,50,0,0
64080,-98.0392156862745,4,2,17,5,0,0
64175,-81.9672131147541,4,2,17,50,0,0
64270,-81.9672131147541,4,2,17,5,0,0
64365,-89.2857142857143,4,2,17,75,0,0

[Colours]
Combo1 : 157,223,255
Combo2 : 190,205,224
Combo3 : 243,211,147

[HitObjects]
131,68,3605,5,14,0:2:0:0:
172,303,3795,1,8,0:2:0:0:
131,68,3985,1,2,1:2:0:0:
205,223,4175,2,0,P|142:228|93:245,1,92.8200005665283,2|8,1:2|0:2,0:0:0:0:
324,78,4555,1,0,1:2:0:0:
276,332,4745,1,2,1:2:0:0:
265,144,4935,6,0,P|309:155|356:157,2,92.8200005665283,10|0|0,0:2|1:2|1:2,0:2:0:0:
453,118,5504,2,0,P|453:164|467:208,1,92.8200005665283,10|0,0:2|1:2,0:2:0:0:
169,189,5884,2,0,P|168:142|154:98,1,92.8200005665283,8|0,0:2|1:2,0:2:0:0:
312,156,6264,1,0,0:2:0:0:
312,156,6454,1,0,1:2:0:0:
236,325,6643,5,10,0:2:0:0:
467,208,6833,1,8,0:2:0:0:
310,47,7023,1,2,1:2:0:0:
169,189,7213,1,2,1:2:0:0:
312,156,7403,1,8,0:2:0:0:
194,78,7593,1,0,1:2:0:0:
305,268,7783,1,2,1:2:0:0:
194,78,7973,6,0,P|138:78|89:97,2,92.8200005665283,10|0|0,0:2|1:2|1:2,0:2:0:0:
26,168,8542,2,0,P|16:110|-10:64,1,92.8200005665283,10|0,0:2|1:2,0:2:0:0:
279,11,8922,2,0,P|289:69|315:115,1,92.8200005665283,8|0,0:2|1:2,0:2:0:0:
153,91,9302,1,0,0:2:0:0:
153,91,9492,1,0,1:2:0:0:
323,283,9681,5,14,0:2:0:0:
392,48,9871,1,8,0:2:0:0:
323,283,10061,1,2,1:2:0:0:
512,187,10251,2,0,P|452:196|403:205,1,92.8200005665283,2|8,1:2|0:2,0:2:0:0:
129,247,10631,1,0,1:2:0:0:
277,69,10821,1,2,1:2:0:0:
323,283,11011,6,0,P|334:342|341:408,2,92.8200005665283,10|0|0,0:2|1:2|1:2,0:2:0:0:
169,109,11580,2,0,P|109:87|68:97,1,92.8200005665283,10|0,0:2|1:2,0:2:0:0:
323,283,11960,2,0,P|383:305|424:295,1,92.8200005665283,8|0,0:2|1:2,0:2:0:0:
252,194,12340,1,0,0:2:0:0:
252,194,12530,1,0,1:2:0:0:
129,247,12719,5,10,0:2:0:0:
365,145,12909,1,8,0:2:0:0:
213,0,13099,1,2,1:2:0:0:
111,120,13289,1,2,1:2:0:0:
257,281,13479,2,0,P|266:225|246:186,1,92.8200005665283,8|0,0:2|1:2,0:0:0:0:
129,247,13859,1,2,1:2:0:0:
374,212,14049,6,0,P|442:205|491:206,2,92.8200005665283,10|0|0,0:2|1:2|1:2,0:2:0:0:
427,77,14618,1,10,0:2:0:0:
427,337,14808,1,0,1:2:0:0:
271,155,14998,1,8,0:2:0:0:
308,296,15188,1,0,1:2:0:0:
145,185,15378,1,0,0:2:0:0:
125,257,15568,1,0,1:2:0:0:
7,113,15757,5,4,1:2:0:0:
264,367,16137,1,0,1:2:0:0:
361,52,16517,1,8,0:2:0:0:
293,120,16707,1,0,1:2:0:0:
361,52,16897,2,0,P|386:97|378:137,1,74.6200011386109,0|0,1:2|0:2,0:0:0:0:
308,290,17276,6,0,P|261:281|222:282,1,74.6200011386109,2|0,1:2|0:2,0:2:0:0:
247,194,17656,2,0,P|294:203|333:202,1,74.6200011386109,2|0,1:2|0:2,0:2:0:0:
131,227,18036,1,10,0:2:0:0:
117,146,18226,1,0,0:2:0:0:
103,65,18416,1,2,1:2:0:0:
131,227,18605,1,2,0:2:0:0:
292,50,18795,5,0,1:2:0:0:
3,183,19175,1,0,1:2:0:0:
308,373,19555,1,8,0:2:0:0:
301,286,19745,1,0,1:2:0:0:
308,373,19935,2,0,P|263:369|236:342,1,74.6200011386109,0|0,1:2|0:2,0:0:0:0:
307,122,20314,6,0,P|314:173|324:219,1,74.6200011386109,2|0,1:2|0:2,0:2:0:0:
239,207,20599,1,0,0:2:0:0:
239,207,20694,2,0,P|232:156|222:110,1,74.6200011386109,2|0,1:2|0:0,0:2:0:0:
394,146,21074,2,0,P|435:147|475:133,1,74.6200011386109,10|0,0:2|0:2,0:0:0:0:
154,185,21454,2,0,P|113:184|73:198,1,74.6200011386109,2|0,1:2|0:0,0:2:0:0:
345,345,21833,5,0,1:2:0:0:
271,25,22213,1,0,1:2:0:0:
345,345,22593,1,8,0:2:0:0:
442,295,22783,1,0,1:2:0:0:
345,345,22973,2,0,P|302:355|265:342,1,74.6200011386109,0|0,1:2|0:2,0:0:0:0:
81,193,23352,6,0,P|91:251|99:324,1,111.930001707916,2|0,1:2|0:0,0:2:0:0:
98,331,23732,2,0,P|134:339|169:328,1,74.6200011386109,2|0,1:2|0:0,0:2:0:0:
326,168,24112,1,10,0:2:0:0:
133,253,24302,1,0,0:2:0:0:
305,368,24492,1,2,1:2:0:0:
255,258,24681,1,0,0:2:0:0:
305,368,24871,2,0,P|375:374|447:329,2,149.240002277222,2|0|10,1:2|1:2|0:2,0:2:0:0:
170,213,25821,1,0,1:2:0:0:
265,184,26011,2,0,P|258:230|252:279,1,74.6200011386109,0|0,1:2|0:2,0:2:0:0:
51,349,26390,6,0,P|17:306|56:201,1,149.240002277222,2|0,1:2|1:2,0:2:0:0:
197,72,26960,1,2,0:2:0:0:
75,88,27150,2,0,P|29:93|-7:103,1,74.6200011386109,10|0,0:2|0:2,0:2:0:0:
170,213,27530,1,0,1:2:0:0:
170,213,27909,6,0,B|262:195|240:265|354:237,1,167.439994379151,6|0,1:2|1:2,0:2:0:0:
330,241,28479,1,0,0:2:0:0:
455,110,28669,1,8,0:2:0:0:
427,318,28859,1,4,1:3:0:0:
456,115,29049,1,0,1:2:0:0:
309,160,29238,1,0,0:2:0:0:
355,50,29428,5,2,1:2:0:0:
335,256,29618,1,0,1:2:0:0:
327,297,29712,1,0,1:2:0:0:
328,338,29808,1,2,1:2:0:0:
219,252,29998,1,8,0:3:0:0:
427,318,30188,1,10,0:2:0:0:
309,160,30378,1,4,0:3:0:0:
100,243,30568,1,2,1:2:0:0:
216,331,30757,5,2,1:2:0:0:
216,331,30852,1,0,1:0:0:0:
216,331,30947,2,0,P|228:281|204:232,1,83.7199971895753,0|0,1:2|0:2,0:2:0:0:
105,67,31327,2,0,P|160:106|229:87,1,125.579995784363,0|0,1:2|0:0,0:0:0:0:
232,88,31707,1,8,0:2:0:0:
35,157,31897,1,0,1:2:0:0:
280,26,32086,2,0,P|307:67|305:112,1,83.7199971895753,0|0,1:2|0:2,0:0:0:0:
187,268,32466,5,2,1:2:0:0:
331,188,32656,1,0,1:2:0:0:
291,175,32750,1,0,1:2:0:0:
249,175,32845,1,2,1:2:0:0:
364,297,33036,1,8,0:3:0:0:
308,100,33226,1,10,0:2:0:0:
187,268,33416,1,4,0:3:0:0:
170,100,33605,2,0,P|161:38|148:-2,1,83.7199971895753,2|0,1:2|0:0,0:2:0:0:
24,229,33985,5,0,1:2:0:0:
24,229,34365,2,0,P|73:238|113:263,1,83.7199971895753,2|0,1:2|0:2,0:2:0:0:
170,100,34745,2,0,P|144:132|109:155,1,83.7199971895753,10|0,0:2|0:2,0:2:0:0:
222,298,35124,2,0,P|206:259|204:217,1,83.7199971895753,2|0,1:2|0:2,0:2:0:0:
360,82,35504,5,2,1:2:0:0:
280,134,35694,1,4,0:3:0:0:
366,179,35884,1,2,1:2:0:0:
291,24,36074,1,4,0:3:0:0:
336,271,36264,2,0,P|384:253|423:252,1,83.7199971895753,10|0,0:2|0:2,0:2:0:0:
291,24,36643,2,12,P|243:42|204:43,1,83.7199971895753,14|12,1:3|1:3,0:3:0:0:
126,12,36928,1,0,1:0:0:0:
126,12,37023,6,0,P|120:65|129:103,1,83.7199971895753,2|0,1:2|0:2,0:2:0:0:
8,109,37403,2,0,P|13:55|4:17,1,83.7199971895753,2|0,1:2|0:2,0:2:0:0:
171,253,37783,1,10,0:2:0:0:
53,192,37973,1,0,1:2:0:0:
171,253,38162,2,0,P|228:257|264:234,1,83.7199971895753,2|0,1:2|0:2,0:2:0:0:
432,142,38542,5,0,1:2:0:0:
412,299,38732,1,12,0:3:0:0:
437,138,38922,1,0,1:2:0:0:
405,305,39112,1,12,0:3:0:0:
252,98,39302,1,10,0:2:0:0:
512,204,39492,1,4,0:3:0:0:
461,30,39681,1,2,1:2:0:0:
311,174,39871,5,0,1:0:0:0:
311,174,39966,1,0,1:2:0:0:
311,174,40061,2,0,P|238:144|154:161,1,149.240002277222,4|0,1:2|1:2,1:2:0:0:
29,274,40631,1,0,3:2:0:0:
104,328,40821,2,0,P|107:293|114:238,1,74.6200011386109,0|0,1:2|0:2,0:2:0:0:
191,40,41200,1,0,1:2:0:0:
63,57,41390,1,0,3:2:0:0:
191,40,41580,2,0,P|251:35|321:23,1,111.930001707916,0|0,1:2|0:2,0:2:0:0:
330,19,41960,6,0,P|345:59|332:101,1,74.6200011386109,2|0,1:2|0:2,0:2:0:0:
189,181,42340,2,0,P|212:151|246:138,1,74.6200011386109,2|0,1:2|0:2,0:2:0:0:
406,223,42719,2,0,P|369:219|340:196,1,74.6200011386109,2|0,1:2|0:0,0:2:0:0:
338,89,43099,5,0,1:2:0:0:
184,272,43479,1,2,1:2:0:0:
272,233,43669,1,0,3:2:0:0:
189,181,43859,1,2,1:2:0:0:
444,379,44238,1,2,1:2:0:0:
369,304,44428,1,0,3:2:0:0:
436,236,44618,5,0,1:2:0:0:
184,272,44998,2,0,P|131:278|98:288,1,74.6200011386109,0|0,1:2|0:2,0:0:0:0:
91,188,45378,2,0,P|144:182|177:172,1,74.6200011386109,0|0,1:2|0:2,0:2:0:0:
106,104,45757,1,2,1:2:0:0:
161,352,45947,1,4,0:3:0:0:
335,180,46137,6,0,P|383:177|423:198,1,74.6200011386109,0|0,1:2|0:2,0:2:0:0:
383,91,46517,1,2,1:2:0:0:
365,274,46707,1,0,3:2:0:0:
187,193,46897,1,0,1:2:0:0:
262,95,47086,1,0,0:2:0:0:
161,295,47276,1,2,1:2:0:0:
335,180,47466,1,0,3:2:0:0:
132,53,47656,5,0,1:2:0:0:
187,193,47846,1,0,0:2:0:0:
72,159,48036,2,0,P|23:176|-12:178,1,74.6200011386109,2|0,1:2|0:2,0:2:0:0:
262,95,48416,2,0,P|311:78|346:76,1,74.6200011386109,0|0,1:2|0:2,0:0:0:0:
187,193,48795,1,2,1:2:0:0:
187,193,48985,1,0,1:2:0:0:
324,272,49175,6,0,P|370:289|420:278,1,74.6200011386109,0|0,1:2|0:2,0:0:0:0:
376,199,49555,1,0,1:2:0:0:
338,367,49745,1,0,3:2:0:0:
183,274,49935,1,0,1:2:0:0:
261,189,50124,1,0,0:2:0:0:
163,369,50314,1,0,1:2:0:0:
324,272,50504,1,0,3:2:0:0:
161,149,50694,5,0,1:2:0:0:
236,48,50884,1,0,0:2:0:0:
161,149,51074,2,0,P|120:167|84:162,1,74.6200011386109,0|0,1:2|0:2,0:2:0:0:
324,272,51454,1,0,1:2:0:0:
261,189,51643,1,8,0:3:0:0:
158,314,51833,1,0,1:2:0:0:
383,384,52023,1,4,0:3:0:0:
347,110,52213,5,0,1:2:0:0:
347,110,52593,1,2,1:2:0:0:
283,280,52783,1,4,0:3:0:0:
432,202,52973,1,10,0:2:0:0:
246,113,53162,1,2,0:2:0:0:
374,301,53352,1,2,1:2:0:0:
207,384,53542,1,0,0:2:0:0:
374,301,53732,6,0,P|421:301|476:318,1,74.6200011386109,2|0,1:2|0:0,0:2:0:0:
139,291,54112,2,0,P|92:291|37:274,1,74.6200011386109,2|0,1:2|0:0,0:2:0:0:
246,113,54492,2,0,P|249:155|257:200,1,74.6200011386109,10|0,0:2|0:0,0:2:0:0:
164,194,54871,2,0,P|160:151|153:107,1,74.6200011386109,8|0,1:3|0:2,0:0:0:0:
379,10,55251,5,0,1:2:0:0:
379,10,55631,1,2,1:2:0:0:
260,47,55821,1,4,0:3:0:0:
427,208,56011,1,10,0:2:0:0:
235,156,56200,1,2,0:0:0:0:
363,315,56390,1,2,1:2:0:0:
243,360,56580,1,0,0:2:0:0:
363,315,56770,6,0,P|367:268|340:227,1,74.6200011386109,2|0,1:2|0:0,0:2:0:0:
117,117,57150,2,0,P|110:178|102:241,1,111.930001707916,2|0,1:2|0:2,0:2:0:0:
97,253,57530,2,0,P|144:266|176:248,1,74.6200011386109,10|0,0:2|0:0,0:2:0:0:
278,103,57909,1,0,1:2:0:0:
278,103,58099,1,0,1:2:0:0:
248,309,58289,6,0,P|242:363|246:400,1,74.6200011386109,2|0,1:2|0:0,0:2:0:0:
291,199,58669,1,0,1:2:0:0:
202,231,58859,1,2,0:2:0:0:
267,74,59049,2,0,P|273:20|269:-17,1,74.6200011386109,10|0,0:2|0:0,0:2:0:0:
147,63,59428,1,0,1:2:0:0:
386,130,59618,1,2,0:2:0:0:
202,231,59808,6,0,P|155:246|116:237,1,74.6200011386109,2|0,1:2|0:0,0:2:0:0:
5,177,60188,1,0,1:2:0:0:
54,308,60378,1,2,0:2:0:0:
314,141,60568,2,0,P|361:126|400:135,1,74.6200011386109,10|0,0:2|0:0,0:2:0:0:
456,214,60947,1,0,1:2:0:0:
505,83,61137,1,0,0:0:0:0:
296,242,61327,5,2,1:2:0:0:
445,361,61517,1,8,0:3:0:0:
385,129,61707,1,0,1:2:0:0:
445,361,61897,1,4,0:3:0:0:
179,252,62086,1,8,0:2:0:0:
385,129,62276,1,8,0:3:0:0:
236,30,62466,1,0,1:2:0:0:
329,366,62656,1,8,0:2:0:0:
323,372,63605,6,0,B|358:331|334:249|334:249|358:331|286:363,1,232.050001416321,10|0,0:2|0:0,0:2:0:0:
202,299,64175,6,0,P|225:284|253:283,1,55.5099977130586,8|0,1:3|0:0,0:0:0:0:
449,317,64365,5,14,0:2:0:0:
252,199,64555,1,0,1:2:0:0:
402,58,64745,1,0,1:2:0:0:
306,16,64935,2,0,P|297:71|329:121,1,101.920001244141,8|0,0:2|0:2,0:2:0:0:
296,301,65314,1,2,1:2:0:0:
253,283,65409,1,0,1:0:0:0:
208,283,65503,1,10,0:2:0:0:
403,158,65694,1,2,1:2:0:0:
136,196,65884,6,0,P|77:201|22:220,1,101.920001244141,8|0,0:2|1:2,0:2:0:0:
72,73,66264,1,0,1:2:0:0:
253,283,66454,2,0,B|368:254|333:353|478:303,1,203.840002488281,10|2,0:2|1:2,0:2:0:0:
439,72,67023,2,0,L|374:81,1,50.9600006220703,10|0,0:2|0:0,0:0:0:0:
343,192,67213,2,0,L|292:185,1,50.9600006220703,10|0,0:2|0:0,0:0:0:0:
141,64,67403,5,12,0:2:0:0:
188,234,67593,1,0,1:2:0:0:
141,64,67783,1,0,1:2:0:0:
0,247,67973,1,12,0:2:0:0:
69,0,68162,1,0,1:2:0:0:
0,247,68351,1,0,1:2:0:0:
274,101,68542,1,12,0:2:0:0:
97,158,68732,1,0,1:2:0:0:
262,349,68922,6,0,P|282:289|269:248,1,101.920001244141,2|8,1:2|0:2,0:2:0:0:
97,158,69302,2,0,P|77:218|90:259,1,101.920001244141,2|0,1:2|1:2,0:2:0:0:
333,34,69681,1,10,0:2:0:0:
152,73,69871,1,2,1:2:0:0:
333,34,70061,2,0,P|401:45|446:44,1,101.920001244141,10|0,0:2|1:2,0:0:0:0:
473,147,70346,1,0,1:0:0:0:
473,147,70441,6,0,P|386:123|253:125,1,203.840002488281,14|0,0:2|1:2,0:2:0:0:
0,203,71011,1,10,0:2:0:0:
52,312,71200,2,0,B|109:273|169:259|169:259|197:296|261:309,1,203.840002488281,2|8,1:2|0:2,0:2:0:0:
331,159,71770,1,2,1:2:0:0:
247,120,71960,6,0,P|238:179|273:228,1,101.920001244141,10|0,0:2|1:2,0:2:0:0:
421,349,72340,1,0,1:2:0:0:
452,114,72530,1,10,0:2:0:0:
421,349,72719,2,0,P|357:349|305:364,1,101.920001244141,2|0,1:2|1:2,0:2:0:0:
63,180,73099,1,8,0:2:0:0:
239,312,73289,5,10,0:2:0:0:
239,261,73384,1,8,0:0:0:0:
257,214,73478,1,14,0:2:0:0:
106,302,73669,1,0,1:2:0:0:
371,249,73859,1,0,1:2:0:0:
168,144,74049,1,12,0:2:0:0:
472,308,74238,1,0,1:2:0:0:
414,114,74428,1,0,1:2:0:0:
257,214,74618,1,12,0:2:0:0:
336,353,74808,1,0,1:2:0:0:
264,115,74998,5,0,1:2:0:0:
371,249,75188,1,8,0:2:0:0:
280,11,75378,2,0,P|224:29|169:26,1,101.920001244141,2|0,1:2|1:2,0:0:0:0:
415,146,75757,1,10,0:2:0:0:
181,28,75947,1,8,0:2:0:0:
161,74,76041,1,8,0:2:0:0:
166,125,76136,1,10,0:2:0:0:
190,168,76231,1,8,0:2:0:0:
215,212,76327,1,8,0:2:0:0:
218,262,76422,1,8,0:2:0:0:
200,309,76517,6,0,P|136:319|91:286,1,101.920001244141,6|0,1:2|0:2,0:2:0:0:
331,175,76897,2,0,P|384:268|357:371,1,203.840002488281,8|0,0:2|0:2,0:0:0:0:
190,168,77466,1,0,1:2:0:0:
371,96,77656,1,2,1:2:0:0:
279,4,77846,6,0,P|250:51|265:111,1,101.920001244141,10|0,0:2|0:2,0:2:0:0:
416,288,78226,1,0,1:2:0:0:
196,317,78416,2,0,P|127:323|77:338,1,101.920001244141,8|0,0:2|0:2,0:2:0:0:
226,184,78795,1,2,1:2:0:0:
125,111,78985,1,0,1:2:0:0:
103,157,79079,1,0,1:0:0:0:
103,207,79174,1,2,1:2:0:0:
0,43,79365,1,8,0:2:0:0:
226,184,79555,6,0,P|289:189|333:161,1,101.920001244141,6|0,1:2|0:0,0:2:0:0:
449,10,79935,1,8,0:2:0:0:
416,235,80124,2,0,P|408:302|411:348,1,101.920001244141,0|0,0:0|0:2,0:0:0:0:
260,90,80504,1,2,1:2:0:0:
325,287,80694,1,10,0:2:0:0:
143,312,80884,6,0,P|81:318|26:338,1,101.920001244141,2|0,0:2|0:2,0:2:0:0:
78,206,81264,1,0,1:2:0:0:
224,376,81454,2,0,B|205:281|280:291|251:159,1,203.840002488281,8|0,0:2|0:2,0:2:0:0:
141,22,82023,1,0,1:2:0:0:
188,39,82117,1,0,1:0:0:0:
239,39,82212,1,8,0:2:0:0:
352,161,82403,1,2,1:2:0:0:
301,161,82498,1,0,1:0:0:0:
254,179,82593,6,0,P|190:214|51:193,1,203.840002488281,6|8,1:2|0:2,0:2:0:0:
307,351,83162,1,2,0:2:0:0:
227,288,83352,2,0,P|201:338|212:385,1,101.920001244141,2|0,1:2|0:0,0:2:0:0:
415,200,83732,1,0,1:2:0:0:
323,242,83922,1,10,0:2:0:0:
430,332,84112,6,0,P|437:244|455:98,1,203.840002488281,2|8,1:2|0:2,0:2:0:0:
241,16,84681,1,2,0:2:0:0:
365,152,84871,2,0,B|315:116|246:105|246:105|218:152|164:159,1,203.840002488281,2|0,1:2|0:2,0:2:0:0:
2,54,85441,2,0,L|15:128,1,50.9600006220703,10|0,0:2|0:0,0:0:0:0:
52,304,85631,5,6,1:2:0:0:
106,147,85821,1,4,0:3:0:0:
156,376,86011,1,8,0:2:0:0:
360,244,86200,1,2,0:2:0:0:
245,129,86390,1,0,0:0:0:0:
378,358,86580,1,8,1:3:0:0:
195,245,86770,1,10,0:2:0:0:
431,123,86960,1,0,0:0:0:0:
295,0,87150,5,0,0:0:0:0:
360,244,87340,1,8,1:3:0:0:
375,292,87434,1,0,1:0:0:0:
378,343,87529,1,8,0:2:0:0:
431,123,87719,1,4,1:3:0:0:
176,225,87909,1,8,0:2:0:0:
126,234,88003,1,8,0:2:0:0:
81,213,88098,1,8,0:2:0:0:
56,169,88193,1,8,0:2:0:0:
60,119,88288,1,12,0:2:0:0:
245,129,88479,2,0,P|180:135|130:155,1,101.920001244141,14|0,0:2|0:0,0:0:0:0:
