osu file format v14

[General]
AudioFilename: audio.mp3
AudioLeadIn: 0
PreviewTime: 63321
Countdown: 0
SampleSet: Soft
StackLeniency: 0.7
Mode: 0
LetterboxInBreaks: 0
WidescreenStoryboard: 1

[Editor]
DistanceSpacing: 0.8
BeatDivisor: 4
GridSize: 32
TimelineZoom: 2.3

[Metadata]
Title:&Z (TV Size)
TitleUnicode:&Z (TV Size)
Artist:SawanoHiroyuki[nZk]:mizuki
ArtistUnicode:SawanoHiroyuki[nZk]:mizuki
Creator:Yereoz
Version:Insane
Source:アルドノア・ゼロ
Tags:EnuHQ Sotarks AsuKow Aldnoah zero Aldnoah.Zero season 2 opening sawano hiroyuki pop jpop j-pop japanese op anime
BeatmapID:3277906
BeatmapSetID:1602500

[Difficulty]
HPDrainRate:5.1
CircleSize:3.8
OverallDifficulty:8
ApproachRate:8.8
SliderMultiplier:1.67
SliderTickRate:1

[Events]
//Background and Video events
0,0,"bg.jpg",0,0
Video,0,"Aldnoah zero 2 OP.avi"
//Break Periods
//Storyboard Layer 0 (Background)
//Storyboard Layer 1 (Fail)
//Storyboard Layer 2 (Pass)
//Storyboard Layer 3 (Foreground)
//Storyboard Layer 4 (Overlay)
//Storyboard Sound Samples

[TimingPoints]
3605,379.746835443038,4,2,17,55,1,0
3605,-114.942528735633,4,2,17,55,0,0
9681,-103.092783505155,4,2,17,60,0,0
15757,-149.253731343284,4,2,17,55,0,0
20979,-149.253731343284,4,2,17,5,0,0
21074,-149.253731343284,4,2,17,55,0,0
21738,-149.253731343284,4,2,17,5,0,0
21833,-149.253731343284,4,2,17,55,0,0
24017,-149.253731343284,4,2,17,5,0,0
24112,-149.253731343284,4,2,17,55,0,0
27909,-129.87012987013,4,2,17,55,0,0
33890,-129.87012987013,4,2,17,55,0,0
33985,-129.87012987013,4,2,17,55,0,0
39681,-175.438596491228,4,2,17,55,0,0
39966,-175.438596491228,4,2,17,5,0,0
40061,-114.942528735632,4,2,17,50,0,0
41865,-114.942528735632,4,2,17,5,0,0
41960,-114.942528735632,4,2,17,50,0,0
43004,-114.942528735632,4,2,17,5,0,0
43099,-114.942528735632,4,2,17,50,0,0
52973,-149.253731343284,4,2,17,50,0,0
54017,-149.253731343284,4,2,17,5,0,0
54112,-149.253731343284,4,2,17,50,0,0
54397,-149.253731343284,4,2,17,5,0,0
54492,-149.253731343284,4,2,17,50,0,0
55536,-149.253731343284,4,2,17,5,0,0
55631,-149.253731343284,4,2,17,50,0,0
57055,-149.253731343284,4,2,17,5,0,0
57150,-149.253731343284,4,2,17,50,0,0
57435,-149.253731343284,4,2,17,5,0,0
57530,-149.253731343284,4,2,17,50,0,0
58289,-129.87012987013,4,2,17,50,0,0
63605,-85.4700854700855,4,2,17,50,0,0
63890,-85.4700854700855,4,2,17,5,0,0
63985,-85.4700854700855,4,2,17,50,0,0
64080,-85.4700854700855,4,2,17,5,0,0
64175,-85.4700854700855,4,2,17,50,0,0
64270,-85.4700854700855,4,2,17,5,0,0
64365,-93.4579439252337,4,2,17,75,0,0
86485,-93.4579439252337,4,2,17,5,0,0
86580,-93.4579439252337,4,2,17,75,0,0
86770,-114.942528735632,4,2,17,75,0,0

[Colours]
Combo1 : 157,223,255
Combo2 : 190,205,224
Combo3 : 243,211,147

[HitObjects]
4,46,3605,5,14,0:2:0:0:
86,211,3795,1,10,0:2:0:0:
243,63,3985,1,2,1:2:0:0:
123,13,4175,1,0,1:2:0:0:
196,197,4365,2,0,P|241:198|286:205,1,72.6450006096611,8|0,0:2|1:2,0:0:0:0:
431,310,4745,1,2,1:2:0:0:
327,319,4935,2,0,P|335:279|346:240,1,72.6450006096611,10|0,0:2|1:2,0:2:0:0:
448,109,5314,5,0,1:2:0:0:
296,98,5504,2,0,P|251:104|205:106,1,72.6450006096611,10|0,0:2|1:2,0:2:0:0:
210,276,5884,2,0,P|254:269|300:267,1,72.6450006096611,8|0,0:2|1:2,0:2:0:0:
251,183,6264,1,0,0:2:0:0:
251,183,6454,1,0,1:2:0:0:
214,357,6643,1,10,0:2:0:0:
39,279,6833,1,8,0:2:0:0:
129,161,7023,1,2,1:2:0:0:
290,266,7213,6,0,P|334:273|380:275,1,72.6450006096611,2|8,1:2|0:2,0:0:0:0:
503,242,7593,1,0,1:2:0:0:
381,384,7783,1,2,1:2:0:0:
348,197,7973,2,0,P|350:156|361:117,1,72.6450006096611,10|0,0:2|1:2,0:2:0:0:
223,261,8352,5,0,1:2:0:0:
170,173,8542,2,0,P|210:175|250:182,1,72.6450006096611,10|0,0:2|1:2,0:2:0:0:
276,20,8922,2,0,P|235:17|195:10,1,72.6450006096611,8|0,0:2|1:2,0:2:0:0:
361,117,9302,1,0,0:2:0:0:
361,117,9492,1,0,1:2:0:0:
213,105,9681,5,14,0:2:0:0:
107,29,9871,2,0,P|63:17|18:16,1,80.9950019156228,8|2,0:2|1:2,0:0:0:0:
0,204,10251,2,0,P|46:204|95:219,1,80.9950019156228,2|8,1:2|0:2,0:2:0:0:
213,105,10631,1,0,1:2:0:0:
102,122,10821,1,2,1:2:0:0:
306,60,11011,2,0,P|303:113|312:160,1,80.9950019156228,10|0,0:2|1:2,0:2:0:0:
393,260,11390,5,0,1:2:0:0:
262,317,11579,2,0,P|218:330|176:346,1,80.9950019156228,10|0,0:2|1:2,0:2:0:0:
393,260,11959,2,0,P|436:246|478:230,1,80.9950019156228,8|0,0:2|1:2,0:2:0:0:
302,216,12340,1,0,0:2:0:0:
302,216,12530,1,0,1:2:0:0:
492,153,12719,1,10,0:2:0:0:
253,78,12909,1,8,0:2:0:0:
470,21,13099,1,2,1:2:0:0:
393,260,13289,6,0,P|390:219|395:167,1,80.9950019156228,2|8,1:2|0:2,0:0:0:0:
287,8,13669,1,0,1:2:0:0:
443,78,13859,1,2,1:2:0:0:
264,166,14049,2,0,P|216:169|169:158,1,80.9950019156228,10|0,0:2|1:2,0:2:0:0:
226,84,14428,5,0,1:2:0:0:
259,245,14618,2,0,P|253:295|254:348,1,80.9950019156228,10|0,0:2|1:2,0:0:0:0:
172,321,14997,2,0,P|178:271|177:218,1,80.9950019156228,8|0,0:2|1:2,0:0:0:0:
327,297,15378,1,0,0:2:0:0:
102,283,15568,1,0,1:2:0:0:
179,160,15757,5,4,1:2:0:0:
64,17,16137,1,0,1:2:0:0:
316,101,16517,1,8,0:2:0:0:
223,144,16707,1,0,1:2:0:0:
308,16,16897,2,0,P|338:24|383:33,1,55.944997353676,0|0,1:2|0:2,0:0:0:0:
223,144,17276,6,0,P|230:107|235:71,1,55.944997353676,2|0,1:2|0:2,0:2:0:0:
357,194,17656,2,0,P|347:222|308:245,1,55.944997353676,2|0,1:2|0:2,0:2:0:0:
230,284,18036,2,0,P|197:275|161:269,2,55.944997353676,10|0|2,0:2|0:2|1:2,0:0:0:0:
35,311,18605,1,2,0:2:0:0:
103,383,18795,5,0,1:2:0:0:
275,223,19175,1,0,1:2:0:0:
17,132,19555,1,8,0:2:0:0:
73,201,19745,1,0,1:2:0:0:
129,271,19935,2,0,P|163:281|202:299,1,55.944997353676,0|0,1:2|0:2,0:0:0:0:
335,224,20314,6,0,P|331:259|325:306,1,55.944997353676,2|0,1:2|0:2,0:2:0:0:
407,315,20598,1,0,0:2:0:0:
407,315,20694,2,0,P|411:271|420:211,1,83.917496030514,2|0,1:2|0:0,0:2:0:0:
431,185,21074,1,10,0:2:0:0:
512,101,21264,1,0,0:2:0:0:
344,32,21454,2,0,P|299:47|253:57,1,83.917496030514,2|0,1:2|0:0,0:2:0:0:
232,55,21833,5,0,1:2:0:0:
432,112,22213,1,0,1:2:0:0:
204,228,22593,1,8,0:2:0:0:
276,155,22783,1,0,1:2:0:0:
112,178,22973,2,0,P|122:212|130:251,1,55.944997353676,0|0,1:2|0:2,0:0:0:0:
111,329,23352,6,0,P|76:323|40:324,1,55.944997353676,2|0,1:2|0:0,0:2:0:0:
220,350,23732,2,0,P|272:359|326:357,1,83.917496030514,2|0,1:2|0:0,0:2:0:0:
338,342,24112,1,10,0:2:0:0:
417,241,24302,1,0,0:2:0:0:
306,175,24492,1,2,1:2:0:0:
287,269,24681,1,0,0:2:0:0:
425,137,24871,6,0,P|430:69|442:9,2,111.889994707352,2|0|10,1:2|1:2|0:2,0:2:0:0:
512,82,25821,1,0,1:2:0:0:
348,58,26011,2,0,P|316:57|285:52,1,55.944997353676,0|0,1:2|0:2,0:2:0:0:
145,7,26389,2,0,P|103:57|111:120,1,111.889994707352,2|0,1:2|1:2,0:2:0:0:
77,206,26960,2,0,P|101:206|131:210,1,27.972498676838,2|0,0:2|0:0,0:0:0:0:
178,266,27150,2,0,P|208:258|239:253,1,55.944997353676,10|0,0:2|0:2,0:2:0:0:
261,263,27435,1,0,0:0:0:0:
261,263,27530,1,0,1:2:0:0:
333,105,27909,6,0,P|322:160|320:188,1,64.294998724617,6|0,1:2|0:0,0:2:0:0:
321,168,28289,1,0,1:2:0:0:
242,96,28479,2,0,P|231:151|229:179,1,64.294998724617,0|8,0:2|0:2,0:0:0:0:
296,348,28859,1,4,1:3:0:0:
189,238,29049,1,0,1:2:0:0:
388,277,29238,1,0,1:2:0:0:
388,277,29333,1,0,1:2:0:0:
388,277,29428,6,0,P|392:241|400:206,1,64.294998724617,2|0,1:2|1:2,0:0:0:0:
306,184,29713,1,0,1:2:0:0:
306,184,29808,2,0,P|301:219|293:254,1,64.294998724617,2|8,1:2|0:3,0:0:0:0:
253,101,30188,1,10,0:2:0:0:
389,54,30378,1,4,0:3:0:0:
242,105,30568,1,2,1:2:0:0:
159,16,30757,1,2,1:2:0:0:
255,183,30947,6,0,P|250:218|242:253,1,64.294998724617,0|0,1:2|0:2,0:2:0:0:
243,246,31327,1,0,1:2:0:0:
159,130,31517,2,0,P|154:165|146:200,1,64.294998724617,0|8,0:0|0:2,0:0:0:0:
105,350,31897,1,0,1:2:0:0:
190,288,32086,1,0,1:2:0:0:
17,207,32276,1,0,0:2:0:0:
42,283,32466,6,0,P|47:248|55:213,1,64.294998724617,2|0,1:2|1:2,0:0:0:0:
80,99,32751,1,0,1:2:0:0:
80,99,32846,2,0,P|125:97|161:103,1,64.294998724617,2|8,1:2|0:3,0:0:0:0:
323,168,33226,1,10,0:2:0:0:
281,82,33416,1,4,0:3:0:0:
206,210,33605,2,0,P|195:259|216:321,1,96.4424980869256,2|0,1:2|0:0,0:2:0:0:
289,368,33985,6,0,P|335:371|377:350,1,64.294998724617,0|0,1:2|0:0,0:0:0:0:
442,202,34365,2,0,P|425:163|417:123,1,64.294998724617,2|0,1:2|0:2,0:2:0:0:
311,269,34745,2,0,P|353:273|391:286,1,64.294998724617,10|0,0:2|0:2,0:2:0:0:
318,122,35124,2,0,P|292:156|262:183,1,64.294998724617,2|0,1:2|0:2,0:2:0:0:
151,102,35504,6,0,P|154:51|159:12,1,64.294998724617,2|4,1:2|0:3,0:0:0:0:
141,207,35884,2,0,P|138:258|132:298,1,64.294998724617,2|4,1:2|0:3,0:0:0:0:
61,91,36264,2,0,P|64:40|71:0,1,64.294998724617,10|0,0:2|0:2,0:2:0:0:
51,196,36642,2,12,P|48:247|41:289,1,64.294998724617,14|12,1:3|1:3,0:3:0:0:
225,127,37023,6,0,P|266:134|316:134,1,64.294998724617,2|0,1:2|0:2,0:2:0:0:
273,313,37403,2,0,P|232:306|181:306,1,64.294998724617,2|0,1:2|0:2,0:2:0:0:
367,192,37783,1,10,0:2:0:0:
278,219,37973,1,0,1:2:0:0:
470,138,38162,2,0,P|462:189|461:230,1,64.294998724617,2|0,1:2|0:2,0:2:0:0:
312,54,38542,6,0,P|320:105|321:147,1,64.294998724617,0|12,1:2|0:3,0:0:0:0:
371,196,38922,1,0,1:2:0:0:
371,196,39302,1,10,0:2:0:0:
210,81,39681,2,0,P|161:79|122:75,1,71.3924991285095,2|0,1:2|1:2,0:0:0:0:
81,182,40061,6,0,P|163:184|246:192,1,145.290001219322,4|0,1:2|1:2,1:2:0:0:
435,256,40631,1,0,3:2:0:0:
371,196,40821,2,0,P|378:248|380:285,1,72.6450006096611,0|0,1:2|0:2,0:2:0:0:
285,116,41200,1,0,1:2:0:0:
381,28,41390,1,0,3:2:0:0:
285,116,41580,6,0,P|236:140|162:111,1,108.967500914492,0|0,1:2|0:2,0:2:0:0:
173,47,41960,2,0,P|219:44|270:31,1,72.6450006096611,2|0,1:2|0:2,0:2:0:0:
116,186,42340,2,0,P|90:147|53:109,1,72.6450006096611,2|0,1:2|0:2,0:2:0:0:
272,162,42719,2,0,P|240:223|221:293,1,108.967500914492,2|0,1:2|0:0,0:2:0:0:
226,345,43099,6,0,P|271:359|323:336,1,72.6450006096611,0|0,1:2|0:0,0:0:0:0:
401,271,43479,2,0,P|446:281|501:281,1,72.6450006096611,2|0,1:2|3:2,0:0:0:0:
310,246,43859,2,0,P|265:236|210:236,1,72.6450006096611,2|0,1:2|0:0,0:0:0:0:
387,180,44238,2,0,P|399:139|409:93,2,72.6450006096611,2|0|0,1:2|3:2|1:2,0:0:0:0:
193,172,44998,5,0,1:2:0:0:
306,354,45378,1,0,1:2:0:0:
144,90,45757,1,2,1:2:0:0:
306,138,45947,1,4,0:3:0:0:
144,90,46137,6,0,P|99:79|52:72,1,72.6450006096611,0|0,1:2|0:2,0:2:0:0:
306,138,46517,2,0,P|351:149|398:156,1,72.6450006096611,2|0,1:2|3:2,0:0:0:0:
243,282,46897,2,0,P|230:237|212:193,1,72.6450006096611,0|0,1:2|0:2,0:0:0:0:
411,272,47276,2,0,P|378:305|349:342,1,72.6450006096611,2|0,1:2|3:2,0:0:0:0:
319,234,47656,5,0,1:2:0:0:
207,75,48036,2,0,P|249:73|303:65,1,72.6450006096611,2|0,1:2|0:2,0:2:0:0:
217,204,48416,2,0,P|175:206|121:214,1,72.6450006096611,0|0,1:2|0:2,0:0:0:0:
70,40,48795,2,0,P|64:86|57:129,1,72.6450006096611,2|0,1:2|1:2,0:0:0:0:
0,238,49175,5,0,1:2:0:0:
164,294,49365,2,0,B|248:288|221:344|326:333,1,145.290001219322,0|0,0:2|3:2,0:0:0:0:
334,219,49935,2,0,P|293:224|253:226,1,72.6450006096611,0|0,1:2|0:2,0:0:0:0:
410,303,50314,1,0,1:2:0:0:
485,149,50504,1,0,3:2:0:0:
377,77,50694,6,0,P|384:122|389:173,1,72.6450006096611,0|0,1:2|0:2,0:0:0:0:
284,6,51074,2,0,P|277:51|272:102,1,72.6450006096611,0|0,1:2|0:2,0:2:0:0:
232,264,51454,1,0,1:2:0:0:
173,135,51643,1,8,0:3:0:0:
312,338,51833,1,0,1:2:0:0:
27,319,52023,1,4,0:3:0:0:
231,288,52213,5,0,1:2:0:0:
231,288,52593,1,2,1:2:0:0:
117,187,52783,1,4,0:3:0:0:
141,115,52973,2,0,P|146:150|147:189,1,55.944997353676,10|2,0:2|0:2,0:0:0:0:
114,313,53352,1,2,1:2:0:0:
29,261,53542,1,0,0:2:0:0:
141,115,53732,6,0,P|192:122|248:137,1,83.917496030514,2|0,1:2|0:0,0:2:0:0:
275,194,54112,2,0,P|314:167|310:118,1,83.917496030514,2|0,1:2|0:0,0:2:0:0:
262,45,54492,2,0,P|199:36|130:17,1,111.889994707352,10|8,0:2|1:3,0:2:0:0:
42,119,55061,1,0,0:2:0:0:
108,220,55251,6,0,P|101:271|95:327,1,83.917496030514,0|0,1:2|0:0,0:0:0:0:
98,346,55631,1,2,1:2:0:0:
207,288,55821,1,4,0:3:0:0:
25,200,56011,1,10,0:2:0:0:
135,97,56200,1,2,0:0:0:0:
205,169,56390,2,0,P|248:171|286:161,1,55.944997353676,2|0,1:2|0:2,0:0:0:0:
436,122,56770,6,0,P|415:79|368:75,1,83.917496030514,2|0,1:2|0:0,0:2:0:0:
362,160,57150,2,0,P|375:218|375:266,1,83.917496030514,2|0,1:2|0:2,0:2:0:0:
333,364,57530,2,0,P|272:360|233:313,1,111.889994707352,10|0,0:2|1:2,0:2:0:0:
298,275,58099,1,0,1:2:0:0:
138,350,58289,6,0,P|149:276|166:194,1,128.589997449234,2|0,1:2|1:2,0:2:0:0:
159,223,58858,1,2,0:2:0:0:
43,360,59049,2,0,P|54:286|71:209,1,128.589997449234,10|0,0:2|1:2,0:2:0:0:
64,233,59618,1,2,0:2:0:0:
43,73,59808,2,0,P|106:43|181:69,1,128.589997449234,2|0,1:2|1:2,0:2:0:0:
161,54,60378,1,2,0:2:0:0:
347,98,60568,2,0,B|351:80|355:62|355:62|327:11|255:32,1,128.589997449234,10|0,0:2|1:2,0:2:0:0:
277,27,61327,5,2,1:2:0:0:
231,94,61517,1,8,0:3:0:0:
376,194,61707,1,0,1:2:0:0:
326,123,61897,1,4,0:3:0:0:
177,273,62086,1,8,0:2:0:0:
122,199,62276,1,8,0:3:0:0:
239,358,62466,1,0,1:2:0:0:
80,136,62656,1,8,0:2:0:0:
106,147,63605,6,0,P|179:174|273:172,1,146.542500559015,10|0,0:2|0:0,0:2:0:0:
335,168,63985,2,0,P|325:206|312:239,1,48.8475001863384,2|0,0:2|0:0,0:0:0:0:
334,68,64175,2,0,P|296:57|261:52,1,48.8475001863384,8|0,1:3|0:0,0:0:0:0:
98,45,64365,6,0,P|49:56|-1:55,1,89.3449972734071,14|0,0:2|1:2,0:0:0:0:
70,278,64745,1,0,1:2:0:0:
106,147,64935,2,0,P|56:145|7:157,1,89.3449972734071,8|0,0:2|0:2,0:2:0:0:
193,69,65314,1,2,1:2:0:0:
249,313,65504,1,10,0:2:0:0:
202,183,65694,1,2,1:2:0:0:
383,132,65884,6,0,P|432:130|481:142,1,89.3449972734071,8|0,0:2|1:2,0:2:0:0:
308,42,66264,1,0,1:2:0:0:
375,213,66454,2,0,P|424:211|473:223,1,89.3449972734071,10|0,0:2|0:0,0:2:0:0:
383,371,66833,1,2,1:2:0:0:
221,243,67023,1,10,0:2:0:0:
383,132,67213,1,10,0:2:0:0:
333,291,67403,5,12,0:2:0:0:
144,196,67593,1,0,1:2:0:0:
317,78,67783,1,0,1:2:0:0:
224,2,67973,2,0,P|217:65|208:106,1,89.3449972734071,12|0,0:2|1:2,0:0:0:0:
57,208,68352,1,0,1:2:0:0:
139,0,68542,2,0,P|132:63|123:104,1,89.3449972734071,12|0,0:2|1:2,0:0:0:0:
283,111,68922,6,0,P|333:111|381:125,1,89.3449972734071,2|8,1:2|0:2,0:2:0:0:
325,283,69302,2,0,P|277:269|227:268,1,89.3449972734071,2|0,1:2|1:2,0:2:0:0:
467,131,69681,1,10,0:2:0:0:
300,193,69871,1,2,1:2:0:0:
405,370,70061,1,10,0:2:0:0:
510,253,70251,1,0,1:2:0:0:
274,358,70441,6,0,P|224:357|176:343,1,89.3449972734071,14|0,0:2|1:2,0:2:0:0:
23,260,70821,1,0,1:2:0:0:
54,381,71011,1,10,0:2:0:0:
227,268,71200,2,0,P|234:205|243:164,1,89.3449972734071,2|0,1:2|1:2,0:2:0:0:
339,277,71580,1,8,0:2:0:0:
125,241,71770,1,2,1:2:0:0:
339,277,71960,6,0,P|388:277|436:291,1,89.3449972734071,10|0,0:2|1:2,0:2:0:0:
282,69,72340,1,0,1:2:0:0:
443,163,72530,1,10,0:2:0:0:
241,169,72719,2,0,P|191:168|143:154,1,89.3449972734071,2|0,1:2|1:2,0:2:0:0:
282,69,73099,1,8,0:2:0:0:
162,238,73289,5,10,0:2:0:0:
326,304,73479,1,14,0:2:0:0:
188,80,73669,1,0,1:2:0:0:
339,11,73859,1,0,1:2:0:0:
333,204,74049,2,0,P|327:257|326:311,1,89.3449972734071,12|0,0:2|1:2,0:0:0:0:
447,248,74428,1,0,1:2:0:0:
197,220,74618,1,12,0:2:0:0:
447,248,74808,1,0,1:2:0:0:
219,374,74998,5,0,1:2:0:0:
480,328,75188,1,8,0:2:0:0:
181,296,75378,1,2,1:2:0:0:
420,377,75568,1,0,1:2:0:0:
291,320,75757,1,10,0:2:0:0:
439,150,75947,1,8,0:2:0:0:
439,150,76042,1,8,0:2:0:0:
439,150,76137,2,0,P|420:177|407:201,1,44.6724986367035,10|8,0:2|0:2,0:0:0:0:
342,265,76326,2,0,P|323:238|310:214,1,44.6724986367035,8|8,0:2|0:2,0:0:0:0:
172,80,76517,6,0,P|110:86|83:116,1,89.3449972734071,6|0,1:2|0:2,0:2:0:0:
15,252,76897,1,8,0:2:0:0:
189,302,77086,2,0,P|240:306|306:269,1,89.3449972734071,0|0,0:0|0:2,0:0:0:0:
223,222,77466,1,0,1:2:0:0:
254,382,77656,1,2,1:2:0:0:
261,144,77846,6,0,P|210:140|144:177,1,89.3449972734071,10|0,0:2|0:2,0:2:0:0:
347,209,78226,1,0,1:2:0:0:
253,58,78416,2,0,P|203:53|157:71,1,89.3449972734071,8|0,0:2|0:2,0:2:0:0:
35,149,78795,2,0,P|46:94|41:43,1,89.3449972734071,2|0,1:2|1:2,0:0:0:0:
15,252,79175,2,0,P|4:307|9:358,1,89.3449972734071,2|8,1:2|0:2,0:0:0:0:
145,236,79555,6,0,B|269:207|215:295|351:267,2,178.689994546814,6|8|0,1:2|0:2|0:2,0:2:0:0:
145,236,80504,1,2,1:2:0:0:
257,376,80694,1,10,0:2:0:0:
331,190,80884,2,0,P|342:141|344:91,1,89.3449972734071,2|0,0:2|0:2,0:2:0:0:
260,157,81264,1,0,1:2:0:0:
443,216,81454,2,0,P|454:167|456:117,1,89.3449972734071,8|0,0:2|0:0,0:2:0:0:
237,64,81833,2,0,P|189:79|144:101,1,89.3449972734071,0|0,0:2|1:2,0:0:0:0:
260,157,82213,1,8,0:2:0:0:
111,26,82403,1,2,1:2:0:0:
28,159,82593,6,0,P|48:255|66:364,1,178.689994546814,6|8,1:2|0:2,0:2:0:0:
61,334,83162,1,2,0:2:0:0:
109,136,83352,2,0,P|129:232|147:341,1,178.689994546814,2|0,1:2|1:2,0:2:0:0:
142,311,83921,1,10,0:2:0:0:
209,151,84112,6,0,B|331:118|279:210|415:182,1,178.689994546814,2|8,1:2|0:2,0:2:0:0:
375,187,84681,1,2,0:2:0:0:
325,357,84871,2,0,P|335:301|338:253,1,89.3449972734071,2|0,1:2|0:0,0:2:0:0:
243,292,85251,1,0,0:2:0:0:
453,318,85441,1,10,0:2:0:0:
465,150,85631,6,0,P|428:101|304:134,1,178.689994546814,6|8,1:2|0:2,0:0:0:0:
243,292,86200,2,0,P|188:284|149:203,1,134.017495910111,2|0,0:2|0:0,0:0:0:0:
156,194,86580,1,8,1:3:0:0:
96,89,86770,6,0,B|165:49|211:96|202:101|225:156|328:108,1,217.935001828983,10|8,0:2|1:3,0:0:0:0:
466,221,87530,1,8,0:2:0:0:
403,83,87719,1,4,1:3:0:0:
353,285,87909,1,8,0:2:0:0:
329,303,88003,1,8,0:2:0:0:
299,311,88098,1,8,0:2:0:0:
269,307,88193,1,8,0:2:0:0:
243,292,88288,5,12,0:2:0:0:
271,32,88479,1,14,0:2:0:0:
