osu file format v14

[General]
AudioFilename: audio.mp3
AudioLeadIn: 0
PreviewTime: 63321
Countdown: 0
SampleSet: Soft
StackLeniency: 0.7
Mode: 0
LetterboxInBreaks: 0
WidescreenStoryboard: 1

[Editor]
DistanceSpacing: 0.5
BeatDivisor: 4
GridSize: 32
TimelineZoom: 2.3

[Metadata]
Title:&Z (TV Size)
TitleUnicode:&Z (TV Size)
Artist:SawanoHiroyuki[nZk]:mizuki
ArtistUnicode:SawanoHiroyuki[nZk]:mizuki
Creator:Yereoz
Version:Enu's Hard
Source:アルドノア・ゼロ
Tags:EnuHQ Sotarks AsuKow Aldnoah zero Aldnoah.Zero season 2 opening sawano hiroyuki pop jpop j-pop japanese op anime
BeatmapID:3300928
BeatmapSetID:1602500

[Difficulty]
HPDrainRate:4.2
CircleSize:3.7
OverallDifficulty:6.3
ApproachRate:8
SliderMultiplier:1.55
SliderTickRate:1

[Events]
//Background and Video events
0,0,"bg.jpg",0,0
Video,0,"Aldnoah zero 2 OP.avi"
//Break Periods
//Storyboard Layer 0 (Background)
//Storyboard Layer 1 (Fail)
//Storyboard Layer 2 (Pass)
//Storyboard Layer 3 (Foreground)
//Storyboard Layer 4 (Overlay)
//Storyboard Sound Samples

[TimingPoints]
3605,379.746835443038,4,2,17,55,1,0
3605,-100,4,2,17,55,0,0
9681,-100,4,2,17,60,0,0
15757,-133.333333333333,4,2,17,55,0,0
20979,-133.333333333333,4,2,17,5,0,0
21074,-133.333333333333,4,2,17,55,0,0
21738,-133.333333333333,4,2,17,5,0,0
21833,-133.333333333333,4,2,17,55,0,0
24017,-133.333333333333,4,2,17,5,0,0
24112,-133.333333333333,4,2,17,55,0,0
27909,-117.647058823529,4,2,17,55,0,0
33890,-117.647058823529,4,2,17,55,0,0
33985,-117.647058823529,4,2,17,55,0,0
39966,-117.647058823529,4,2,17,5,0,0
40061,-133.333333333333,4,2,17,50,0,0
41865,-133.333333333333,4,2,17,5,0,0
41960,-133.333333333333,4,2,17,50,0,0
43004,-133.333333333333,4,2,17,50,0,0
43099,-133.333333333333,4,2,17,50,0,0
46137,-125,4,2,17,50,0,0
52213,-142.857142857143,4,2,17,50,0,0
52498,-142.857142857143,4,2,17,50,0,0
52593,-142.857142857143,4,2,17,50,0,0
54017,-142.857142857143,4,2,17,5,0,0
54112,-142.857142857143,4,2,17,50,0,0
54397,-142.857142857143,4,2,17,5,0,0
54492,-142.857142857143,4,2,17,50,0,0
55536,-142.857142857143,4,2,17,5,0,0
55631,-142.857142857143,4,2,17,50,0,0
57055,-142.857142857143,4,2,17,5,0,0
57150,-142.857142857143,4,2,17,50,0,0
57435,-142.857142857143,4,2,17,5,0,0
57530,-142.857142857143,4,2,17,50,0,0
63890,-142.857142857143,4,2,17,5,0,0
63985,-142.857142857143,4,2,17,50,0,0
64080,-142.857142857143,4,2,17,5,0,0
64175,-142.857142857143,4,2,17,50,0,0
64270,-142.857142857143,4,2,17,5,0,0
64365,-100,4,2,17,75,0,0
86485,-100,4,2,17,75,0,0
86580,-100,4,2,17,75,0,0

[Colours]
Combo1 : 157,223,255
Combo2 : 190,205,224
Combo3 : 243,211,147

[HitObjects]
94,0,3605,5,14,0:2:0:0:
153,74,3795,2,0,P|145:111|135:149,1,77.5,8|2,0:2|1:2,0:0:0:0:
33,123,4175,1,2,1:2:0:0:
33,123,4365,2,0,P|41:160|51:198,1,77.5,8|0,0:2|1:2,0:0:0:0:
131,241,4745,1,2,1:2:0:0:
40,348,4935,6,0,P|112:329|191:313,1,155,10|0,0:2|1:2,0:2:0:0:
275,169,5504,2,0,P|245:193|234:235,1,77.5,10|0,0:2|1:2,0:2:0:0:
324,371,5884,2,0,P|312:334|282:310,1,77.5,8|0,0:2|1:2,0:2:0:0:
349,237,6264,1,0,0:2:0:0:
349,237,6454,1,0,1:2:0:0:
420,304,6643,5,10,0:2:0:0:
512,197,6833,2,0,P|475:205|437:215,1,77.5,8|2,0:2|1:2,0:0:0:0:
297,133,7213,1,2,1:2:0:0:
297,133,7403,2,0,P|334:141|372:151,1,77.5,8|0,0:2|1:2,0:0:0:0:
263,42,7783,1,2,1:2:0:0:
216,191,7973,6,0,P|208:154|198:116,1,77.5,10|0,0:2|1:2,0:2:0:0:
275,300,8352,1,0,1:2:0:0:
275,300,8542,2,0,P|283:263|293:225,1,77.5,10|0,0:2|1:2,0:2:0:0:
178,278,8922,2,0,P|141:286|103:296,1,77.5,8|0,0:2|1:2,0:2:0:0:
32,213,9302,2,0,P|69:204|107:194,1,77.5,0|0,0:2|1:2,0:0:0:0:
49,44,9681,5,14,0:2:0:0:
49,44,9871,2,0,P|36:80|47:117,1,77.5,8|2,0:2|1:2,0:0:0:0:
154,84,10251,1,2,1:2:0:0:
154,84,10441,2,0,P|226:103|305:119,1,155,8|2,0:2|1:2,0:0:0:0:
314,22,11011,6,0,P|351:29|389:37,1,77.5,10|0,0:2|1:2,0:2:0:0:
474,73,11390,1,0,1:2:0:0:
408,211,11580,2,0,P|400:173|392:134,1,77.5,10|0,0:2|1:2,0:2:0:0:
488,263,11960,2,0,P|495:225|503:186,1,77.5,8|0,0:2|1:2,0:2:0:0:
404,304,12340,1,0,0:2:0:0:
476,363,12530,1,0,1:2:0:0:
404,304,12719,5,10,0:2:0:0:
330,365,12909,2,0,P|292:372|254:363,1,77.5,8|2,0:2|1:2,0:0:0:0:
199,277,13289,1,2,1:2:0:0:
309,196,13479,2,0,P|301:234|293:272,1,77.5,8|0,0:2|1:2,0:0:0:0:
217,175,13859,1,2,1:2:0:0:
217,175,14049,6,0,P|179:183|141:191,1,77.5,10|0,0:2|1:2,0:2:0:0:
28,91,14428,1,0,1:2:0:0:
28,91,14618,2,0,P|66:99|104:107,1,77.5,10|0,0:2|1:2,0:0:0:0:
62,269,14998,2,0,P|54:231|46:193,1,77.5,8|0,0:2|1:2,0:0:0:0:
152,296,15378,1,0,0:2:0:0:
91,377,15568,1,0,1:2:0:0:
152,296,15757,6,0,P|207:281|265:269,1,116.250004434586,4|0,1:2|1:2,0:0:0:0:
391,322,16517,2,0,P|396:349|405:383,2,58.1250022172929,8|0|0,0:2|1:2|1:2,0:0:0:0:
483,305,17086,1,0,0:2:0:0:
483,305,17276,6,0,P|477:277|468:243,1,58.1250022172929,2|0,1:2|0:2,0:2:0:0:
326,242,17656,2,0,P|353:236|387:227,1,58.1250022172929,2|0,1:2|0:2,0:2:0:0:
456,152,18036,2,0,P|415:135|372:135,1,87.1875033259393,10|0,0:2|0:0,0:0:0:0:
328,151,18416,2,0,P|321:122|315:94,1,58.1250022172929,2|2,1:2|0:2,0:0:0:0:
233,54,18795,6,0,P|268:11|330:10,2,116.250004434586,0|0|8,1:2|1:2|0:2,0:0:0:0:
152,120,19745,2,0,P|145:91|139:63,1,58.1250022172929,0|0,1:2|1:2,0:0:0:0:
63,6,20124,1,0,0:2:0:0:
63,6,20314,2,0,P|54:47|43:90,1,87.1875033259393,2|0,1:2|0:2,0:2:0:0:
17,124,20694,2,0,P|24:153|30:181,1,58.1250022172929,2|0,1:2|0:0,0:2:0:0:
102,228,21074,1,10,0:2:0:0:
28,295,21264,1,0,0:2:0:0:
28,295,21454,6,0,P|83:310|141:322,2,116.250004434586,2|0|0,1:2|1:2|1:2,0:2:0:0:
194,187,22593,2,0,P|186:158|181:130,2,58.1250022172929,8|0|0,0:2|1:2|1:2,0:0:0:0:
263,273,23162,1,0,0:2:0:0:
263,273,23352,6,0,P|278:218|290:160,1,116.250004434586,2|2,1:2|1:2,0:2:0:0:
231,47,24112,2,0,P|260:40|288:34,1,58.1250022172929,10|0,0:2|0:2,0:0:0:0:
370,0,24492,2,0,P|399:7|427:13,1,58.1250022172929,2|0,1:2|0:2,0:0:0:0:
421,177,24871,6,0,P|411:121|364:90,2,116.250004434586,2|0|10,1:2|1:2|0:2,0:2:0:0:
331,192,25821,1,0,1:2:0:0:
331,192,26011,2,0,P|338:221|344:249,1,58.1250022172929,0|0,1:2|0:2,0:2:0:0:
451,316,26390,6,0,B|386:303|404:351|340:338,1,116.250004434586,2|0,1:2|1:2,0:2:0:0:
259,266,26960,1,2,0:2:0:0:
259,266,27150,2,0,P|263:294|254:323,1,58.1250022172929,10|0,0:2|0:2,0:2:0:0:
233,358,27435,1,0,0:0:0:0:
233,358,27530,1,0,1:2:0:0:
136,247,27909,6,0,P|143:216|149:182,1,65.8750012564659,6|0,1:2|0:0,0:2:0:0:
56,177,28289,2,0,P|48:146|42:112,1,65.8750012564659,0|0,1:2|0:2,0:0:0:0:
86,25,28669,1,8,0:2:0:0:
157,96,28859,1,4,1:3:0:0:
157,96,29049,2,0,P|187:88|221:82,1,65.8750012564659,0|0,1:2|0:2,0:0:0:0:
285,19,29428,6,0,P|315:26|349:32,1,65.8750012564659,2|0,1:2|1:2,0:0:0:0:
342,170,29808,2,0,P|330:140|308:117,1,65.8750012564659,2|8,1:2|0:3,0:0:0:0:
248,193,30188,1,10,0:2:0:0:
328,259,30378,1,4,0:3:0:0:
328,259,30568,2,0,P|358:251|392:245,1,65.8750012564659,2|2,1:2|1:2,0:0:0:0:
254,329,30947,6,0,P|318:340|382:356,2,131.750002512932,0|0|8,1:2|1:2|0:2,0:2:0:0:
164,280,31897,1,0,1:2:0:0:
164,280,32087,2,0,P|156:310|150:344,1,65.8750012564659,0|0,1:2|0:2,0:0:0:0:
56,332,32466,6,0,P|62:299|69:267,1,65.8750012564659,2|0,1:2|1:2,0:0:0:0:
126,190,32846,2,0,P|71:173|49:101,1,131.750002512932,2|10,1:2|0:2,0:0:0:0:
147,34,33416,1,4,0:3:0:0:
147,34,33606,2,0,P|139:64|133:98,1,65.8750012564659,2|0,1:2|0:0,0:2:0:0:
234,219,33985,6,0,P|228:187|221:155,1,65.8750012564659,0|0,1:2|0:0,0:0:0:0:
239,56,34365,2,0,B|332:36|332:36|363:65,1,131.750002512932,2|10,1:2|0:2,0:2:0:0:
345,184,34935,1,0,0:2:0:0:
345,184,35124,2,0,P|322:160|310:130,1,65.8750012564659,2|0,1:2|0:2,0:2:0:0:
433,137,35504,6,0,P|444:72|460:8,2,131.750002512932,2|2|10,1:2|1:2|0:2,0:0:0:0:
383,215,36454,1,0,0:2:0:0:
383,215,36642,2,12,P|413:222|447:228,1,65.8750012564659,14|12,1:3|1:3,0:3:0:0:
432,320,37023,6,0,P|399:313|367:306,1,65.8750012564659,2|0,1:2|0:2,0:2:0:0:
267,219,37403,2,0,P|291:276|250:323,1,131.750002512932,2|10,1:2|0:2,0:2:0:0:
187,257,37973,1,0,1:2:0:0:
187,257,38161,2,0,P|156:264|122:270,1,65.8750012564659,2|0,1:2|0:2,0:2:0:0:
140,371,38542,6,0,P|109:363|75:357,1,65.8750012564659,0|12,1:2|0:3,0:0:0:0:
27,264,38922,2,0,P|37:214|51:163,1,98.8125018846989,0|0,1:2|0:0,0:0:0:0:
80,136,39302,2,0,P|71:101|64:67,1,65.8750012564659,10|4,0:2|0:3,0:0:0:0:
173,38,39681,2,0,P|179:70|187:102,1,65.8750012564659,2|0,1:2|1:0,0:0:0:0:
256,166,40061,5,4,1:2:0:0:
375,100,40441,1,0,1:2:0:0:
256,166,40821,1,0,1:2:0:0:
375,100,41199,1,0,1:2:0:0:
365,224,41580,5,0,1:2:0:0:
484,158,41960,1,2,1:2:0:0:
365,224,42340,1,2,1:2:0:0:
484,158,42718,1,2,1:2:0:0:
414,296,43099,6,0,P|359:283|300:271,1,116.250004434586,0|2,1:2|1:2,0:0:0:0:
166,329,43859,2,0,P|160:299|153:272,1,58.1250022172929,2|0,1:2|0:0,0:0:0:0:
65,283,44238,2,0,P|70:253|77:226,1,58.1250022172929,2|0,1:2|3:2,0:0:0:0:
165,168,44618,5,0,1:2:0:0:
46,102,44998,1,0,1:2:0:0:
165,168,45378,1,0,1:2:0:0:
46,102,45756,1,2,1:2:0:0:
160,8,46137,6,0,P|153:41|145:70,1,62,0|0,1:2|0:2,0:2:0:0:
243,50,46517,2,0,P|249:80|256:110,1,62,2|0,1:2|3:2,0:0:0:0:
352,0,46897,2,0,P|345:33|337:62,1,62,0|0,1:2|0:2,0:0:0:0:
435,42,47275,2,0,P|441:72|448:102,1,62,2|0,1:2|3:2,0:0:0:0:
365,157,47656,5,0,1:2:0:0:
484,223,48036,1,2,1:2:0:0:
365,157,48416,1,0,1:2:0:0:
397,279,48795,2,0,P|364:285|334:293,1,62,2|0,1:2|1:2,0:0:0:0:
333,382,49175,6,0,P|272:367|207:354,1,124,0|0,1:2|1:2,0:0:0:0:
134,303,49745,1,0,3:2:0:0:
134,303,49935,2,0,P|127:336|119:365,1,62,0|0,1:2|0:2,0:0:0:0:
23,343,50314,2,0,P|30:312|36:282,1,62,0|0,1:2|3:2,0:0:0:0:
110,198,50694,5,0,1:2:0:0:
0,143,51074,1,0,1:2:0:0:
110,198,51454,1,0,1:2:0:0:
0,143,51832,1,0,1:2:0:0:
76,44,52023,1,4,0:3:0:0:
76,44,52213,6,0,P|127:60|179:78,1,108.499996688843,0|2,1:2|1:2,0:0:0:0:
242,174,52783,1,4,0:3:0:0:
242,174,52973,2,0,P|248:141|256:112,1,54.2499983444214,10|2,0:2|0:2,0:0:0:0:
252,32,53352,2,0,P|285:25|314:17,1,54.2499983444214,2|0,1:2|0:2,0:0:0:0:
412,76,53732,6,0,P|361:90|342:139,2,108.499996688843,2|2|10,1:2|1:2|0:2,0:2:0:0:
435,165,54681,1,0,0:0:0:0:
435,165,54871,2,0,P|468:158|497:150,1,54.2499983444214,8|0,1:3|0:2,0:0:0:0:
401,248,55251,6,0,B|336:235|354:283|290:270,1,108.499996688843,0|2,1:2|1:2,0:0:0:0:
219,303,55821,1,4,0:3:0:0:
219,303,56011,2,0,P|225:336|233:365,1,54.2499983444214,10|2,0:2|0:0,0:0:0:0:
132,266,56390,2,0,P|127:292|120:319,1,54.2499983444214,2|0,1:2|0:2,0:0:0:0:
133,173,56770,6,0,P|72:187|7:200,2,108.499996688843,2|2|10,1:2|1:2|0:2,0:2:0:0:
45,47,57719,1,0,0:0:0:0:
45,47,57909,2,0,P|51:80|59:109,1,54.2499983444214,0|0,1:2|1:2,0:0:0:0:
141,81,58289,6,0,B|206:68|188:116|252:103,1,108.499996688843,2|0,1:2|1:2,0:2:0:0:
299,37,58859,1,2,0:2:0:0:
389,113,59049,2,0,P|337:117|314:164,1,108.499996688843,10|0,0:2|1:2,0:2:0:0:
356,270,59618,1,2,0:2:0:0:
356,270,59808,6,0,P|295:256|230:243,1,108.499996688843,2|0,1:2|1:2,0:2:0:0:
249,331,60378,1,2,0:2:0:0:
249,331,60568,2,0,P|188:345|123:358,1,108.499996688843,10|0,0:2|1:2,0:2:0:0:
30,312,61137,1,0,0:0:0:0:
30,312,61327,6,0,P|36:345|44:374,1,54.2499983444214,2|8,1:2|0:3,0:0:0:0:
121,219,61707,2,0,P|115:252|107:281,1,54.2499983444214,0|4,1:2|0:3,0:0:0:0:
23,190,62086,1,8,0:2:0:0:
114,126,62276,1,8,0:3:0:0:
23,190,62466,1,0,1:2:0:0:
114,126,62656,6,0,P|147:132|176:140,1,54.2499983444214,8|0,0:2|0:0,0:0:0:0:
385,46,63605,2,0,P|331:58|308:107,1,108.499996688843,10|0,0:2|0:0,0:2:0:0:
308,102,64175,1,8,1:3:0:0:
411,170,64365,6,0,P|449:176|486:186,1,77.5,14|0,0:2|1:2,0:0:0:0:
470,287,64745,1,0,1:2:0:0:
470,287,64935,2,0,P|431:280|394:270,1,77.5,8|0,0:2|0:2,0:2:0:0:
315,190,65314,1,2,1:2:0:0:
258,284,65504,1,10,0:2:0:0:
315,190,65694,1,2,1:2:0:0:
258,284,65884,6,0,B|181:291|181:291|168:307|168:307|92:313,1,155,8|0,0:2|1:2,0:2:0:0:
32,243,66454,2,0,P|3:268|0:305,1,77.5,10|0,0:2|0:0,0:2:0:0:
98,157,66833,1,2,1:2:0:0:
98,157,67023,2,0,P|101:194|130:219,1,77.5,10|10,0:2|0:2,0:0:0:0:
7,114,67403,5,12,0:2:0:0:
7,114,67593,1,0,1:2:0:0:
88,49,67783,1,0,1:2:0:0:
88,49,67973,2,0,P|126:55|163:65,1,77.5,12|0,0:2|1:2,0:0:0:0:
262,6,68352,1,0,1:2:0:0:
262,6,68542,2,0,P|268:44|278:81,1,77.5,12|0,0:2|1:2,0:0:0:0:
403,156,68922,6,0,P|399:118|370:93,1,77.5,2|8,1:2|0:2,0:2:0:0:
239,194,69302,2,0,P|277:200|314:210,1,77.5,2|0,1:2|1:2,0:2:0:0:
392,277,69681,1,10,0:2:0:0:
339,360,69871,1,2,1:2:0:0:
262,297,70061,1,10,0:2:0:0:
262,297,70251,1,0,1:2:0:0:
168,381,70441,6,0,P|162:343|152:306,1,77.5,14|0,0:2|0:0,0:2:0:0:
39,334,70821,1,0,1:2:0:0:
39,334,71011,2,0,P|45:296|55:259,1,77.5,10|2,0:2|1:2,0:0:0:0:
145,194,71390,1,0,0:0:0:0:
145,194,71580,1,8,0:2:0:0:
75,106,71770,1,2,1:2:0:0:
189,6,71960,6,0,P|178:43|172:81,1,77.5,10|0,0:2|1:2,0:2:0:0:
251,141,72340,1,0,1:2:0:0:
251,141,72530,1,10,0:2:0:0:
344,62,72719,2,0,P|306:51|268:45,1,77.5,2|0,1:2|1:2,0:2:0:0:
373,153,73099,1,8,0:2:0:0:
373,153,73289,1,10,0:2:0:0:
456,85,73479,6,0,P|466:122|472:160,1,77.5,14|0,0:2|1:2,0:0:0:0:
414,233,73859,1,0,1:2:0:0:
311,261,74049,1,12,0:2:0:0:
342,365,74238,1,0,1:2:0:0:
440,336,74428,1,0,1:2:0:0:
342,365,74618,2,0,P|305:355|267:349,1,77.5,12|0,0:2|1:2,0:0:0:0:
209,281,74998,6,0,P|172:291|134:297,1,77.5,0|8,1:2|0:2,0:0:0:0:
40,262,75378,1,2,1:2:0:0:
97,171,75568,1,0,1:2:0:0:
16,100,75757,1,10,0:2:0:0:
112,30,75947,1,8,0:2:0:0:
112,30,76042,1,8,0:2:0:0:
112,30,76137,2,0,L|103:67,3,38.75,10|8|8|8,0:2|0:2|0:2|0:2,0:0:0:0:
147,6,76517,6,0,P|210:16|260:30,1,116.25,6|0,1:2|0:0,0:2:0:0:
275,67,76897,2,0,P|280:105|291:142,1,77.5,8|0,0:2|0:0,0:0:0:0:
393,228,77276,2,0,P|403:190|409:152,1,77.5,0|0,0:2|1:2,0:0:0:0:
299,238,77656,1,2,1:2:0:0:
299,238,77846,6,0,P|260:243|223:254,1,77.5,10|0,0:2|0:2,0:2:0:0:
223,357,78226,1,0,1:2:0:0:
139,308,78416,2,0,P|128:270|122:232,1,77.5,8|0,0:2|0:2,0:2:0:0:
16,274,78795,1,2,1:2:0:0:
16,274,78985,2,0,P|26:236|32:198,1,77.5,0|2,1:2|1:2,0:0:0:0:
100,128,79365,1,8,0:2:0:0:
10,60,79555,6,0,P|84:40|161:30,1,155,6|8,1:2|0:2,0:2:0:0:
263,102,80124,1,0,0:0:0:0:
263,102,80314,2,0,P|225:105|200:134,1,77.5,0|2,0:2|1:2,0:0:0:0:
357,138,80694,1,10,0:2:0:0:
357,138,80884,6,0,P|351:99|340:62,1,77.5,2|0,0:2|0:2,0:2:0:0:
284,204,81264,1,0,1:2:0:0:
284,204,81454,2,0,B|183:191|226:258|128:241,1,155,8|0,0:2|0:2,0:2:0:0:
66,164,82023,1,0,1:2:0:0:
2,261,82213,1,8,0:2:0:0:
66,164,82403,1,2,1:2:0:0:
2,261,82593,6,0,P|18:317|70:336,1,116.25,6|0,1:2|0:0,0:2:0:0:
103,318,82973,2,0,P|141:323|178:334,1,77.5,8|2,0:2|0:2,0:0:0:0:
214,244,83352,1,2,1:2:0:0:
214,244,83542,2,0,P|175:238|138:227,1,77.5,0|0,0:0|1:2,0:0:0:0:
246,154,83922,1,10,0:2:0:0:
316,233,84112,6,0,P|303:302|284:384,1,155,2|8,1:2|0:2,0:2:0:0:
386,384,84681,1,2,0:2:0:0:
386,384,84871,2,0,P|402:308|417:232,1,155,2|0,1:2|0:2,0:2:0:0:
448,134,85441,1,10,0:2:0:0:
448,134,85631,6,0,P|409:140|372:151,1,77.5,6|4,1:2|0:3,0:0:0:0:
316,233,86011,1,8,0:2:0:0:
316,233,86199,2,0,P|277:227|240:216,1,77.5,2|0,0:2|0:0,0:0:0:0:
267,112,86580,1,8,1:3:0:0:
267,112,86770,2,0,P|228:118|191:129,1,77.5,10|0,0:2|0:0,0:0:0:0:
102,206,87150,5,0,0:0:0:0:
43,119,87340,1,8,1:3:0:0:
102,206,87530,2,0,P|99:245|69:274,1,77.5,8|4,0:2|1:3,0:0:0:0:
0,348,87909,1,8,0:2:0:0:
22,353,88003,1,8,0:2:0:0:
45,358,88098,1,8,0:2:0:0:
68,363,88193,1,8,0:2:0:0:
91,367,88288,1,12,0:2:0:0:
175,310,88479,1,14,0:2:0:0:
