osu file format v14

[General]
AudioFilename: audio.mp3
AudioLeadIn: 0
PreviewTime: 63543
Countdown: 0
SampleSet: Soft
StackLeniency: 0.7
Mode: 3
LetterboxInBreaks: 0
SpecialStyle: 0
WidescreenStoryboard: 0

[Editor]
DistanceSpacing: 0.8
BeatDivisor: 4
GridSize: 32
TimelineZoom: 1.4

[Metadata]
Title:&Z (TV Size)
TitleUnicode:&Z (TV Size)
Artist:SawanoHiroyuki[nZk]:mizuki
ArtistUnicode:SawanoHiroyuki[nZk]:mizuki
Creator:L A U R A
Version:Hard
Source:Aldnoah.Zero
Tags:Aldnoah.Zero opening 2nd season
BeatmapID:952599
BeatmapSetID:443017

[Difficulty]
HPDrainRate:7
CircleSize:4
OverallDifficulty:7
ApproachRate:5
SliderMultiplier:1.4
SliderTickRate:1

[Events]
//Background and Video events
0,0,"maxresdefault.jpg",0,0
//Break Periods
//Storyboard Layer 0 (Background)
//Storyboard Layer 1 (Fail)
//Storyboard Layer 2 (Pass)
//Storyboard Layer 3 (Foreground)
//Storyboard Sound Samples

[TimingPoints]
-64,379.746835443038,4,2,0,45,1,0
62689,-57.1428571428571,4,2,0,45,0,0
63558,-100,4,2,0,45,0,1
75125,-100,4,2,0,45,0,0

[HitObjects]
192,192,3543,5,0,0:0:0:0:
64,192,3543,1,0,0:0:0:0:
448,192,3543,1,0,0:0:0:0:
320,192,3733,1,0,0:0:0:0:
192,192,3923,1,0,0:0:0:0:
64,192,4113,1,0,0:0:0:0:
192,192,4303,1,0,0:0:0:0:
320,192,4303,1,0,0:0:0:0:
448,192,4303,1,0,0:0:0:0:
192,192,4492,1,0,0:0:0:0:
320,192,4682,1,0,0:0:0:0:
64,192,4872,1,0,0:0:0:0:
192,192,4872,1,0,0:0:0:0:
448,192,4872,1,0,0:0:0:0:
320,192,5062,1,0,0:0:0:0:
192,192,5252,1,0,0:0:0:0:
64,192,5442,1,0,0:0:0:0:
320,192,5442,1,0,0:0:0:0:
448,192,5442,1,0,0:0:0:0:
192,192,5632,1,0,0:0:0:0:
64,192,5822,1,0,0:0:0:0:
320,192,5822,1,0,0:0:0:0:
448,192,5822,1,0,0:0:0:0:
192,192,6011,1,0,0:0:0:0:
192,192,6201,1,0,0:0:0:0:
64,192,6391,1,0,0:0:0:0:
192,192,6486,1,0,0:0:0:0:
64,192,6581,1,0,0:0:0:0:
320,192,6581,1,0,0:0:0:0:
448,192,6581,1,0,0:0:0:0:
320,192,6771,1,0,0:0:0:0:
448,192,6771,1,0,0:0:0:0:
192,192,6771,1,0,0:0:0:0:
64,192,6961,1,0,0:0:0:0:
192,192,7151,1,0,0:0:0:0:
64,192,7341,1,0,0:0:0:0:
320,192,7341,1,0,0:0:0:0:
448,192,7341,1,0,0:0:0:0:
192,192,7530,1,0,0:0:0:0:
320,192,7720,1,0,0:0:0:0:
64,192,7910,1,0,0:0:0:0:
192,192,7910,1,0,0:0:0:0:
448,192,7910,1,0,0:0:0:0:
320,192,8100,1,0,0:0:0:0:
192,192,8290,1,0,0:0:0:0:
64,192,8480,1,0,0:0:0:0:
320,192,8480,1,0,0:0:0:0:
448,192,8480,1,0,0:0:0:0:
192,192,8670,1,0,0:0:0:0:
64,192,8860,1,0,0:0:0:0:
320,192,8860,1,0,0:0:0:0:
448,192,8860,1,0,0:0:0:0:
192,192,9049,1,0,0:0:0:0:
320,192,9239,1,0,0:0:0:0:
192,192,9429,1,0,0:0:0:0:
64,192,9619,1,0,0:0:0:0:
448,192,9619,1,0,0:0:0:0:
192,192,9619,1,0,0:0:0:0:
64,192,9809,1,0,0:0:0:0:
320,192,9809,1,0,0:0:0:0:
448,192,9809,1,0,0:0:0:0:
192,192,9999,1,0,0:0:0:0:
320,192,10189,1,0,0:0:0:0:
64,192,10379,1,0,0:0:0:0:
192,192,10379,1,0,0:0:0:0:
320,192,10379,1,0,0:0:0:0:
192,192,10568,1,0,0:0:0:0:
320,192,10758,1,0,0:0:0:0:
64,192,10948,1,0,0:0:0:0:
192,192,10948,1,0,0:0:0:0:
448,192,10948,1,0,0:0:0:0:
320,192,11138,1,0,0:0:0:0:
192,192,11328,1,0,0:0:0:0:
64,192,11518,1,0,0:0:0:0:
192,192,11518,1,0,0:0:0:0:
320,192,11518,1,0,0:0:0:0:
320,192,11708,1,0,0:0:0:0:
64,192,11898,1,0,0:0:0:0:
448,192,11898,1,0,0:0:0:0:
192,192,11898,1,0,0:0:0:0:
320,192,12087,1,0,0:0:0:0:
192,192,12277,1,0,0:0:0:0:
64,192,12467,1,0,0:0:0:0:
192,192,12657,1,0,0:0:0:0:
320,192,12657,1,0,0:0:0:0:
448,192,12657,1,0,0:0:0:0:
64,192,12847,1,0,0:0:0:0:
320,192,12847,1,0,0:0:0:0:
448,192,12847,1,0,0:0:0:0:
192,192,13037,1,0,0:0:0:0:
320,192,13227,1,0,0:0:0:0:
192,192,13417,1,0,0:0:0:0:
64,192,13417,1,0,0:0:0:0:
448,192,13417,1,0,0:0:0:0:
320,192,13606,1,0,0:0:0:0:
192,192,13796,1,0,0:0:0:0:
448,192,13986,1,0,0:0:0:0:
64,192,13986,1,0,0:0:0:0:
320,192,13986,1,0,0:0:0:0:
192,192,14176,1,0,0:0:0:0:
320,192,14366,1,0,0:0:0:0:
64,192,14556,1,0,0:0:0:0:
448,192,14556,1,0,0:0:0:0:
192,192,14556,1,0,0:0:0:0:
320,192,14746,1,0,0:0:0:0:
64,192,14936,1,0,0:0:0:0:
448,192,14936,1,0,0:0:0:0:
192,192,14936,1,0,0:0:0:0:
320,192,15125,1,0,0:0:0:0:
64,192,15315,1,0,0:0:0:0:
192,192,15505,1,0,0:0:0:0:
320,192,15600,1,0,0:0:0:0:
64,192,15695,1,0,0:0:0:0:
192,192,15695,1,0,0:0:0:0:
448,192,15695,1,0,0:0:0:0:
320,192,16075,1,0,0:0:0:0:
192,192,16454,1,0,0:0:0:0:
64,192,16454,1,0,0:0:0:0:
320,192,16454,1,0,0:0:0:0:
448,192,16644,1,0,0:0:0:0:
320,192,16834,1,0,0:0:0:0:
320,192,17214,1,0,0:0:0:0:
64,192,17594,1,0,0:0:0:0:
192,192,17784,1,0,0:0:0:0:
64,192,17973,1,0,0:0:0:0:
320,192,17973,1,0,0:0:0:0:
448,192,17973,1,0,0:0:0:0:
192,192,18353,1,0,0:0:0:0:
320,192,18733,1,0,0:0:0:0:
448,192,19113,1,0,0:0:0:0:
64,192,19492,1,0,0:0:0:0:
320,192,19492,1,0,0:0:0:0:
448,192,19492,1,0,0:0:0:0:
192,192,19682,1,0,0:0:0:0:
320,192,19872,1,0,0:0:0:0:
320,192,20252,1,0,0:0:0:0:
192,192,20632,1,0,0:0:0:0:
64,192,20822,1,0,0:0:0:0:
192,192,21011,1,0,0:0:0:0:
320,192,21011,1,0,0:0:0:0:
448,192,21011,1,0,0:0:0:0:
320,192,21391,1,0,0:0:0:0:
320,192,21771,1,0,0:0:0:0:
192,192,22151,1,0,0:0:0:0:
64,192,22530,1,0,0:0:0:0:
320,192,22530,1,0,0:0:0:0:
448,192,22530,1,0,0:0:0:0:
192,192,22720,1,0,0:0:0:0:
320,192,22910,1,0,0:0:0:0:
320,192,23290,1,0,0:0:0:0:
64,192,23670,1,0,0:0:0:0:
192,192,24049,1,0,0:0:0:0:
320,192,24049,1,0,0:0:0:0:
448,192,24049,1,0,0:0:0:0:
320,192,24429,1,0,0:0:0:0:
192,192,24809,1,0,0:0:0:0:
192,192,25189,1,0,0:0:0:0:
64,192,25568,1,0,0:0:0:0:
320,192,25568,1,0,0:0:0:0:
448,192,25568,1,0,0:0:0:0:
192,192,25758,1,0,0:0:0:0:
320,192,25948,1,0,0:0:0:0:
320,192,26328,1,0,0:0:0:0:
192,192,26708,1,0,0:0:0:0:
64,192,26898,1,0,0:0:0:0:
192,192,26992,1,0,0:0:0:0:
64,192,27087,1,0,0:0:0:0:
320,192,27087,1,0,0:0:0:0:
448,192,27087,1,0,0:0:0:0:
192,192,27467,1,0,0:0:0:0:
64,192,27847,1,0,0:0:0:0:
320,192,27847,1,0,0:0:0:0:
448,192,27847,1,0,0:0:0:0:
192,192,27847,128,0,28606:0:0:0:0:
320,192,28227,1,0,0:0:0:0:
64,192,28606,1,0,0:0:0:0:
448,192,28606,1,0,0:0:0:0:
320,192,28606,128,0,29366:0:0:0:0:
192,192,28796,1,0,0:0:0:0:
64,192,28986,1,0,0:0:0:0:
192,192,29366,1,0,0:0:0:0:
448,192,29366,128,0,30125:0:0:0:0:
320,192,29746,1,0,0:0:0:0:
192,192,29936,1,0,0:0:0:0:
320,192,30125,1,0,0:0:0:0:
192,192,30125,1,0,0:0:0:0:
64,192,30125,128,0,30885:0:0:0:0:
320,192,30505,1,0,0:0:0:0:
320,192,30885,1,0,0:0:0:0:
448,192,30885,1,0,0:0:0:0:
192,192,30885,128,0,31644:0:0:0:0:
320,192,31265,1,0,0:0:0:0:
64,192,31644,1,0,0:0:0:0:
448,192,31644,1,0,0:0:0:0:
320,192,31644,128,0,32404:0:0:0:0:
192,192,31834,1,0,0:0:0:0:
448,192,32024,1,0,0:0:0:0:
192,192,32404,1,0,0:0:0:0:
448,192,32404,128,0,33163:0:0:0:0:
64,192,32784,1,0,0:0:0:0:
192,192,33163,1,0,0:0:0:0:
320,192,33163,1,0,0:0:0:0:
64,192,33163,128,0,33923:0:0:0:0:
192,192,33353,1,0,0:0:0:0:
320,192,33543,1,0,0:0:0:0:
192,192,33923,1,0,0:0:0:0:
320,192,33923,128,0,34682:0:0:0:0:
192,192,34303,1,0,0:0:0:0:
192,192,34682,1,0,0:0:0:0:
64,192,34682,1,0,0:0:0:0:
448,192,34682,128,0,35442:0:0:0:0:
320,192,34872,1,0,0:0:0:0:
192,192,35062,1,0,0:0:0:0:
320,192,35442,128,0,36201:0:0:0:0:
64,192,35442,1,0,0:0:0:0:
192,192,35822,1,0,0:0:0:0:
64,192,36011,1,0,0:0:0:0:
192,192,36201,1,0,0:0:0:0:
448,192,36201,1,0,0:0:0:0:
64,192,36201,128,0,36961:0:0:0:0:
192,192,36581,1,0,0:0:0:0:
192,192,36961,1,0,0:0:0:0:
320,192,36961,128,0,37720:0:0:0:0:
192,192,37341,1,0,0:0:0:0:
448,192,37530,1,0,0:0:0:0:
192,192,37720,1,0,0:0:0:0:
64,192,37720,1,0,0:0:0:0:
448,192,37720,128,0,38480:0:0:0:0:
320,192,37910,1,0,0:0:0:0:
192,192,38100,1,0,0:0:0:0:
320,192,38480,1,0,0:0:0:0:
192,192,38480,128,0,39239:0:0:0:0:
64,192,38860,1,0,0:0:0:0:
320,192,39239,1,0,0:0:0:0:
64,192,39239,1,0,0:0:0:0:
448,192,39239,1,0,0:0:0:0:
320,192,39619,1,0,0:0:0:0:
64,192,39999,1,0,0:0:0:0:
192,192,39999,1,0,0:0:0:0:
448,192,39999,1,0,0:0:0:0:
320,192,39999,128,0,41518:0:0:0:0:
192,192,40379,1,0,0:0:0:0:
192,192,40758,1,0,0:0:0:0:
192,192,41138,1,0,0:0:0:0:
192,192,41518,128,0,42277:0:0:0:0:
64,192,41518,1,0,0:0:0:0:
448,192,41518,1,0,0:0:0:0:
64,192,41898,1,0,0:0:0:0:
64,192,42277,128,0,43037:0:0:0:0:
320,192,42277,1,0,0:0:0:0:
448,192,42277,1,0,0:0:0:0:
320,192,42657,1,0,0:0:0:0:
448,192,43037,128,0,45315:0:0:0:0:
192,192,43037,1,0,0:0:0:0:
320,192,43037,1,0,0:0:0:0:
192,192,43417,1,0,0:0:0:0:
192,192,43796,1,0,0:0:0:0:
192,192,44176,1,0,0:0:0:0:
192,192,44556,1,0,0:0:0:0:
192,192,44936,1,0,0:0:0:0:
192,192,45315,128,0,45695:0:0:0:0:
320,192,45315,128,0,46075:0:0:0:0:
64,192,45315,1,0,0:0:0:0:
64,192,45695,1,0,0:0:0:0:
64,192,46075,128,0,46834:0:0:0:0:
448,192,46075,128,0,47594:0:0:0:0:
192,192,46075,1,0,0:0:0:0:
320,192,46454,1,0,0:0:0:0:
320,192,46834,1,0,0:0:0:0:
320,192,47214,1,0,0:0:0:0:
320,192,47594,128,0,49113:0:0:0:0:
192,192,47594,1,0,0:0:0:0:
64,192,47594,1,0,0:0:0:0:
64,192,47973,1,0,0:0:0:0:
64,192,48353,1,0,0:0:0:0:
64,192,48733,1,0,0:0:0:0:
448,192,49113,128,0,52151:0:0:0:0:
192,192,49113,128,0,50632:0:0:0:0:
64,192,49113,1,0,0:0:0:0:
320,192,49492,1,0,0:0:0:0:
320,192,49872,1,0,0:0:0:0:
320,192,50252,1,0,0:0:0:0:
320,192,50632,1,0,0:0:0:0:
320,192,51011,1,0,0:0:0:0:
320,192,51391,1,0,0:0:0:0:
64,192,51771,128,0,52151:0:0:0:0:
320,192,51771,1,0,0:0:0:0:
192,192,52151,1,0,0:0:0:0:
320,192,52151,1,0,0:0:0:0:
320,192,52530,128,0,52910:0:0:0:0:
192,192,52910,1,0,0:0:0:0:
448,192,52910,1,0,0:0:0:0:
64,192,52910,1,0,0:0:0:0:
320,192,53290,1,0,0:0:0:0:
192,192,53670,1,0,0:0:0:0:
320,192,54049,128,0,54429:0:0:0:0:
64,192,54429,1,0,0:0:0:0:
192,192,54429,1,0,0:0:0:0:
448,192,54429,1,0,0:0:0:0:
192,192,54809,1,0,0:0:0:0:
64,192,55189,1,0,0:0:0:0:
320,192,55189,1,0,0:0:0:0:
448,192,55189,1,0,0:0:0:0:
64,192,55568,128,0,55948:0:0:0:0:
320,192,55948,1,0,0:0:0:0:
448,192,55948,1,0,0:0:0:0:
192,192,55948,1,0,0:0:0:0:
320,192,56328,1,0,0:0:0:0:
192,192,56708,1,0,0:0:0:0:
64,192,57087,1,0,0:0:0:0:
192,192,57467,1,0,0:0:0:0:
320,192,57467,1,0,0:0:0:0:
448,192,57467,1,0,0:0:0:0:
320,192,57847,1,0,0:0:0:0:
192,192,58227,1,0,0:0:0:0:
320,192,58606,128,0,58986:0:0:0:0:
64,192,58986,1,0,0:0:0:0:
192,192,58986,1,0,0:0:0:0:
448,192,58986,1,0,0:0:0:0:
320,192,59366,1,0,0:0:0:0:
192,192,59746,1,0,0:0:0:0:
64,192,60125,1,0,0:0:0:0:
320,192,60505,1,0,0:0:0:0:
192,192,60505,1,0,0:0:0:0:
448,192,60505,1,0,0:0:0:0:
64,192,60885,1,0,0:0:0:0:
320,192,61265,1,0,0:0:0:0:
192,192,61644,1,0,0:0:0:0:
64,192,62024,1,0,0:0:0:0:
320,192,62024,1,0,0:0:0:0:
448,192,62024,1,0,0:0:0:0:
192,192,62214,1,0,0:0:0:0:
320,192,62404,1,0,0:0:0:0:
192,192,62594,1,0,0:0:0:0:
64,192,62594,1,0,0:0:0:0:
448,192,62594,1,0,0:0:0:0:
64,192,63543,1,0,0:0:0:0:
192,192,63543,1,0,0:0:0:0:
448,192,63543,1,0,0:0:0:0:
320,192,63543,128,0,64303:0:0:0:0:
64,192,64303,1,0,0:0:0:0:
448,192,64303,1,0,0:0:0:0:
192,192,64303,128,0,64872:0:0:0:0:
320,192,64492,1,0,0:0:0:0:
64,192,64682,1,0,0:0:0:0:
320,192,64872,1,0,0:0:0:0:
448,192,64872,1,0,0:0:0:0:
64,192,64872,128,0,65442:0:0:0:0:
320,192,65252,1,0,0:0:0:0:
192,192,65442,1,0,0:0:0:0:
320,192,65442,1,0,0:0:0:0:
448,192,65442,128,0,65822:0:0:0:0:
192,192,65632,1,0,0:0:0:0:
64,192,65822,1,0,0:0:0:0:
320,192,65822,1,0,0:0:0:0:
192,192,65822,128,0,66391:0:0:0:0:
320,192,66011,1,0,0:0:0:0:
64,192,66201,1,0,0:0:0:0:
320,192,66391,1,0,0:0:0:0:
448,192,66391,1,0,0:0:0:0:
64,192,66391,128,0,66961:0:0:0:0:
192,192,66771,1,0,0:0:0:0:
192,192,66961,1,0,0:0:0:0:
320,192,66961,1,0,0:0:0:0:
448,192,66961,128,0,67341:0:0:0:0:
320,192,67151,1,0,0:0:0:0:
192,192,67341,1,0,0:0:0:0:
64,192,67341,1,0,0:0:0:0:
320,192,67341,128,0,67910:0:0:0:0:
64,192,67530,1,0,0:0:0:0:
192,192,67720,1,0,0:0:0:0:
64,192,67910,1,0,0:0:0:0:
448,192,67910,1,0,0:0:0:0:
192,192,67910,128,0,68480:0:0:0:0:
320,192,68290,1,0,0:0:0:0:
64,192,68480,1,0,0:0:0:0:
320,192,68480,1,0,0:0:0:0:
448,192,68480,128,0,69049:0:0:0:0:
320,192,68670,1,0,0:0:0:0:
192,192,68860,1,0,0:0:0:0:
192,192,69049,128,0,69619:0:0:0:0:
64,192,69049,1,0,0:0:0:0:
320,192,69049,1,0,0:0:0:0:
320,192,69429,1,0,0:0:0:0:
64,192,69619,1,0,0:0:0:0:
320,192,69619,1,0,0:0:0:0:
448,192,69619,128,0,69999:0:0:0:0:
192,192,69809,1,0,0:0:0:0:
192,192,69999,1,0,0:0:0:0:
64,192,69999,1,0,0:0:0:0:
320,192,69999,128,0,70379:0:0:0:0:
64,192,70189,1,0,0:0:0:0:
192,192,70379,1,0,0:0:0:0:
448,192,70379,1,0,0:0:0:0:
64,192,70379,128,0,70948:0:0:0:0:
192,192,70568,1,0,0:0:0:0:
320,192,70758,1,0,0:0:0:0:
192,192,70948,1,0,0:0:0:0:
320,192,70948,1,0,0:0:0:0:
448,192,70948,128,0,71518:0:0:0:0:
64,192,71328,1,0,0:0:0:0:
64,192,71518,1,0,0:0:0:0:
320,192,71518,1,0,0:0:0:0:
192,192,71518,128,0,71898:0:0:0:0:
320,192,71708,1,0,0:0:0:0:
320,192,71898,1,0,0:0:0:0:
64,192,71898,1,0,0:0:0:0:
448,192,71898,128,0,72467:0:0:0:0:
320,192,72087,1,0,0:0:0:0:
192,192,72277,1,0,0:0:0:0:
64,192,72467,1,0,0:0:0:0:
320,192,72467,1,0,0:0:0:0:
192,192,72467,128,0,73037:0:0:0:0:
320,192,72847,1,0,0:0:0:0:
64,192,73037,1,0,0:0:0:0:
448,192,73037,1,0,0:0:0:0:
320,192,73037,128,0,73417:0:0:0:0:
192,192,73227,1,0,0:0:0:0:
64,192,73417,1,0,0:0:0:0:
192,192,73417,1,0,0:0:0:0:
448,192,73417,128,0,73986:0:0:0:0:
192,192,73606,1,0,0:0:0:0:
320,192,73796,1,0,0:0:0:0:
64,192,73986,1,0,0:0:0:0:
192,192,73986,1,0,0:0:0:0:
320,192,73986,128,0,74556:0:0:0:0:
192,192,74366,1,0,0:0:0:0:
64,192,74556,1,0,0:0:0:0:
448,192,74556,1,0,0:0:0:0:
192,192,74556,128,0,75125:0:0:0:0:
320,192,74746,1,0,0:0:0:0:
64,192,74936,1,0,0:0:0:0:
64,192,75125,1,0,0:0:0:0:
448,192,75125,1,0,0:0:0:0:
320,192,75125,1,0,0:0:0:0:
192,192,75505,1,0,0:0:0:0:
320,192,75695,1,0,0:0:0:0:
448,192,75695,1,0,0:0:0:0:
320,192,75885,1,0,0:0:0:0:
448,192,75885,1,0,0:0:0:0:
64,192,75980,1,0,0:0:0:0:
192,192,75980,1,0,0:0:0:0:
320,192,76075,1,0,0:0:0:0:
448,192,76075,1,0,0:0:0:0:
64,192,76170,1,0,0:0:0:0:
192,192,76170,1,0,0:0:0:0:
320,192,76265,1,0,0:0:0:0:
448,192,76265,1,0,0:0:0:0:
64,192,76360,1,0,0:0:0:0:
192,192,76360,1,0,0:0:0:0:
320,192,76454,1,0,0:0:0:0:
448,192,76454,1,0,0:0:0:0:
64,192,76834,1,0,0:0:0:0:
192,192,76834,1,0,0:0:0:0:
448,192,76834,1,0,0:0:0:0:
320,192,77214,1,0,0:0:0:0:
192,192,77404,1,0,0:0:0:0:
64,192,77594,1,0,0:0:0:0:
320,192,77594,1,0,0:0:0:0:
448,192,77594,1,0,0:0:0:0:
192,192,77784,1,0,0:0:0:0:
320,192,77784,1,0,0:0:0:0:
448,192,77784,1,0,0:0:0:0:
320,192,77973,1,0,0:0:0:0:
192,192,78163,1,0,0:0:0:0:
320,192,78353,1,0,0:0:0:0:
192,192,78353,1,0,0:0:0:0:
64,192,78353,1,0,0:0:0:0:
320,192,78733,1,0,0:0:0:0:
192,192,78923,1,0,0:0:0:0:
320,192,79113,1,0,0:0:0:0:
64,192,79303,1,0,0:0:0:0:
192,192,79303,1,0,0:0:0:0:
448,192,79303,1,0,0:0:0:0:
320,192,79492,1,0,0:0:0:0:
64,192,79872,1,0,0:0:0:0:
192,192,79872,1,0,0:0:0:0:
320,192,79872,1,0,0:0:0:0:
448,192,80062,1,0,0:0:0:0:
320,192,80252,1,0,0:0:0:0:
64,192,80442,1,0,0:0:0:0:
192,192,80442,1,0,0:0:0:0:
448,192,80442,1,0,0:0:0:0:
320,192,80632,1,0,0:0:0:0:
192,192,80632,1,0,0:0:0:0:
64,192,80632,1,0,0:0:0:0:
192,192,81011,1,0,0:0:0:0:
320,192,81201,1,0,0:0:0:0:
64,192,81391,1,0,0:0:0:0:
192,192,81391,1,0,0:0:0:0:
448,192,81391,1,0,0:0:0:0:
320,192,81581,1,0,0:0:0:0:
192,192,81676,1,0,0:0:0:0:
320,192,81771,1,0,0:0:0:0:
192,192,81961,1,0,0:0:0:0:
64,192,82151,1,0,0:0:0:0:
320,192,82151,1,0,0:0:0:0:
448,192,82151,1,0,0:0:0:0:
192,192,82341,1,0,0:0:0:0:
320,192,82530,1,0,0:0:0:0:
64,192,82910,1,0,0:0:0:0:
192,192,82910,1,0,0:0:0:0:
320,192,82910,1,0,0:0:0:0:
192,192,83100,1,0,0:0:0:0:
320,192,83290,1,0,0:0:0:0:
448,192,83670,1,0,0:0:0:0:
64,192,83860,1,0,0:0:0:0:
320,192,83860,1,0,0:0:0:0:
192,192,83860,1,0,0:0:0:0:
192,192,84239,1,0,0:0:0:0:
64,192,84429,1,0,0:0:0:0:
320,192,84429,1,0,0:0:0:0:
448,192,84429,1,0,0:0:0:0:
192,192,84619,1,0,0:0:0:0:
320,192,84809,1,0,0:0:0:0:
448,192,84999,1,0,0:0:0:0:
320,192,85189,1,0,0:0:0:0:
64,192,85379,1,0,0:0:0:0:
192,192,85379,1,0,0:0:0:0:
448,192,85379,1,0,0:0:0:0:
64,192,85568,1,0,0:0:0:0:
192,192,85568,1,0,0:0:0:0:
320,192,85568,1,0,0:0:0:0:
192,192,85758,1,0,0:0:0:0:
64,192,85948,1,0,0:0:0:0:
448,192,85948,1,0,0:0:0:0:
320,192,85948,1,0,0:0:0:0:
192,192,86138,1,0,0:0:0:0:
320,192,86328,1,0,0:0:0:0:
448,192,86518,1,0,0:0:0:0:
64,192,86708,1,0,0:0:0:0:
192,192,86708,1,0,0:0:0:0:
320,192,86708,1,0,0:0:0:0:
192,192,86898,1,0,0:0:0:0:
320,192,87087,1,0,0:0:0:0:
64,192,87277,1,0,0:0:0:0:
192,192,87277,1,0,0:0:0:0:
448,192,87277,1,0,0:0:0:0:
192,192,87467,1,0,0:0:0:0:
448,192,87657,1,0,0:0:0:0:
320,192,87657,1,0,0:0:0:0:
192,192,87847,1,0,0:0:0:0:
320,192,87942,1,0,0:0:0:0:
448,192,88037,1,0,0:0:0:0:
192,192,88037,1,0,0:0:0:0:
64,192,88132,1,0,0:0:0:0:
192,192,88227,1,0,0:0:0:0:
448,192,88227,1,0,0:0:0:0:
192,192,88417,1,0,0:0:0:0:
448,192,88417,1,0,0:0:0:0:
