osu file format v14

[General]
AudioFilename: audio.mp3
AudioLeadIn: 0
PreviewTime: 63320
Countdown: 0
SampleSet: Normal
StackLeniency: 0.7
Mode: 1
LetterboxInBreaks: 0
WidescreenStoryboard: 0

[Editor]
DistanceSpacing: 0.5
BeatDivisor: 4
GridSize: 32
TimelineZoom: 1.9

[Metadata]
Title:&Z (TV Size)
TitleUnicode:&Z (TV Size)
Artist:SawanoHiroyuki[nZk]:mizuki
ArtistUnicode:SawanoHiroyuki[nZk]:mizuki
Creator:-Flashlight-
Version:Oni
Source:アルドノア・ゼロ
Tags:Aldnoah zero Aldnoah.Zero second season 2 opening sawano hiroyuki pop jpop j-pop japanese op anime [-e_s_i_a-] e_s_i_a esia
BeatmapID:3580491
BeatmapSetID:1750171

[Difficulty]
HPDrainRate:6
CircleSize:5
OverallDifficulty:5.5
ApproachRate:5
SliderMultiplier:1.4
SliderTickRate:1

[Events]
//Background and Video events
0,0,"bg.jpg",0,75
//Break Periods
//Storyboard Layer 0 (Background)
//Storyboard Layer 1 (Fail)
//Storyboard Layer 2 (Pass)
//Storyboard Layer 3 (Foreground)
//Storyboard Layer 4 (Overlay)
//Storyboard Sound Samples

[TimingPoints]
3605,379.746835443038,4,1,0,60,1,0
15472,-102.040816326531,4,1,0,60,0,0
15567,-104.166666666667,4,1,0,60,0,0
15661,-106.382978723404,4,1,0,60,0,0
15756,-108.695652173913,4,1,0,50,0,0
27908,-105.263157894737,4,1,0,60,0,0
39491,-107.52688172043,4,1,0,60,0,0
39680,-109.89010989011,4,1,0,60,0,0
39870,-112.359550561798,4,1,0,60,0,0
40060,-114.942528735632,4,1,0,50,0,0
51642,-112.359550561798,4,1,0,50,0,0
51832,-109.89010989011,4,1,0,50,0,0
52022,-107.52688172043,4,1,0,50,0,0
52212,-105.263157894737,4,1,0,60,0,0
58288,-102.040816326531,4,1,0,60,0,0
63605,-71.4285714285714,4,1,0,60,0,0
64174,-94.3396226415094,4,1,0,60,0,0
64364,-90.9090909090909,4,1,0,75,0,1
76041,-89.2857142857143,4,1,0,75,0,1
76136,-87.719298245614,4,1,0,75,0,1
76231,-86.2068965517241,4,1,0,75,0,1
76326,-84.7457627118644,4,1,0,75,0,1
76421,-83.3333333333333,4,1,0,75,0,1
76516,-81.9672131147541,4,1,0,75,0,1
88003,-83.3333333333333,4,1,0,75,0,1
88098,-84.7457627118644,4,1,0,75,0,1
88193,-86.2068965517241,4,1,0,75,0,1
88288,-87.719298245614,4,1,0,75,0,1
88478,-90.9090909090909,4,1,0,60,0,0

[HitObjects]
256,192,3605,5,12,0:0:0:0:
256,192,3794,1,0,0:0:0:0:
256,192,3984,1,0,0:0:0:0:
256,192,4174,1,8,0:0:0:0:
256,192,4364,1,8,0:0:0:0:
256,192,4554,1,0,0:0:0:0:
256,192,4744,1,0,0:0:0:0:
256,192,4934,1,8,0:0:0:0:
256,192,5313,1,0,0:0:0:0:
256,192,5408,1,0,0:0:0:0:
256,192,5503,1,8,0:0:0:0:
256,192,5693,1,0,0:0:0:0:
256,192,5883,1,8,0:0:0:0:
256,192,6073,1,0,0:0:0:0:
256,192,6263,1,0,0:0:0:0:
256,192,6642,1,8,0:0:0:0:
256,192,6737,1,8,0:0:0:0:
256,192,6832,1,0,0:0:0:0:
256,192,6927,1,0,0:0:0:0:
256,192,7021,1,0,0:0:0:0:
256,192,7211,1,0,0:0:0:0:
256,192,7401,1,8,0:0:0:0:
256,192,7591,1,0,0:0:0:0:
256,192,7781,1,0,0:0:0:0:
256,192,7971,1,8,0:0:0:0:
256,192,8350,1,0,0:0:0:0:
256,192,8446,1,0,0:0:0:0:
256,192,8540,1,8,0:0:0:0:
256,192,8730,1,0,0:0:0:0:
256,192,8920,1,8,0:0:0:0:
256,192,9110,1,0,0:0:0:0:
256,192,9300,1,0,0:0:0:0:
256,192,9680,1,12,0:0:0:0:
256,192,9870,1,0,0:0:0:0:
256,192,10060,1,0,0:0:0:0:
256,192,10250,1,8,0:0:0:0:
256,192,10440,1,8,0:0:0:0:
256,192,10630,1,0,0:0:0:0:
256,192,10820,1,0,0:0:0:0:
256,192,11010,1,8,0:0:0:0:
256,192,11389,1,0,0:0:0:0:
256,192,11484,1,0,0:0:0:0:
256,192,11579,1,8,0:0:0:0:
256,192,11769,1,0,0:0:0:0:
256,192,11959,1,8,0:0:0:0:
256,192,12149,1,8,0:0:0:0:
256,192,12339,1,0,0:0:0:0:
256,192,12718,1,8,0:0:0:0:
256,192,12813,1,8,0:0:0:0:
256,192,12908,1,0,0:0:0:0:
256,192,13003,1,0,0:0:0:0:
256,192,13098,1,0,0:0:0:0:
256,192,13288,1,8,0:0:0:0:
256,192,13478,1,8,0:0:0:0:
256,192,13668,1,0,0:0:0:0:
256,192,13858,1,0,0:0:0:0:
256,192,14048,1,8,0:0:0:0:
256,192,14427,1,0,0:0:0:0:
256,192,14522,1,0,0:0:0:0:
256,192,14617,1,8,0:0:0:0:
256,192,14807,1,0,0:0:0:0:
256,192,14997,1,8,0:0:0:0:
256,192,15187,1,0,0:0:0:0:
256,192,15377,1,8,0:0:0:0:
256,192,15472,1,8,0:0:0:0:
256,192,15567,1,8,0:0:0:0:
256,192,15661,1,8,0:0:0:0:
256,192,15756,1,4,0:0:0:0:
256,192,16136,1,0,0:0:0:0:
256,192,16516,1,8,0:0:0:0:
256,192,16706,1,0,0:0:0:0:
256,192,16896,1,0,0:0:0:0:
256,192,17086,1,8,0:0:0:0:
256,192,17275,1,8,0:0:0:0:
256,192,17655,1,0,0:0:0:0:
256,192,17845,1,0,0:0:0:0:
256,192,18035,1,8,0:0:0:0:
256,192,18225,1,0,0:0:0:0:
256,192,18415,1,0,0:0:0:0:
256,192,18794,1,8,0:0:0:0:
256,192,19174,1,0,0:0:0:0:
256,192,19554,1,8,0:0:0:0:
256,192,19744,1,0,0:0:0:0:
256,192,19934,1,0,0:0:0:0:
256,192,20123,1,8,0:0:0:0:
256,192,20313,1,8,0:0:0:0:
256,192,20693,1,0,0:0:0:0:
256,192,20883,1,0,0:0:0:0:
256,192,21073,1,8,0:0:0:0:
256,192,21263,1,8,0:0:0:0:
256,192,21453,1,0,0:0:0:0:
256,192,21832,1,8,0:0:0:0:
256,192,22212,1,0,0:0:0:0:
256,192,22592,1,8,0:0:0:0:
256,192,22782,1,0,0:0:0:0:
256,192,22972,1,0,0:0:0:0:
256,192,23161,1,0,0:0:0:0:
256,192,23351,1,8,0:0:0:0:
256,192,23731,1,0,0:0:0:0:
256,192,23921,1,0,0:0:0:0:
256,192,24111,1,8,0:0:0:0:
256,192,24301,1,0,0:0:0:0:
256,192,24491,1,0,0:0:0:0:
256,192,24680,1,0,0:0:0:0:
256,192,24870,1,8,0:0:0:0:
256,192,25250,1,0,0:0:0:0:
256,192,25630,1,8,0:0:0:0:
256,192,25820,1,0,0:0:0:0:
256,192,26010,1,0,0:0:0:0:
256,192,26199,1,0,0:0:0:0:
256,192,26389,1,8,0:0:0:0:
256,192,26769,1,0,0:0:0:0:
256,192,26959,1,8,0:0:0:0:
256,192,27054,1,0,0:0:0:0:
256,192,27149,1,8,0:0:0:0:
256,192,27529,1,0,0:0:0:0:
256,192,27908,1,12,0:0:0:0:
256,192,28098,1,0,0:0:0:0:
256,192,28288,1,0,0:0:0:0:
256,192,28668,1,8,0:0:0:0:
256,192,28858,1,0,0:0:0:0:
256,192,29048,1,8,0:0:0:0:
256,192,29237,1,0,0:0:0:0:
256,192,29332,1,8,0:0:0:0:
256,192,29427,1,8,0:0:0:0:
256,192,29617,1,0,0:0:0:0:
256,192,29807,1,0,0:0:0:0:
256,192,30187,1,8,0:0:0:0:
256,192,30377,1,0,0:0:0:0:
256,192,30567,1,8,0:0:0:0:
256,192,30946,1,8,0:0:0:0:
256,192,31136,1,0,0:0:0:0:
256,192,31326,1,0,0:0:0:0:
256,192,31706,1,8,0:0:0:0:
256,192,31896,1,0,0:0:0:0:
256,192,32086,1,8,0:0:0:0:
256,192,32275,1,8,0:0:0:0:
256,192,32370,1,0,0:0:0:0:
256,192,32465,1,8,0:0:0:0:
256,192,32655,1,0,0:0:0:0:
256,192,32845,1,8,0:0:0:0:
256,192,33225,1,8,0:0:0:0:
256,192,33415,1,8,0:0:0:0:
256,192,33605,1,0,0:0:0:0:
256,192,33984,1,0,0:0:0:0:
256,192,34364,1,8,0:0:0:0:
256,192,34554,1,0,0:0:0:0:
256,192,34744,1,8,0:0:0:0:
256,192,34934,1,0,0:0:0:0:
256,192,35124,1,0,0:0:0:0:
256,192,35503,1,0,0:0:0:0:
256,192,35693,1,0,0:0:0:0:
256,192,35883,1,8,0:0:0:0:
256,192,36073,1,0,0:0:0:0:
256,192,36168,1,0,0:0:0:0:
256,192,36263,1,8,0:0:0:0:
256,192,36453,1,8,0:0:0:0:
256,192,36643,1,0,0:0:0:0:
256,192,37022,1,0,0:0:0:0:
256,192,37212,1,0,0:0:0:0:
256,192,37402,1,8,0:0:0:0:
256,192,37592,1,8,0:0:0:0:
256,192,37687,1,0,0:0:0:0:
256,192,37782,1,8,0:0:0:0:
256,192,37972,1,0,0:0:0:0:
256,192,38162,1,8,0:0:0:0:
256,192,38541,1,0,0:0:0:0:
256,192,38921,1,0,0:0:0:0:
256,192,39111,1,8,0:0:0:0:
256,192,39206,1,8,0:0:0:0:
256,192,39301,1,8,0:0:0:0:
256,192,39491,1,0,0:0:0:0:
256,192,39681,1,8,0:0:0:0:
256,192,39870,1,8,0:0:0:0:
256,192,40060,1,4,0:0:0:0:
256,192,40440,1,0,0:0:0:0:
256,192,40630,1,0,0:0:0:0:
256,192,40820,1,8,0:0:0:0:
256,192,41199,1,0,0:0:0:0:
256,192,41389,1,8,0:0:0:0:
256,192,41579,1,0,0:0:0:0:
256,192,41959,1,8,0:0:0:0:
256,192,42149,1,8,0:0:0:0:
256,192,42339,1,0,0:0:0:0:
256,192,42529,1,0,0:0:0:0:
256,192,42718,1,8,0:0:0:0:
256,192,43098,1,0,0:0:0:0:
256,192,43478,1,8,0:0:0:0:
256,192,43668,1,0,0:0:0:0:
256,192,43858,1,8,0:0:0:0:
256,192,44237,1,0,0:0:0:0:
256,192,44427,1,8,0:0:0:0:
256,192,44617,1,8,0:0:0:0:
256,192,44997,1,8,0:0:0:0:
256,192,45187,1,0,0:0:0:0:
256,192,45377,1,0,0:0:0:0:
256,192,45756,1,8,0:0:0:0:
256,192,46136,1,8,0:0:0:0:
256,192,46326,1,0,0:0:0:0:
256,192,46421,1,0,0:0:0:0:
256,192,46516,1,0,0:0:0:0:
256,192,46706,1,8,0:0:0:0:
256,192,46896,1,0,0:0:0:0:
256,192,47086,1,0,0:0:0:0:
256,192,47275,1,8,0:0:0:0:
256,192,47655,1,0,0:0:0:0:
256,192,47845,1,0,0:0:0:0:
256,192,48035,1,8,0:0:0:0:
256,192,48225,1,0,0:0:0:0:
256,192,48415,1,8,0:0:0:0:
256,192,48605,1,0,0:0:0:0:
256,192,48794,1,0,0:0:0:0:
256,192,49174,1,8,0:0:0:0:
256,192,49364,1,0,0:0:0:0:
256,192,49459,1,0,0:0:0:0:
256,192,49554,1,0,0:0:0:0:
256,192,49744,1,8,0:0:0:0:
256,192,49934,1,0,0:0:0:0:
256,192,50124,1,0,0:0:0:0:
256,192,50313,1,8,0:0:0:0:
256,192,50693,1,0,0:0:0:0:
256,192,50883,1,0,0:0:0:0:
256,192,51073,1,8,0:0:0:0:
256,192,51263,1,0,0:0:0:0:
256,192,51453,1,8,0:0:0:0:
256,192,51643,1,0,0:0:0:0:
256,192,51832,1,0,0:0:0:0:
256,192,52022,1,8,0:0:0:0:
256,192,52212,1,4,0:0:0:0:
256,192,52592,1,8,0:0:0:0:
256,192,52782,1,0,0:0:0:0:
256,192,52972,1,8,0:0:0:0:
256,192,53161,1,0,0:0:0:0:
256,192,53351,1,0,0:0:0:0:
256,192,53541,1,0,0:0:0:0:
256,192,53731,1,8,0:0:0:0:
256,192,54111,1,0,0:0:0:0:
256,192,54491,1,8,0:0:0:0:
256,192,55250,1,0,0:0:0:0:
256,192,55630,1,8,0:0:0:0:
256,192,55820,1,0,0:0:0:0:
256,192,56010,1,8,0:0:0:0:
256,192,56199,1,8,0:0:0:0:
256,192,56389,1,8,0:0:0:0:
256,192,56579,1,0,0:0:0:0:
256,192,56769,1,8,0:0:0:0:
256,192,57149,1,8,0:0:0:0:
256,192,57339,1,0,0:0:0:0:
256,192,57529,1,8,0:0:0:0:
256,192,57908,1,0,0:0:0:0:
256,192,58003,1,0,0:0:0:0:
256,192,58098,1,0,0:0:0:0:
256,192,58288,1,8,0:0:0:0:
256,192,58478,1,0,0:0:0:0:
256,192,58668,1,0,0:0:0:0:
256,192,58858,1,0,0:0:0:0:
256,192,59048,1,8,0:0:0:0:
256,192,59427,1,0,0:0:0:0:
256,192,59617,1,0,0:0:0:0:
256,192,59807,1,8,0:0:0:0:
256,192,59997,1,8,0:0:0:0:
256,192,60187,1,0,0:0:0:0:
256,192,60377,1,0,0:0:0:0:
256,192,60567,1,8,0:0:0:0:
256,192,60946,1,8,0:0:0:0:
256,192,61136,1,8,0:0:0:0:
256,192,61326,1,0,0:0:0:0:
256,192,61706,1,0,0:0:0:0:
256,192,61896,1,0,0:0:0:0:
256,192,62086,1,8,0:0:0:0:
256,192,62275,1,0,0:0:0:0:
256,192,62465,1,0,0:0:0:0:
256,192,62655,1,8,0:0:0:0:
256,192,63605,1,4,0:0:0:0:
256,192,64174,1,0,0:0:0:0:
256,192,64364,1,12,0:0:0:0:
256,192,64554,1,0,0:0:0:0:
256,192,64649,1,0,0:0:0:0:
256,192,64744,1,0,0:0:0:0:
256,192,64934,1,8,0:0:0:0:
256,192,65123,1,0,0:0:0:0:
256,192,65313,1,8,0:0:0:0:
256,192,65408,1,8,0:0:0:0:
256,192,65503,1,0,0:0:0:0:
256,192,65598,1,0,0:0:0:0:
256,192,65693,1,8,0:0:0:0:
256,192,65883,1,8,0:0:0:0:
256,192,66073,1,0,0:0:0:0:
256,192,66263,1,0,0:0:0:0:
256,192,66453,1,8,0:0:0:0:
256,192,66832,1,0,0:0:0:0:
256,192,67022,1,8,0:0:0:0:
256,192,67117,1,0,0:0:0:0:
256,192,67212,1,8,0:0:0:0:
256,192,67307,1,0,0:0:0:0:
256,192,67402,1,8,0:0:0:0:
256,192,67592,1,0,0:0:0:0:
256,192,67782,1,0,0:0:0:0:
256,192,67972,1,8,0:0:0:0:
256,192,68161,1,0,0:0:0:0:
256,192,68351,1,0,0:0:0:0:
256,192,68541,1,8,0:0:0:0:
256,192,68921,1,8,0:0:0:0:
256,192,69111,1,0,0:0:0:0:
256,192,69301,1,8,0:0:0:0:
256,192,69491,1,0,0:0:0:0:
256,192,69680,1,8,0:0:0:0:
256,192,69775,1,0,0:0:0:0:
256,192,69870,1,0,0:0:0:0:
256,192,70060,1,8,0:0:0:0:
256,192,70155,1,8,0:0:0:0:
256,192,70250,1,0,0:0:0:0:
256,192,70345,1,0,0:0:0:0:
256,192,70440,1,12,0:0:0:0:
256,192,70820,1,0,0:0:0:0:
256,192,71010,1,8,0:0:0:0:
256,192,71105,1,8,0:0:0:0:
256,192,71199,1,8,0:0:0:0:
256,192,71389,1,0,0:0:0:0:
256,192,71579,1,8,0:0:0:0:
256,192,71769,1,8,0:0:0:0:
256,192,71959,1,0,0:0:0:0:
256,192,72339,1,0,0:0:0:0:
256,192,72529,1,8,0:0:0:0:
256,192,72718,1,8,0:0:0:0:
256,192,72908,1,0,0:0:0:0:
256,192,73098,1,8,0:0:0:0:
256,192,73193,1,0,0:0:0:0:
256,192,73288,1,8,0:0:0:0:
256,192,73383,1,0,0:0:0:0:
256,192,73478,1,8,0:0:0:0:
256,192,73668,1,0,0:0:0:0:
256,192,73858,1,0,0:0:0:0:
256,192,74048,1,8,0:0:0:0:
256,192,74237,1,0,0:0:0:0:
256,192,74427,1,0,0:0:0:0:
256,192,74617,1,8,0:0:0:0:
256,192,74807,1,0,0:0:0:0:
256,192,74997,1,0,0:0:0:0:
256,192,75187,1,0,0:0:0:0:
256,192,75282,1,0,0:0:0:0:
256,192,75377,1,8,0:0:0:0:
256,192,75567,1,0,0:0:0:0:
256,192,75756,1,8,0:0:0:0:
256,192,75946,1,8,0:0:0:0:
256,192,76041,1,0,0:0:0:0:
256,192,76136,1,8,0:0:0:0:
256,192,76231,1,8,0:0:0:0:
256,192,76326,1,0,0:0:0:0:
256,192,76421,1,0,0:0:0:0:
256,192,76516,1,12,0:0:0:0:
256,192,76896,1,0,0:0:0:0:
256,192,77086,1,8,0:0:0:0:
256,192,77275,1,0,0:0:0:0:
256,192,77465,1,0,0:0:0:0:
256,192,77560,1,0,0:0:0:0:
256,192,77655,1,8,0:0:0:0:
256,192,77845,1,8,0:0:0:0:
256,192,78225,1,0,0:0:0:0:
256,192,78415,1,8,0:0:0:0:
256,192,78605,1,0,0:0:0:0:
256,192,78699,1,0,0:0:0:0:
256,192,78794,1,8,0:0:0:0:
256,192,78984,1,0,0:0:0:0:
256,192,79174,1,8,0:0:0:0:
256,192,79364,1,8,0:0:0:0:
256,192,79459,1,0,0:0:0:0:
256,192,79554,1,8,0:0:0:0:
256,192,79744,1,0,0:0:0:0:
256,192,79934,1,0,0:0:0:0:
256,192,80123,1,8,0:0:0:0:
256,192,80503,1,0,0:0:0:0:
256,192,80598,1,0,0:0:0:0:
256,192,80693,1,8,0:0:0:0:
256,192,80883,1,8,0:0:0:0:
256,192,81263,1,0,0:0:0:0:
256,192,81453,1,8,0:0:0:0:
256,192,81642,1,0,0:0:0:0:
256,192,81832,1,8,0:0:0:0:
256,192,82022,1,0,0:0:0:0:
256,192,82212,1,8,0:0:0:0:
256,192,82307,1,8,0:0:0:0:
256,192,82402,1,0,0:0:0:0:
256,192,82497,1,0,0:0:0:0:
256,192,82592,1,12,0:0:0:0:
256,192,82972,1,0,0:0:0:0:
256,192,83161,1,8,0:0:0:0:
256,192,83256,1,8,0:0:0:0:
256,192,83351,1,8,0:0:0:0:
256,192,83541,1,0,0:0:0:0:
256,192,83731,1,8,0:0:0:0:
256,192,83921,1,8,0:0:0:0:
256,192,84016,1,0,0:0:0:0:
256,192,84111,1,0,0:0:0:0:
256,192,84491,1,0,0:0:0:0:
256,192,84680,1,8,0:0:0:0:
256,192,84775,1,0,0:0:0:0:
256,192,84870,1,8,0:0:0:0:
256,192,85060,1,0,0:0:0:0:
256,192,85250,1,8,0:0:0:0:
256,192,85440,1,0,0:0:0:0:
256,192,85535,1,0,0:0:0:0:
256,192,85630,1,8,0:0:0:0:
256,192,86010,1,0,0:0:0:0:
256,192,86199,1,8,0:0:0:0:
256,192,86294,1,8,0:0:0:0:
256,192,86389,1,0,0:0:0:0:
256,192,86579,1,0,0:0:0:0:
256,192,86769,1,8,0:0:0:0:
256,192,87149,1,0,0:0:0:0:
256,192,87339,1,0,0:0:0:0:
256,192,87529,1,8,0:0:0:0:
256,192,87718,1,0,0:0:0:0:
256,192,87908,1,8,0:0:0:0:
256,192,88003,1,8,0:0:0:0:
256,192,88098,1,0,0:0:0:0:
256,192,88193,1,0,0:0:0:0:
256,192,88288,1,12,0:0:0:0:
256,192,88478,1,0,0:0:0:0:
