osu file format v14

[General]
AudioFilename: audio.mp3
AudioLeadIn: 0
PreviewTime: 63320
Countdown: 0
SampleSet: Normal
StackLeniency: 0.7
Mode: 1
LetterboxInBreaks: 0
WidescreenStoryboard: 1

[Editor]
DistanceSpacing: 0.5
BeatDivisor: 2
GridSize: 32
TimelineZoom: 1.9

[Metadata]
Title:&Z (TV Size)
TitleUnicode:&Z (TV Size)
Artist:SawanoHiroyuki[nZk]:mizuki
ArtistUnicode:SawanoHiroyuki[nZk]:mizuki
Creator:-Flashlight-
Version:[-E S I A-]'s Kantan
Source:アルドノア・ゼロ
Tags:Aldnoah zero Aldnoah.Zero second season 2 opening sawano hiroyuki pop jpop j-pop japanese op anime [-e_s_i_a-] e_s_i_a esia
BeatmapID:3587045
BeatmapSetID:1750171

[Difficulty]
HPDrainRate:9
CircleSize:2
OverallDifficulty:2.5
ApproachRate:10
SliderMultiplier:1.4
SliderTickRate:1

[Events]
//Background and Video events
0,0,"bgkantan.jpg",0,50
//Break Periods
//Storyboard Layer 0 (Background)
//Storyboard Layer 1 (Fail)
//Storyboard Layer 2 (Pass)
//Storyboard Layer 3 (Foreground)
//Storyboard Layer 4 (Overlay)
//Storyboard Sound Samples

[TimingPoints]
3605,379.746835443038,4,1,0,60,1,0
15756,-100,4,1,0,50,0,0
27908,-100,4,1,0,60,0,0
40060,-100,4,1,0,50,0,0
52212,-100,4,1,0,60,0,0
64364,-100,4,1,0,75,0,1
88478,-100,4,1,0,60,0,0

[HitObjects]
213,125,3605,5,12,0:0:0:0:
298,235,4364,1,8,0:0:0:0:
276,132,4934,1,0,0:0:0:0:
252,29,5503,1,0,0:0:0:0:
234,59,5883,1,8,0:0:0:0:
277,191,6642,1,0,0:0:0:0:
266,157,7022,1,0,0:0:0:0:
299,147,7402,1,8,0:0:0:0:
220,217,7972,1,0,0:0:0:0:
247,195,8921,1,0,0:0:0:0:
328,81,9680,1,12,0:0:0:0:
271,209,10440,1,8,0:0:0:0:
345,134,11010,1,0,0:0:0:0:
239,149,11579,1,8,0:0:0:0:
306,166,11959,1,0,0:0:0:0:
166,177,12718,1,8,0:0:0:0:
188,110,13098,1,0,0:0:0:0:
305,162,13478,1,8,0:0:0:0:
175,108,14048,1,0,0:0:0:0:
298,173,14617,1,8,0:0:0:0:
232,147,15756,1,4,0:0:0:0:
214,218,17275,1,0,0:0:0:0:
214,218,18035,1,8,0:0:0:0:
214,218,18415,1,0,0:0:0:0:
218,148,18794,1,0,0:0:0:0:
73,196,19554,1,8,0:0:0:0:
215,222,20313,1,0,0:0:0:0:
254,164,20693,1,0,0:0:0:0:
314,122,21073,1,8,0:0:0:0:
264,171,21832,1,0,0:0:0:0:
209,141,23351,1,0,0:0:0:0:
141,158,23731,1,0,0:0:0:0:
338,193,24111,1,8,0:0:0:0:
207,142,24870,1,8,0:0:0:0:
348,147,25630,1,8,0:0:0:0:
212,111,26389,1,0,0:0:0:0:
350,133,27149,1,8,0:0:0:0:
283,118,27529,1,0,0:0:0:0:
350,133,27908,1,4,0:0:0:0:
70,137,29427,1,0,0:0:0:0:
210,135,30187,1,8,0:0:0:0:
280,134,30567,1,8,0:0:0:0:
140,136,30946,1,0,0:0:0:0:
147,87,31706,1,8,0:0:0:0:
277,136,32465,1,8,0:0:0:0:
221,93,32845,1,0,0:0:0:0:
277,136,33225,1,8,0:0:0:0:
263,204,33605,1,8,0:0:0:0:
276,55,34744,1,8,0:0:0:0:
379,149,35503,1,8,0:0:0:0:
322,107,35883,1,0,0:0:0:0:
379,149,36263,1,8,0:0:0:0:
266,65,37022,1,0,0:0:0:0:
356,171,37782,1,8,0:0:0:0:
434,190,38161,1,0,0:0:0:0:
228,176,39301,5,8,0:0:0:0:
294,154,39680,1,8,0:0:0:0:
357,76,40060,5,4,0:0:0:0:
198,310,41959,1,0,0:0:0:0:
279,190,42339,1,0,0:0:0:0:
280,120,42718,1,8,0:0:0:0:
280,120,43478,1,8,0:0:0:0:
349,130,43858,1,8,0:0:0:0:
153,60,44237,1,0,0:0:0:0:
416,155,45756,1,8,0:0:0:0:
283,110,46516,1,0,0:0:0:0:
283,110,47275,1,8,0:0:0:0:
283,110,48035,1,0,0:0:0:0:
420,94,48794,1,8,0:0:0:0:
104,245,50313,1,8,0:0:0:0:
223,164,51073,1,0,0:0:0:0:
262,123,51832,1,8,0:0:0:0:
330,135,52212,1,4,0:0:0:0:
194,172,52972,1,8,0:0:0:0:
292,73,53731,1,0,0:0:0:0:
292,73,54111,1,0,0:0:0:0:
245,125,54491,1,8,0:0:0:0:
217,262,55630,1,0,0:0:0:0:
245,125,56010,1,8,0:0:0:0:
314,120,56389,1,0,0:0:0:0:
178,96,57149,1,8,0:0:0:0:
178,96,57529,1,8,0:0:0:0:
284,186,58288,1,0,0:0:0:0:
177,96,59048,1,8,0:0:0:0:
280,182,59807,1,8,0:0:0:0:
174,94,60567,1,8,0:0:0:0:
284,185,61326,1,0,0:0:0:0:
287,226,62655,5,0,0:0:0:0:
409,100,63605,1,4,0:0:0:0:
280,154,64364,1,12,0:0:0:0:
271,94,64934,1,8,0:0:0:0:
221,186,65503,1,8,0:0:0:0:
233,153,65883,1,0,0:0:0:0:
241,94,66453,1,8,0:0:0:0:
241,94,67022,1,0,0:0:0:0:
336,42,67402,1,8,0:0:0:0:
354,270,68921,1,0,0:0:0:0:
292,235,69301,1,0,0:0:0:0:
351,135,69680,1,8,0:0:0:0:
370,201,70060,1,0,0:0:0:0:
351,135,70440,1,12,0:0:0:0:
246,139,71199,1,8,0:0:0:0:
246,139,71959,1,0,0:0:0:0:
350,148,72718,1,8,0:0:0:0:
159,248,73098,1,0,0:0:0:0:
264,159,73478,1,8,0:0:0:0:
330,77,74617,1,0,0:0:0:0:
200,95,75377,1,8,0:0:0:0:
269,103,75756,1,0,0:0:0:0:
256,172,76136,1,8,0:0:0:0:
318,234,76516,1,12,0:0:0:0:
412,141,77845,1,8,0:0:0:0:
237,157,78794,1,8,0:0:0:0:
302,139,79174,1,0,0:0:0:0:
367,115,79554,1,8,0:0:0:0:
468,298,80693,1,8,0:0:0:0:
446,231,81073,1,0,0:0:0:0:
353,42,82212,1,0,0:0:0:0:
383,104,82592,1,12,0:0:0:0:
442,223,83351,1,0,0:0:0:0:
380,97,84111,1,8,0:0:0:0:
310,129,84870,1,0,0:0:0:0:
381,97,85630,1,8,0:0:0:0:
423,185,86199,1,0,0:0:0:0:
423,185,86769,1,8,0:0:0:0:
315,148,87908,1,8,0:0:0:0:
213,170,88288,1,12,0:0:0:0:
