osu file format v14

[General]
AudioFilename: SawanoHiroyuki[nZk]mizuki - &Z.mp3
AudioLeadIn: 0
PreviewTime: 137356
Countdown: 0
SampleSet: Soft
StackLeniency: 0.7
Mode: 0
LetterboxInBreaks: 0
WidescreenStoryboard: 0

[Editor]
Bookmarks: 3116,6153,9191,12229,15267,27419,39571,51723,63875,76027,88179,89698,101850,114002,126153,138305,148938,150457,162609,164128,188432,200584,212736,226407,250710,275014
DistanceSpacing: 1
BeatDivisor: 4
GridSize: 4
TimelineZoom: 1

[Metadata]
Title:&Z
TitleUnicode:&Z
Artist:SawanoHiroyuki[nZk]:mizuki
ArtistUnicode:SawanoHiroyuki[nZk]:mizuki
Creator:Sotarks
Version:apple's Easy
Source:アルドノア・ゼロ
Tags:澤野弘之 Aldnoah.Zero 2nd season full version appleeaterx MrSergio FCL HB24
BeatmapID:874122
BeatmapSetID:392118

[Difficulty]
HPDrainRate:2.5
CircleSize:3
OverallDifficulty:2
ApproachRate:3
SliderMultiplier:0.9
SliderTickRate:1

[Events]
//Background and Video events
0,0,"BG.jpg",0,0
//Break Periods
2,102049,112562
2,188631,198384
//Storyboard Layer 0 (Background)
//Storyboard Layer 1 (Fail)
//Storyboard Layer 2 (Pass)
//Storyboard Layer 3 (Foreground)
//Storyboard Sound Samples

[TimingPoints]
3116,379.746835443038,4,2,1,70,1,0
15267,-100,4,2,1,55,0,0
27419,-100,4,2,1,60,0,0
39571,-100,4,2,1,55,0,0
63875,-100,4,2,1,80,0,1
88179,-100,4,2,1,80,0,0
89698,-100,4,2,1,60,0,0
114002,-100,4,2,1,55,0,0
138305,-100,4,2,1,80,0,1
162609,-100,4,2,1,80,0,0
164128,-100,4,2,1,75,0,0
199824,-100,4,2,1,55,0,0
200584,-100,4,2,1,80,0,1
224888,-100,4,2,1,80,0,0
226407,-100,4,2,1,75,0,0
250710,-100,4,2,1,65,0,0
262862,-100,4,2,1,60,0,0

[Colours]
Combo1 : 91,247,255
Combo2 : 0,234,158
Combo3 : 255,239,125
Combo4 : 94,130,255

[HitObjects]
192,304,3116,6,0,B|120:316|120:316|80:304|80:304|16:316,2,180,6|8|0,0:0|0:0|0:0,0:0:0:0:
252,236,5014,1,8,0:0:0:0:
184,176,5394,2,0,P|176:132|184:76,1,90,8|2,0:0|0:0,0:0:0:0:
264,48,6153,6,0,L|456:40,1,180,12|8,0:0|0:0,0:0:0:0:
496,112,7293,1,0,0:0:0:0:
416,156,7672,2,0,P|404:204|412:248,1,90,0|8,0:0|0:0,0:0:0:0:
432,332,8432,2,0,L|336:328,1,90,8|2,0:0|0:0,0:0:0:0:
312,244,9191,6,0,P|224:240|172:308,1,180,12|8,0:0|0:0,0:0:0:0:
96,356,10331,1,0,0:0:0:0:
20,308,10710,2,0,P|12:272|12:216,1,90,0|8,0:0|0:0,0:0:0:0:
48,136,11470,2,0,L|140:144,1,90,8|2,0:0|0:0,0:0:0:0:
224,176,12229,6,0,P|256:96|208:4,2,180,12|8|0,0:0|0:0|0:0,0:0:0:0:
152,228,14128,1,8,0:0:0:0:
172,316,14508,2,0,L|268:308,1,90,8|2,0:0|0:0,0:0:0:0:
332,252,15267,6,0,L|512:238,2,180,6|8|2,0:0|0:0|0:0,0:0:0:0:
172,316,17546,1,8,0:0:0:0:
28,200,18305,6,0,P|20:160|24:112,1,90,2|2,0:0|0:0,0:0:0:0:
108,72,19065,2,0,P|192:84|272:32,1,180,8|2,0:0|0:0,0:0:0:0:
352,0,20204,1,0,0:0:0:0:
372,88,20584,2,0,L|376:184,1,90,8|0,0:0|0:0,0:0:0:0:
336,256,21343,6,0,P|252:216|168:260,1,180,2|8,0:0|0:0,0:0:0:0:
8,312,22862,2,0,L|4:212,1,90,2|2,0:0|0:0,0:0:0:0:
80,172,23622,2,0,L|88:76,1,90,8|0,0:0|0:0,0:0:0:0:
156,24,24381,6,0,P|228:28|292:116,1,180,2|8,0:0|0:0,0:0:0:0:
324,192,25521,1,0,0:0:0:0:
404,148,25900,2,0,P|408:112|396:48,2,90,0|0|8,0:0|0:0|0:0,0:0:0:0:
344,316,27419,6,0,P|272:348|188:296,1,180,6|8,0:0|0:0,0:0:0:0:
200,212,28559,1,0,0:0:0:0:
144,144,28938,2,0,L|52:156,2,90,2|2|8,0:0|0:0|0:0,0:0:0:0:
268,12,30457,6,0,P|316:44|436:28,1,180,2|8,0:0|0:0,0:0:0:0:
508,84,31597,1,0,0:0:0:0:
476,168,31976,2,0,P|488:216|480:264,1,90,2|2,0:0|0:0,0:0:0:0:
396,284,32736,2,0,L|296:292,1,90,8|0,0:0|0:0,0:0:0:0:
236,344,33495,6,0,L|56:320,1,180,2|8,0:0|0:0,0:0:0:0:
12,240,34634,1,0,0:0:0:0:
60,164,35014,2,0,L|238:140,1,180,2|8,0:0|0:0,0:0:0:0:
300,76,36153,1,0,0:0:0:0:
372,132,36533,6,0,L|360:232,2,90,2|2|8,0:0|0:0|0:0,0:0:0:0:
392,44,37672,1,2,0:0:0:0:
476,80,38052,2,0,L|488:176,1,90,2|2,0:0|0:0,0:0:0:0:
444,248,38812,1,8,0:0:0:0:
492,324,39191,1,2,0:0:0:0:
408,352,39571,6,0,B|361:345|322:375|322:375|301:331|252:332|252:332|231:285|184:276|184:276|201:227|180:160,1,360,6|0,0:0|0:0,0:0:0:0:
136,112,41470,1,0,0:0:0:0:
187,35,41850,2,0,L|282:29,1,90,0|0,0:0|0:0,0:0:0:0:
368,36,42609,6,0,P|403:121|369:216,1,180,2|2,0:0|0:0,0:0:0:0:
288,196,43748,1,0,0:0:0:0:
221,262,44128,2,0,L|125:254,2,90,2|0|2,0:0|0:0|0:0,0:0:0:0:
279,330,45267,1,0,0:0:0:0:
363,300,45647,6,0,P|424:309|503:232,1,180,2|2,0:0|0:0,0:0:0:0:
475,146,46786,1,0,0:0:0:0:
402,93,47166,2,0,P|357:76|305:87,1,90,2|0,0:0|0:0,0:0:0:0:
256,149,47926,2,0,L|261:250,1,90,2|0,0:0|0:0,0:0:0:0:
189,294,48685,6,0,P|110:326|24:245,1,180,2|2,0:0|0:0,0:0:0:0:
116,238,49824,1,0,0:0:0:0:
47,179,50204,2,0,P|126:147|212:228,1,180,2|2,0:0|0:0,0:0:0:0:
272,248,51343,1,2,0:0:0:0:
325,175,51723,6,0,L|319:69,2,90,6|0|8,0:0|0:0|0:0,0:0:0:0:
272,248,52862,1,0,0:0:0:0:
340,306,53242,2,0,P|390:305|439:286,1,90,2|2,0:0|0:0,0:0:0:0:
471,213,54002,2,0,L|481:25,1,180,8|2,0:0|0:0,0:0:0:0:
392,20,55141,5,0,0:0:0:0:
324,80,55521,2,0,L|319:181,1,90,8|0,0:0|0:0,0:0:0:0:
272,248,56280,2,0,P|226:258|177:243,1,90,2|2,0:0|0:0,0:0:0:0:
147,165,57040,2,0,P|58:160|-5:244,1,180,8|2,0:0|0:0,0:0:0:0:
124,351,58559,5,8,0:0:0:0:
272,248,59318,2,0,L|457:240,1,180,0|8,0:0|0:0,0:0:0:0:
500,164,60457,1,0,0:0:0:0:
431,105,60837,6,0,P|428:62|439:13,2,90,2|2|10,0:0|0:0|0:0,0:0:0:0:
451,240,62166,1,8,0:0:0:0:
280,92,63116,2,0,P|220:95|189:116,1,90,8|0,0:0|0:0,0:0:0:0:
116,152,63875,6,0,L|106:-12,2,135,6|8|8,0:0|0:0|0:0,0:0:0:0:
122,241,65394,2,0,P|49:251|-11:201,2,135,8|8|8,0:0|0:0|0:0,0:0:0:0:
202,199,66913,5,12,0:0:0:0:
272,314,67483,2,0,L|413:306,1,135,12|12,0:0|0:0,0:0:0:0:
474,246,68432,2,0,L|480:153,1,90,0|0,0:0|0:0,0:0:0:0:
461,68,69191,1,8,0:0:0:0:
372,84,69571,1,8,0:0:0:0:
297,33,69951,6,0,P|236:9|169:37,2,135,14|8|8,0:0|0:0|0:0,0:0:0:0:
234,98,71470,2,0,L|231:196,1,90,12|0,0:0|0:0,0:0:0:0:
155,235,72229,2,0,L|163:329,1,90,2|8,0:0|0:0,0:0:0:0:
247,355,72989,6,0,B|333:323|337:380|423:343,1,180,12|0,0:0|0:0,0:0:0:0:
475,270,74128,2,0,P|479:223|468:172,1,90,8|4,0:0|0:0,0:0:0:0:
408,116,74888,1,0,0:0:0:0:
337,171,75267,2,0,L|242:164,1,90,12|12,0:0|0:0,0:0:0:0:
168,120,76027,5,6,0:0:0:0:
79,137,76407,1,8,0:0:0:0:
41,218,76786,2,0,L|45:314,1,90
122,353,77546,2,0,P|203:368|281:312,1,180,4|0,0:0|0:0,0:0:0:0:
263,226,78685,1,0,0:0:0:0:
292,140,79065,6,0,L|478:124,1,180,6|0,0:0|0:0,0:0:0:0:
511,43,80204,1,8,0:0:0:0:
423,21,80584,2,0,L|328:28,1,90,0|8,0:0|0:0,0:0:0:0:
247,56,81343,2,0,L|156:62,1,90,0|8,0:0|0:0,0:0:0:0:
79,15,82103,6,0,P|44:69|75:182,1,180,6|0,0:0|0:0,0:0:0:0:
149,215,83242,1,0,0:0:0:0:
80,273,83622,2,0,P|74:338|84:367,1,90,0|8,0:0|0:0,0:0:0:0:
161,319,84381,2,0,L|262:309,1,90,0|0,0:0|0:0,0:0:0:0:
331,270,85141,6,0,P|355:184|313:97,1,180,2|0,0:0|0:0,0:0:0:0:
238,65,86280,2,0,B|166:75|166:75|134:55|134:55|60:64,1,180,12|12,0:0|0:0,0:0:0:0:
3,128,87419,1,0,0:0:0:0:
31,213,87799,2,0,L|124:204,1,90,12|2,0:0|0:0,0:0:0:0:
448,353,89698,6,0,L|459:163,1,180,4|8,0:0|0:0,0:0:0:0:
432,87,90837,1,2,0:0:0:0:
348,120,91217,2,0,L|255:126,1,90
178,166,91976,2,0,P|169:221|176:260,1,90,8|2,0:0|0:0,0:0:0:0:
202,340,92736,6,0,P|125:362|43:286,2,180,0|8|0,0:0|0:0|0:0,0:0:0:0:
265,275,94634,1,0,0:0:0:0:
344,316,95014,2,0,L|451:307,1,90,8|0,0:0|0:0,0:0:0:0:
470,226,95774,6,0,P|492:139|435:48,1,180,6|8,0:0|0:0,0:0:0:0:
371,24,96913,1,2,0:0:0:0:
308,88,97293,2,0,P|297:136|303:183,1,90,0|2,0:0|0:0,0:0:0:0:
374,228,98052,2,0,L|366:319,1,90,8|0,0:0|0:0,0:0:0:0:
283,354,98812,6,0,P|194:371|138:292,1,180,2|0,0:0|0:0,0:0:0:0:
184,144,100331,2,0,P|187:95|172:49,2,90,0|0|10,0:0|0:0|0:0,0:0:0:0:
131,221,101470,2,0,P|128:270|143:316,1,90,8|0,0:0|0:0,0:0:0:0:
322,337,114002,6,0,L|460:323,2,135,2|2|2,0:0|0:0|0:0,0:0:0:0:
278,257,115521,1,0,0:0:0:0:
214,193,115900,2,0,L|123:189,2,90,0|2|0,0:0|0:0|0:0,0:0:0:0:
265,118,117040,6,0,P|336:66|428:85,1,180,2|0,0:0|0:0,0:0:0:0:
479,150,118179,1,0,0:0:0:0:
444,233,118559,2,0,L|438:329,1,90,0|0,0:0|0:0,0:0:0:0:
363,372,119318,2,0,L|271:362,1,90,0|2,0:0|0:0,0:0:0:0:
239,278,120078,6,0,L|61:299,1,180
34,212,121217,2,0,P|2:144|48:28,1,180,2|0,0:0|0:0,0:0:0:0:
116,66,122356,2,0,L|211:56,1,90,2|0,0:0|0:0,0:0:0:0:
284,13,123116,5,2,0:0:0:0:
358,63,123495,2,0,P|370:110|366:157,1,90,0|0,0:0|0:0,0:0:0:0:
286,191,124255,2,0,P|222:139|135:177,1,180,2|0,0:0|0:0,0:0:0:0:
94,249,125394,2,0,L|99:343,1,90,2|2,0:0|0:0,0:0:0:0:
182,370,126153,5,4,0:0:0:0:
260,326,126533,2,0,P|315:314|352:316,1,90
433,345,127293,1,0,0:0:0:0:
486,272,127672,2,0,P|496:228|486:174,1,90,2|0,0:0|0:0,0:0:0:0:
407,147,128432,6,0,L|228:139,1,180,0|2,0:0|0:0,0:0:0:0:
153,87,129571,1,0,0:0:0:0:
118,170,129951,2,0,L|124:263,1,90,0|0,0:0|0:0,0:0:0:0:
159,342,130710,2,0,L|261:332,1,90,0|0,0:0|0:0,0:0:0:0:
334,308,131470,2,0,P|403:330|492:249,1,180,0|2,0:0|0:0,0:0:0:0:
377,127,132989,5,0,0:0:0:0:
216,46,133748,2,0,L|25:36,1,180,0|0,0:0|0:0,0:0:0:0:
14,215,135267,2,0,L|106:207,1,90
184,168,136027,2,0,P|219:251|198:338,1,180
380,351,137546,2,0,L|477:342,1,90,0|0,0:0|0:0,0:0:0:0:
469,252,138305,6,0,L|370:246,1,90,6|8,0:0|0:0,0:0:0:0:
300,290,139065,2,0,L|156:283,1,135,0|8,0:0|0:0,0:0:0:0:
84,243,140014,1,0,0:0:0:0:
84,152,140394,2,0,P|134:117|212:131,1,135
280,173,141343,6,0,P|294:94|269:-11,2,180,4|0|0,0:0|0:0|0:0,0:0:0:0:
224,244,143242,1,8,0:0:0:0:
163,177,143622,2,0,L|41:172,1,90,0|8,0:0|0:0,0:0:0:0:
24,97,144381,6,0,P|101:40|193:79,1,180,4|0,0:0|0:0,0:0:0:0:
246,117,145521,1,0,0:0:0:0:
273,202,145900,2,0,P|264:253|267:301,1,90,0|8,0:0|0:0,0:0:0:0:
343,338,146660,2,0,L|434:329,1,90,0|8,0:0|0:0,0:0:0:0:
472,248,147419,6,0,B|498:159|444:160|475:69,1,180,4|0,0:0|0:0,0:0:0:0:
408,9,148559,1,8,0:0:0:0:
336,60,148938,2,0,L|240:55,1,90,0|8,0:0|0:0,0:0:0:0:
161,90,149698,2,0,P|147:140|157:187,1,90,8|10,0:0|0:0,0:0:0:0:
230,222,150457,6,0,L|413:211,1,180,4|0,0:0|0:0,0:0:0:0:
481,156,151597,1,8,0:0:0:0:
419,90,151976,2,0,L|321:95,1,90,0|8,0:0|0:0,0:0:0:0:
240,113,152736,1,0,0:0:0:0:
151,96,153116,1,0,0:0:0:0:
80,151,153495,6,0,P|46:231|89:323,1,180,6|0,0:0|0:0,0:0:0:0:
159,352,154634,1,8,0:0:0:0:
233,302,155014,2,0,L|325:291,1,90,0|8,0:0|0:0,0:0:0:0:
376,219,155774,2,0,L|478:209,1,90,0|8,0:0|0:0,0:0:0:0:
468,120,156533,6,0,P|393:71|306:96,1,180,6|0,0:0|0:0,0:0:0:0:
240,149,157672,1,0,0:0:0:0:
172,208,158052,2,0,L|63:204,1,90,0|8,0:0|0:0,0:0:0:0:
79,294,158812,2,0,L|188:300,1,90,0|0,0:0|0:0,0:0:0:0:
250,261,159571,6,0,P|317:273|382:341,2,135,2|0|12,0:0|0:0|0:0,0:0:0:0:
172,208,161090,1,0,0:0:0:0:
240,149,161470,1,12,0:0:0:0:
169,92,161850,2,0,P|164:38|171:-12,2,90,12|12|2,0:0|0:0|0:0,0:0:0:0:
424,346,164128,6,0,L|330:341,1,90,6|0,0:0|0:0,0:0:0:0:
254,298,164888,2,0,P|181:345|87:327,1,180,8|0,0:0|0:0,0:0:0:0:
38,258,166027,1,8,0:0:0:0:
103,196,166407,2,0,L|100:106,1,90,8|0,0:0|0:0,0:0:0:0:
156,35,167166,6,0,P|216:10|315:77,1,180,8|8,0:0|0:0,0:0:0:0:
342,147,168305,2,0,L|331:330,1,180,0|8,0:0|0:0,0:0:0:0:
244,350,169445,2,0,L|250:253,1,90,8|0,0:0|0:0,0:0:0:0:
178,205,170204,6,0,P|114:230|15:153,2,180,8|8|0,0:0|0:0|0:0,0:0:0:0:
239,139,172103,1,8,0:0:0:0:
301,204,172483,2,0,L|294:293,1,90,8|0,0:0|0:0,0:0:0:0:
381,314,173242,6,0,L|388:216,1,90,8|0,0:0|0:0,0:0:0:0:
452,162,174002,1,8,0:0:0:0:
364,59,174571,2,0,P|319:66|251:38,1,90,8|0,0:0|0:0,0:0:0:0:
191,25,175331,2,0,P|161:73|170:178,1,135
246,169,176280,6,0,P|257:217|253:264,1,90,12|0,0:0|0:0,0:0:0:0:
213,337,177040,2,0,B|127:309|123:362|33:328,1,180,8|0,0:0|0:0,0:0:0:0:
5,244,178179,1,8,0:0:0:0:
56,170,178559,2,0,L|49:75,1,90,8|0,0:0|0:0,0:0:0:0:
131,44,179318,6,0,P|193:80|299:36,1,180,8|8,0:0|0:0,0:0:0:0:
423,65,180647,2,0,P|442:114|436:163,1,90,8|0,0:0|0:0,0:0:0:0:
358,189,181407,2,0,L|370:339,1,135
283,351,182356,6,0,P|196:361|131:275,1,180,12|8,0:0|0:0,0:0:0:0:
152,212,183495,1,0,0:0:0:0:
200,136,183875,2,0,L|293:131,1,90,0|8,0:0|0:0,0:0:0:0:
348,64,184634,2,0,L|451:74,1,90,8|0,0:0|0:0,0:0:0:0:
484,148,185394,6,0,P|443:187|453:305,1,180,8|8,0:0|0:0,0:0:0:0:
372,344,186533,1,0,0:0:0:0:
300,288,186913,2,0,P|257:274|197:277,1,90,8|8,0:0|0:0,0:0:0:0:
92,336,187862,2,0,L|98:196,1,135,10|0,0:0|0:0,0:0:0:0:
85,100,199824,6,0,L|178:92,1,90,0|0,0:0|0:0,0:0:0:0:
251,44,200584,2,0,P|330:33|399:85,2,135,2|8|8,0:0|0:0|0:0,0:0:0:0:
251,134,202103,2,0,L|241:280,2,135,8|8|8,0:0|0:0|0:0,0:0:0:0:
340,144,203622,6,0,L|511:128,2,135,12|12|12,0:0|0:0|0:0,0:0:0:0:
251,134,205141,2,0,L|151:128,1,90,0|0,0:0|0:0,0:0:0:0:
76,158,205900,1,12,0:0:0:0:
60,246,206280,1,12,0:0:0:0:
120,312,206660,6,0,P|199:336|281:284,1,180,4|0,0:0|0:0,0:0:0:0:
310,204,207799,1,8,0:0:0:0:
376,264,208179,2,0,L|476:255,1,90,8|0,0:0|0:0,0:0:0:0:
504,174,208938,2,0,L|410:165,1,90,0|8,0:0|0:0,0:0:0:0:
345,107,209698,6,0,P|251:98|199:176,1,180,6|0,0:0|0:0,0:0:0:0:
223,245,210837,1,12,0:0:0:0:
166,315,211217,2,0,L|69:323,1,90,0|0,0:0|0:0,0:0:0:0:
20,251,211976,2,0,P|7:203|18:152,1,90,12|12,0:0|0:0,0:0:0:0:
80,104,212736,6,0,L|263:109,1,180,6|0,0:0|0:0,0:0:0:0:
345,76,213875,1,8,0:0:0:0:
429,105,214255,2,0,P|440:141|439:197,1,90,0|8,0:0|0:0,0:0:0:0:
362,238,215014,2,0,L|269:232,1,90,0|0,0:0|0:0,0:0:0:0:
187,202,215774,6,0,P|112:233|33:175,1,180,2|0,0:0|0:0,0:0:0:0:
117,143,216913,1,8,0:0:0:0:
89,57,217293,2,0,L|187:48,1,90,0|8,0:0|0:0,0:0:0:0:
263,77,218052,2,0,L|274:171,1,90,0|8,0:0|0:0,0:0:0:0:
297,253,218812,6,0,P|381:281|447:226,1,180,6|0,0:0|0:0,0:0:0:0:
507,58,220331,2,0,P|423:30|357:85,1,180
297,253,221850,6,0,B|235:236|235:236|186:258|186:258|115:238,1,180,2|0,0:0|0:0,0:0:0:0:
51,191,222989,2,0,P|17:137|53:27,1,180,12|12,0:0|0:0,0:0:0:0:
134,57,224128,1,12,0:0:0:0:
219,29,224508,2,0,L|320:24,1,90,12|2,0:0|0:0,0:0:0:0:
464,349,226407,6,0,L|371:355,1,90,6|0,0:0|0:0,0:0:0:0:
291,319,227166,2,0,P|255:251|311:165,1,180,8|0,0:0|0:0,0:0:0:0:
374,114,228305,1,8,0:0:0:0:
308,52,228685,2,0,L|209:46,1,90,8|0,0:0|0:0,0:0:0:0:
132,17,229445,6,0,L|121:203,1,180,8|8,0:0|0:0,0:0:0:0:
118,286,230584,2,0,P|201:310|275:244,1,180,0|8,0:0|0:0,0:0:0:0:
263,166,231723,2,0,L|269:76,1,90,8|0,0:0|0:0,0:0:0:0:
347,31,232483,6,0,L|438:33,1,90,12|0,0:0|0:0,0:0:0:0:
482,110,233242,2,0,P|499:199|472:288,1,180,8|0,0:0|0:0,0:0:0:0:
398,331,234381,1,8,0:0:0:0:
315,294,234761,2,0,L|220:303,1,90,8|0,0:0|0:0,0:0:0:0:
138,327,235521,6,0,L|45:323,1,90,8|0,0:0|0:0,0:0:0:0:
7,242,236280,1,8,0:0:0:0:
108,153,236850,2,0,L|211:145,1,90,8|0,0:0|0:0,0:0:0:0:
277,104,237609,2,0,P|304:173|292:250,1,135
279,320,238559,6,0,L|462:303,1,180,12|8,0:0|0:0,0:0:0:0:
467,123,240078,2,0,L|366:132,1,90,0|8,0:0|0:0,0:0:0:0:
301,179,240837,2,0,L|203:178,1,90,8|0,0:0|0:0,0:0:0:0:
161,102,241597,6,0,P|120:183|171:269,1,180,8|8,0:0|0:0,0:0:0:0:
277,316,242926,2,0,L|371:307,1,90,8|0,0:0|0:0,0:0:0:0:
452,281,243685,2,0,P|466:225|435:153,1,135
351,129,244634,6,0,L|249:126,1,90,12|0,0:0|0:0,0:0:0:0:
179,86,245394,2,0,P|95:78|18:161,1,180,8|0,0:0|0:0,0:0:0:0:
17,226,246533,1,8,0:0:0:0:
76,292,246913,2,0,P|160:300|237:217,1,180,8|2,0:0|0:0,0:0:0:0:
252,152,248052,5,0,0:0:0:0:
343,161,248432,2,0,L|437:155,1,90,12|0,0:0|0:0,0:0:0:0:
439,65,249191,2,0,B|385:27|310:67|310:67|242:11|165:44,1,270
130,107,250710,6,0,L|138:197,1,90
112,283,251470,2,0,P|175:310|269:238,1,180
286,168,252609,1,0,0:0:0:0:
364,211,252989,2,0,L|370:304,1,90,2|0,0:0|0:0,0:0:0:0:
458,318,253748,6,0,L|448:128,1,180,2|0,0:0|0:0,0:0:0:0:
431,49,254888,2,0,P|348:28|269:81,1,180,2|0,0:0|0:0,0:0:0:0:
286,168,256027,2,0,L|279:263,1,90,0|0,0:0|0:0,0:0:0:0:
229,332,256786,6,0,B|165:322|165:322|118:340|118:340|40:323,1,180,2|0,0:0|0:0,0:0:0:0:
23,241,257926,2,0,L|14:138,1,90,0|0,0:0|0:0,0:0:0:0:
105,122,258685,2,0,L|112:27,1,90,0|0,0:0|0:0,0:0:0:0:
199,10,259445,1,2,0:0:0:0:
272,61,259824,6,0,P|341:72|411:23,2,135,0|2|2,0:0|0:0|0:0,0:0:0:0:
216,132,261343,2,0,L|210:236,1,90,0|0,0:0|0:0,0:0:0:0:
245,305,262103,2,0,L|335:299,1,90,0|0,0:0|0:0,0:0:0:0:
424,304,262862,6,0,L|418:212,1,90,2|0,0:0|0:0,0:0:0:0:
389,128,263622,2,0,B|343:114|301:133|301:133|260:92|191:107,1,180,2|2,0:0|0:0,0:0:0:0:
44,61,265141,2,0,P|31:119|41:173,1,90
76,228,265900,6,0,L|270:212,1,180,2|0,0:0|0:0,0:0:0:0:
321,151,267040,1,0,0:0:0:0:
407,174,267419,2,0,P|451:245|401:353,1,180
245,331,268938,6,0,B|160:304|153:361|62:322,1,180,2|0,0:0|0:0,0:0:0:0:
22,247,270078,1,0,0:0:0:0:
72,172,270457,2,0,P|132:199|227:129,1,180,0|0,0:0|0:0,0:0:0:0:
263,62,271597,1,0,0:0:0:0:
340,106,271976,5,2,0:0:0:0:
256,192,272166,12,0,275014,0:0:0:0:
