osu file format v14

[General]
AudioFilename: SawanoHiroyuki[nZk]mizuki - &Z.mp3
AudioLeadIn: 0
PreviewTime: 137356
Countdown: 0
SampleSet: Soft
StackLeniency: 0.4
Mode: 0
LetterboxInBreaks: 0
WidescreenStoryboard: 0

[Editor]
Bookmarks: 199824,250710,262862
DistanceSpacing: 1.2
BeatDivisor: 4
GridSize: 32
TimelineZoom: 1.6

[Metadata]
Title:&Z
TitleUnicode:&Z
Artist:SawanoHiroyuki[nZk]:mizuki
ArtistUnicode:SawanoHiroyuki[nZk]:mizuki
Creator:Sotarks
Version:MrSergio's Hard
Source:アルドノア・ゼロ
Tags:澤野弘之 Aldnoah.Zero 2nd season full version appleeaterx MrSergio FCL HB24
BeatmapID:875825
BeatmapSetID:392118

[Difficulty]
HPDrainRate:5.5
CircleSize:4
OverallDifficulty:6
ApproachRate:7
SliderMultiplier:1.6
SliderTickRate:1

[Events]
//Background and Video events
0,0,"BG.jpg",0,0
//Break Periods
2,102050,113102
2,188432,198924
//Storyboard Layer 0 (Background)
//Storyboard Layer 1 (Fail)
//Storyboard Layer 2 (Pass)
//Storyboard Layer 3 (Foreground)
//Storyboard Sound Samples

[TimingPoints]
3116,379.746835443038,4,2,69,75,1,0
3305,-100,4,2,1,60,0,0
3875,-100,4,2,1,70,0,0
4065,-100,4,2,1,60,0,0
4445,-100,4,2,1,70,0,0
4634,-100,4,2,1,60,0,0
5014,-100,4,2,1,70,0,0
5204,-100,4,2,1,60,0,0
5394,-100,4,2,1,70,0,0
5584,-100,4,2,1,60,0,0
6153,-100,4,2,1,80,0,0
6343,-100,4,2,1,60,0,0
6913,-100,4,2,1,70,0,0
7103,-100,4,2,1,60,0,0
7483,-100,4,2,1,70,0,0
7672,-100,4,2,1,60,0,0
8052,-100,4,2,1,70,0,0
8242,-100,4,2,1,60,0,0
8432,-100,4,2,1,70,0,0
8622,-100,4,2,1,60,0,0
9191,-100,4,2,1,85,0,0
9381,-100,4,2,1,60,0,0
9951,-100,4,2,1,70,0,0
10141,-100,4,2,1,60,0,0
10521,-100,4,2,1,70,0,0
10710,-100,4,2,1,60,0,0
11090,-100,4,2,1,70,0,0
11280,-100,4,2,1,60,0,0
11470,-100,4,2,1,70,0,0
11660,-100,4,2,1,60,0,0
12229,-100,4,2,1,90,0,0
12419,-100,4,2,1,65,0,0
12989,-100,4,2,1,80,0,0
13179,-100,4,2,1,65,0,0
13559,-100,4,2,1,80,0,0
13748,-100,4,2,1,65,0,0
14128,-100,4,2,1,80,0,0
14318,-100,4,2,1,65,0,0
14508,-100,4,2,1,80,0,0
14698,-100,4,2,1,65,0,0
14888,-100,4,2,1,70,0,0
15078,-100,4,2,1,85,0,0
15267,-100,4,2,1,40,0,0
27419,-100,4,2,1,50,0,0
39571,-100,4,2,1,40,0,0
57799,-100,4,2,1,50,0,0
59318,-100,4,2,1,60,0,0
60837,-100,4,2,1,70,0,0
62166,-100,4,2,1,80,0,0
63116,-100,4,2,1,100,0,0
63685,-100,4,2,1,60,0,0
63875,-100,4,2,69,40,0,1
64065,-100,4,2,1,90,0,1
74508,-100,4,2,1,80,0,1
75647,-100,4,2,1,80,0,0
76027,-100,4,2,1,90,0,1
85141,-100,4,2,69,90,0,1
85331,-100,4,2,1,90,0,1
88179,-100,4,2,1,60,0,0
114191,-100,4,2,3,40,0,0
114571,-100,4,2,3,60,0,0
114761,-100,4,2,3,30,0,0
115141,-100,4,2,3,40,0,0
115710,-100,4,2,3,60,0,0
115900,-100,4,2,3,40,0,0
116280,-100,4,2,3,60,0,0
116470,-100,4,2,3,30,0,0
117040,-100,4,2,3,60,0,0
117229,-100,4,2,3,40,0,0
117609,-100,4,2,3,60,0,0
117799,-100,4,2,3,40,0,0
117989,-100,4,2,3,30,0,0
118179,-100,4,2,3,40,0,0
118748,-100,4,2,3,60,0,0
118938,-100,4,2,3,40,0,0
119318,-100,4,2,3,50,0,0
119698,-100,4,2,3,60,0,0
119888,-100,4,2,3,30,0,0
119983,-100,4,2,3,40,0,0
120078,-100,4,2,3,60,0,0
120267,-100,4,2,3,40,0,0
120457,-100,4,2,3,30,0,0
120647,-100,4,2,3,60,0,0
120837,-100,4,2,3,40,0,0
121217,-100,4,2,3,60,0,0
121407,-100,4,2,3,40,0,0
121786,-100,4,2,3,60,0,0
121976,-100,4,2,3,40,0,0
122356,-100,4,2,3,60,0,0
122546,-100,4,2,3,30,0,0
122736,-100,4,2,3,40,0,0
122926,-100,4,2,3,50,0,0
123116,-100,4,2,3,60,0,0
123305,-100,4,2,3,40,0,0
123685,-100,4,2,3,60,0,0
123875,-100,4,2,3,30,0,0
124255,-100,4,2,3,40,0,0
124824,-100,4,2,3,60,0,0
125014,-100,4,2,3,30,0,0
125394,-100,4,2,3,60,0,0
125584,-100,4,2,3,40,0,0
125774,-100,4,2,3,50,0,0
125964,-100,4,2,3,60,0,0
126153,-100,4,2,3,40,0,0
135267,-100,4,2,3,15,0,0
135647,-100,4,2,3,20,0,0
135837,-100,4,2,3,25,0,0
136027,-100,4,2,3,30,0,0
136217,-100,4,2,3,35,0,0
136407,-100,4,2,3,40,0,0
136597,-100,4,2,3,45,0,0
137546,-100,4,2,2,20,0,0
137831,-100,4,2,2,5,0,0
137926,-100,4,2,2,20,0,0
138210,-100,4,2,2,5,0,0
138305,-100,4,2,69,100,0,1
138495,-100,4,2,2,100,0,1
148938,-100,4,2,1,80,0,1
150078,-100,4,2,1,80,0,0
150457,-100,4,2,1,90,0,1
159571,-100,4,2,69,90,0,1
159761,-100,4,2,1,90,0,1
162609,-100,4,2,1,30,0,0
164128,-100,4,2,69,40,0,0
164318,-100,4,2,1,90,0,0
188432,-100,4,2,2,30,0,0
199824,-100,4,2,2,50,0,0
200109,-100,4,2,2,5,0,0
200204,-100,4,2,2,50,0,0
200394,-100,4,2,2,30,0,0
200489,-100,4,2,2,30,0,0
200584,-100,4,2,69,100,0,1
200774,-100,4,2,2,100,0,1
209698,-100,4,2,69,100,0,1
209888,-100,4,2,2,100,0,1
211217,-100,4,2,2,80,0,1
212356,-100,4,2,2,80,0,0
212736,-100,4,2,1,90,0,1
221850,-100,4,2,69,90,0,1
222040,-100,4,2,1,90,0,1
224888,-100,4,2,1,40,0,0
226407,-100,4,2,69,40,0,0
226597,-100,4,2,1,90,0,0
247672,-100,4,2,69,90,0,0
247862,-100,4,2,1,90,0,0
250710,-125,4,2,69,60,0,0
250900,-125,4,2,3,60,0,0
263242,-125,4,2,3,40,0,0
267229,-125,4,2,3,50,0,0
267419,-125,4,2,3,50,0,0
267609,-125,4,2,3,55,0,0
267799,-125,4,2,3,55,0,0
267989,-125,4,2,3,60,0,0
268179,-125,4,2,3,60,0,0
268369,-125,4,2,3,70,0,0
268559,-125,4,2,3,70,0,0
268748,-125,4,2,3,70,0,0
268938,-125,4,2,3,80,0,0
269128,-125,4,2,3,55,0,0
269508,-125,4,2,3,50,0,0
269888,-125,4,2,3,40,0,0
270267,-125,4,2,3,35,0,0
271407,-125,4,2,3,55,0,0
271597,-125,4,2,3,40,0,0
271976,-125,4,2,3,50,0,0

[Colours]
Combo1 : 91,247,255
Combo2 : 0,234,158
Combo3 : 255,239,125
Combo4 : 94,130,255

[HitObjects]
433,225,3116,6,0,L|424:317,2,80,2|0|0,0:0|0:0|0:0,0:0:0:0:
406,132,3685,1,0,0:0:0:0:
340,202,3875,2,0,P|278:231|171:174,1,160,8|0,0:0|0:0,0:0:0:0:
265,143,4445,2,0,L|261:318,1,160,8|0,0:0|0:0,0:0:0:0:
175,345,5014,2,0,P|114:346|70:336,1,80,8|0,0:0|0:0,0:0:0:0:
32,226,5394,2,0,P|88:248|193:258,1,160,8|2,0:0|0:0,0:0:0:0:
235,175,5964,1,2,0:0:0:0:
289,253,6153,5,12,0:0:0:0:
289,253,6343,1,0,0:0:0:0:
383,234,6533,2,0,L|472:239,1,80,0|0,0:0|0:0,0:0:0:0:
383,234,6913,2,0,P|361:173|399:73,1,160,8|0,0:0|0:0,0:0:0:0:
327,160,7483,2,0,P|283:176|168:148,1,160,8|0,0:0|0:0,0:0:0:0:
115,77,8052,2,0,L|11:95,1,80,8|0,0:0|0:0,0:0:0:0:
175,153,8432,2,0,L|253:139,2,80,8|0|2,0:0|0:0|0:0,0:0:0:0:
86,190,9002,1,2,0:0:0:0:
43,275,9191,5,12,0:0:0:0:
43,275,9381,1,0,0:0:0:0:
138,264,9571,2,0,P|179:269|216:290,1,80,0|0,0:0|0:0,0:0:0:0:
276,359,9951,2,0,P|300:319|420:291,1,160,8|0,0:0|0:0,0:0:0:0:
477,224,10521,2,0,B|469:127|469:127|440:197,1,160,8|0,0:0|0:0,0:0:0:0:
384,110,11090,2,0,L|358:21,1,80,8|0,0:0|0:0,0:0:0:0:
289,97,11470,2,0,P|229:63|128:85,1,160,8|2,0:0|0:0,0:0:0:0:
65,135,12040,1,2,0:0:0:0:
35,225,12229,6,0,L|52:320,2,80,12|0|0,0:0|0:0|0:0,0:0:0:0:
65,135,12799,1,0,0:0:0:0:
104,47,12989,2,0,L|198:31,2,80,8|0|0,0:0|0:0|0:0,0:0:0:0:
166,120,13559,2,0,L|338:87,1,160,8|0,0:0|0:0,0:0:0:0:
390,158,14128,2,0,P|401:198|379:259,1,80,8|0,0:0|0:0,0:0:0:0:
414,72,14508,2,0,P|443:42|506:31,1,80
478,30,14888,1,2,0:0:0:0:
478,29,15078,1,2,0:0:0:0:
495,124,15267,5,6,0:0:0:0:
303,114,15647,1,2,0:0:0:0:
111,101,16027,2,0,L|21:94,2,80,8|0|0,0:0|0:0|0:0,0:0:0:0:
303,114,16786,5,2,0:0:0:0:
181,263,17166,1,2,0:0:0:0:
371,290,17546,1,8,0:0:0:0:
371,290,17926,1,0,0:0:0:0:
181,263,18305,5,2,0:0:0:0:
371,290,18685,1,2,0:0:0:0:
303,114,19065,2,0,B|300:61|300:61|314:38,2,80,8|0|0,0:0|0:0|0:0,0:0:0:0:
371,290,19824,5,2,0:0:0:0:
181,263,20204,1,0,0:0:0:0:
371,290,20584,1,8,0:0:0:0:
371,290,20964,1,0,0:0:0:0:
181,263,21343,5,2,0:0:0:0:
88,94,21723,1,2,0:0:0:0:
181,263,22103,2,0,B|172:314|172:314|145:352,2,80,8|0|0,0:0|0:0|0:0,0:0:0:0:
316,127,22862,5,2,0:0:0:0:
401,299,23242,1,2,0:0:0:0:
209,288,23622,2,0,L|220:199,1,80,8|0,0:0|0:0,0:0:0:0:
180,120,24002,1,0,0:0:0:0:
23,230,24381,5,2,0:0:0:0:
23,230,24761,1,0,0:0:0:0:
192,320,25141,2,0,L|280:335,2,80,8|0|0,0:0|0:0|0:0,0:0:0:0:
23,230,25900,5,0,0:0:0:0:
180,120,26280,1,0,0:0:0:0:
289,277,26660,2,0,P|344:295|447:269,1,160,8|0,0:0|0:0,0:0:0:0:
269,187,27419,6,0,L|180:216,1,80,4|0,0:0|0:0,0:0:0:0:
96,205,27799,1,0,0:0:0:0:
96,205,27989,1,0,0:0:0:0:
145,122,28179,2,0,L|221:97,1,80,8|0,0:0|0:0,0:0:0:0:
287,27,28559,1,0,0:0:0:0:
287,27,28938,6,0,P|313:68|354:84,1,80,2|0,0:0|0:0,0:0:0:0:
431,113,29318,2,0,P|405:154|364:170,1,80,2|0,0:0|0:0,0:0:0:0:
283,189,29698,1,8,0:0:0:0:
345,261,29888,1,0,0:0:0:0:
250,279,30078,2,0,L|156:293,1,80,0|0,0:0|0:0,0:0:0:0:
81,256,30457,6,0,P|71:179|39:104,2,160,0|0|8,0:0|0:0|0:0,0:0:0:0:
41,344,31407,1,0,0:0:0:0:
41,344,31597,1,0,0:0:0:0:
168,200,31976,6,0,P|201:170|244:155,1,80,2|0,0:0|0:0,0:0:0:0:
223,60,32356,2,0,P|280:63|332:94,1,80,2|0,0:0|0:0,0:0:0:0:
330,163,32736,1,8,0:0:0:0:
280,245,32926,1,0,0:0:0:0:
191,282,33116,1,0,0:0:0:0:
382,295,33495,5,2,0:0:0:0:
317,113,33875,2,0,B|262:90|214:92|214:92|247:142,2,160,2|8|0,0:0|0:0|0:0,0:0:0:0:
191,282,35014,6,0,L|95:296,1,80,2|0,0:0|0:0,0:0:0:0:
29,195,35394,2,0,L|125:209,1,80,2|0,0:0|0:0,0:0:0:0:
196,107,35774,2,0,P|157:123|100:121,1,80,8|0,0:0|0:0,0:0:0:0:
144,35,36153,2,0,P|183:19|240:21,1,80,0|0,0:0|0:0,0:0:0:0:
290,83,36533,6,0,L|311:176,1,80,2|0,0:0|0:0,0:0:0:0:
257,243,36913,2,0,L|278:336,1,80,2|0,0:0|0:0,0:0:0:0:
365,353,37293,1,8,0:0:0:0:
365,353,37483,1,0,0:0:0:0:
274,321,37672,2,0,P|229:317|189:338,1,80,2|2,0:0|0:0,0:0:0:0:
113,378,38052,5,2,0:0:0:0:
17,211,38432,1,2,0:0:0:0:
112,44,38812,2,0,P|164:61|198:61,1,80,8|0,0:0|0:0,0:0:0:0:
278,28,39191,1,2,0:0:0:0:
410,166,39571,5,6,0:0:0:0:
410,166,39951,1,0,0:0:0:0:
259,285,40331,2,0,B|253:236|253:236|291:99,1,160,0|0,0:0|0:0,0:0:0:0:
139,257,41090,5,0,0:0:0:0:
139,257,41470,1,0,0:0:0:0:
218,82,41850,1,0,0:0:0:0:
27,101,42229,1,0,0:0:0:0:
139,257,42609,6,0,B|201:263|201:263|238:286|238:286|312:295,1,160,2|0,0:0|0:0,0:0:0:0:
155,156,43369,1,2,0:0:0:0:
337,97,43748,1,0,0:0:0:0:
291,292,44128,5,2,0:0:0:0:
291,292,44508,1,0,0:0:0:0:
109,356,44888,1,2,0:0:0:0:
144,167,45267,1,0,0:0:0:0:
291,292,45647,6,0,P|346:274|386:175,1,160,2|0,0:0|0:0,0:0:0:0:
347,98,46217,1,0,0:0:0:0:
261,55,46407,2,0,L|157:79,1,80,2|0,0:0|0:0,0:0:0:0:
88,54,46786,1,0,0:0:0:0:
88,54,46976,1,0,0:0:0:0:
42,181,47166,6,0,B|73:196|73:196|198:193,1,160,2|0,0:0|0:0,0:0:0:0:
262,122,47736,1,0,0:0:0:0:
198,193,47926,2,0,P|198:237|219:270,1,80,2|0,0:0|0:0,0:0:0:0:
288,204,48305,1,0,0:0:0:0:
288,204,48495,1,0,0:0:0:0:
307,297,48685,6,0,P|284:331|244:359,1,80,2|0,0:0|0:0,0:0:0:0:
216,267,49065,1,0,0:0:0:0:
307,297,49255,2,0,B|416:300|416:300|362:252,1,160,0|0,0:0|0:0,0:0:0:0:
304,204,49824,1,0,0:0:0:0:
304,204,50204,5,2,0:0:0:0:
281,110,50394,1,0,0:0:0:0:
214,178,50584,2,0,L|42:181,1,160,2|2,0:0|0:0,0:0:0:0:
5,41,51153,1,0,0:0:0:0:
80,103,51343,2,0,L|182:101,1,80,2|0,0:0|0:0,0:0:0:0:
258,67,51723,5,6,0:0:0:0:
258,67,52103,1,0,0:0:0:0:
259,259,52483,2,0,L|427:309,1,160,8|0,0:0|0:0,0:0:0:0:
224,346,53242,5,2,0:0:0:0:
358,209,53622,1,2,0:0:0:0:
174,152,54002,2,0,L|6:102,1,160,8|0,0:0|0:0,0:0:0:0:
197,31,54761,5,0,0:0:0:0:
197,31,55141,1,0,0:0:0:0:
279,204,55521,2,0,P|354:230|438:187,1,160,8|0,0:0|0:0,0:0:0:0:
348,24,56280,5,2,0:0:0:0:
348,24,56660,1,2,0:0:0:0:
279,204,57040,2,0,P|204:230|120:187,1,160,8|2,0:0|0:0,0:0:0:0:
38,33,57799,6,0,L|23:207,1,160,2|0,0:0|0:0,0:0:0:0:
52,283,58369,1,2,0:0:0:0:
52,283,58559,2,0,P|124:313|198:289,1,160,8|0,0:0|0:0,0:0:0:0:
232,199,59128,1,2,0:0:0:0:
232,199,59318,6,0,L|218:39,1,160,0|0,0:0|0:0,0:0:0:0:
218,39,59888,1,2,0:0:0:0:
263,124,60078,2,0,B|310:144|310:144|376:145|376:145|422:124,1,160,8|0,0:0|0:0,0:0:0:0:
415,127,60647,1,2,0:0:0:0:
479,198,60837,6,0,P|488:241|470:298,1,80,2|0,0:0|0:0,0:0:0:0:
392,238,61217,2,0,P|372:274|311:301,1,80,2|0,0:0|0:0,0:0:0:0:
300,207,61597,2,0,L|189:197,1,80,10|0,0:0|0:0,0:0:0:0:
159,125,61976,1,2,0:0:0:0:
216,287,62166,1,8,0:0:0:0:
256,40,63116,6,0,L|267:206,1,160,8|0,0:0|0:0,0:0:0:0:
251,294,63685,1,0,0:0:0:0:
179,229,63875,6,0,P|131:223|84:239,2,80,2|0|0,0:0|0:0|0:0,0:0:0:0:
251,294,64445,2,0,P|299:300|346:284,1,80,8|0,0:0|0:0,0:0:0:0:
394,221,64824,1,0,0:0:0:0:
420,313,65014,1,8,0:0:0:0:
484,241,65204,1,0,0:0:0:0:
329,292,65394,6,0,L|153:276,1,160,8|0,0:0|0:0,0:0:0:0:
77,241,65964,2,0,P|69:201|96:154,1,80,8|0,0:0|0:0,0:0:0:0:
153,99,66343,1,0,0:0:0:0:
200,186,66533,1,8,0:0:0:0:
200,186,66723,1,8,0:0:0:0:
120,301,66913,6,0,L|29:324,1,80,12|0,0:0|0:0,0:0:0:0:
57,225,67293,1,0,0:0:0:0:
120,301,67483,2,0,L|211:324,1,80,12|0,0:0|0:0,0:0:0:0:
202,224,67862,1,0,0:0:0:0:
288,322,68052,2,0,L|379:299,1,80,12|0,0:0|0:0,0:0:0:0:
298,202,68432,6,0,P|289:164|312:110,1,80,0|8,0:0|0:0,0:0:0:0:
298,202,68812,2,0,P|269:229|230:238,1,80,0|0,0:0|0:0,0:0:0:0:
389,230,69191,1,8,0:0:0:0:
389,230,69381,1,0,0:0:0:0:
339,330,69571,1,8,0:0:0:0:
339,330,69761,1,0,0:0:0:0:
273,230,69951,6,0,L|257:126,1,80,14|0,0:0|0:0,0:0:0:0:
216,65,70331,1,0,0:0:0:0:
161,144,70521,1,8,0:0:0:0:
216,65,70710,2,0,P|287:57|352:118,1,160,2|8,0:0|0:0,0:0:0:0:
349,112,71280,1,0,0:0:0:0:
273,230,71470,6,0,P|266:271|282:321,2,80,12|0|0,0:0|0:0|0:0,0:0:0:0:
366,204,72040,1,8,0:0:0:0:
273,230,72229,2,0,P|233:215|198:176,1,80,2|0,0:0|0:0,0:0:0:0:
177,97,72609,1,8,0:0:0:0:
177,97,72799,1,0,0:0:0:0:
129,243,72989,6,0,B|111:289|111:289|90:174,1,160,12|0,0:0|0:0,0:0:0:0:
187,178,73559,2,0,L|271:186,2,80,8|0|0,0:0|0:0|0:0,0:0:0:0:
122,97,74128,2,0,P|82:91|36:109,1,80,8|0,0:0|0:0,0:0:0:0:
42,269,74508,5,4,0:0:0:0:
92,181,74698,1,8,0:0:0:0:
141,263,74888,2,0,P|156:303|153:348,1,80,0|0,0:0|0:0,0:0:0:0:
233,236,75268,2,0,P|216:200|187:174,1,80,12|0,0:0|0:0,0:0:0:0:
253,333,75647,2,0,L|242:372,3,40,12|8|8|8,0:0|0:0|0:0|0:0,0:0:0:0:
280,309,76027,6,0,L|396:311,1,80,6|0,0:0|0:0,0:0:0:0:
425,225,76407,2,0,L|309:227,1,80,8|0,0:0|0:0,0:0:0:0:
264,173,76786,1,0,0:0:0:0:
346,124,76976,1,0,0:0:0:0:
263,74,77166,1,0,0:0:0:0:
264,173,77356,1,8,0:0:0:0:
263,74,77546,6,0,P|294:43|335:30,1,80,0|0,0:0|0:0,0:0:0:0:
263,74,77926,2,0,L|102:92,1,160,8|0,0:0|0:0,0:0:0:0:
25,36,78495,1,0,0:0:0:0:
103,91,78685,2,0,P|113:136|95:179,1,80,0|8,0:0|0:0,0:0:0:0:
44,245,79065,6,0,P|101:274|118:367,1,160,0|8,0:0|0:0,0:0:0:0:
33,336,79634,1,0,0:0:0:0:
139,272,79824,2,0,P|184:258|225:265,1,80,0|0,0:0|0:0,0:0:0:0:
268,342,80204,2,0,P|313:356|354:342,1,80,8|2,0:0|0:0,0:0:0:0:
312,260,80584,5,0,0:0:0:0:
312,260,80774,1,0,0:0:0:0:
260,179,80964,2,0,P|226:157|172:159,1,80,8|0,0:0|0:0,0:0:0:0:
92,143,81343,1,0,0:0:0:0:
92,143,81533,1,2,0:0:0:0:
144,62,81723,2,0,P|178:40|232:42,1,80,8|0,0:0|0:0,0:0:0:0:
275,114,82103,6,0,B|402:130|402:130|443:118,1,160,6|8,0:0|0:0,0:0:0:0:
489,43,82672,1,0,0:0:0:0:
432,121,82862,2,0,L|454:224,2,80,0|0|0,0:0|0:0|0:0,0:0:0:0:
372,44,83432,1,8,0:0:0:0:
277,26,83622,6,0,B|233:42|197:26|197:26|164:49|109:39,1,160,0|8,0:0|0:0,0:0:0:0:
27,25,84191,1,0,0:0:0:0:
66,112,84381,2,0,P|98:157|59:268,1,160,0|0,0:0|0:0,0:0:0:0:
20,332,84951,1,8,0:0:0:0:
76,253,85141,6,0,L|252:239,1,160,2|8,0:0|0:0,0:0:0:0:
305,305,85710,1,0,0:0:0:0:
305,305,85900,2,0,L|394:298,1,80,0|0,0:0|0:0,0:0:0:0:
442,221,86280,2,0,B|450:183|450:183|433:124,1,80,12|0,0:0|0:0,0:0:0:0:
384,63,86660,5,0,0:0:0:0:
384,63,86850,1,0,0:0:0:0:
301,111,87040,2,0,L|251:176,1,80,12|0,0:0|0:0,0:0:0:0:
203,75,87419,1,0,0:0:0:0:
203,75,87609,1,0,0:0:0:0:
120,123,87799,2,0,L|70:188,1,80,12|8,0:0|0:0,0:0:0:0:
46,279,88179,5,2,0:0:0:0:
46,279,88559,1,2,0:0:0:0:
46,279,88938,1,2,0:0:0:0:
46,279,89318,1,2,0:0:0:0:
227,342,89698,6,0,L|241:255,1,80,4|0,0:0|0:0,0:0:0:0:
302,190,90078,1,0,0:0:0:0:
355,269,90267,1,0,0:0:0:0:
408,189,90457,2,0,L|424:90,1,80,8|0,0:0|0:0,0:0:0:0:
372,26,90837,1,2,0:0:0:0:
372,26,91217,6,0,P|331:46|260:50,1,80,0|0,0:0|0:0,0:0:0:0:
200,56,91597,2,0,P|160:64|125:82,1,80,0|0,0:0|0:0,0:0:0:0:
47,138,91976,2,0,L|61:230,1,80,8|0,0:0|0:0,0:0:0:0:
41,312,92356,1,2,0:0:0:0:
41,312,92736,6,0,L|131:281,1,80,0|0,0:0|0:0,0:0:0:0:
200,333,93116,2,0,L|241:247,1,80,0|0,0:0|0:0,0:0:0:0:
342,261,93495,1,8,0:0:0:0:
289,165,93685,1,0,0:0:0:0:
289,165,93875,1,2,0:0:0:0:
394,325,94255,6,0,L|482:276,1,80,0|0,0:0|0:0,0:0:0:0:
447,175,94634,2,0,L|376:212,1,80,0|0,0:0|0:0,0:0:0:0:
256,121,95014,2,0,P|295:112|333:124,1,80,8|0,0:0|0:0,0:0:0:0:
278,203,95394,2,0,P|239:212|201:200,1,80,0|0,0:0|0:0,0:0:0:0:
170,108,95774,6,0,B|150:44|81:52|81:52|93:99,1,160,6|0,0:0|0:0,0:0:0:0:
92,95,96343,1,0,0:0:0:0:
35,172,96533,2,0,P|24:217|42:273,1,80,8|0,0:0|0:0,0:0:0:0:
29,249,96913,1,2,0:0:0:0:
194,346,97293,6,0,L|266:302,1,80,0|0,0:0|0:0,0:0:0:0:
316,226,97672,2,0,P|329:181|315:136,1,80,2|0,0:0|0:0,0:0:0:0:
239,99,98052,2,0,L|158:119,2,80,8|0|0,0:0|0:0|0:0,0:0:0:0:
322,149,98622,1,0,0:0:0:0:
411,115,98812,6,0,B|433:21|433:21|458:99,1,160,2|0,0:0|0:0,0:0:0:0:
477,186,99381,1,0,0:0:0:0:
477,186,99571,2,0,P|424:211|322:152,1,160,8|2,0:0|0:0,0:0:0:0:
261,112,100141,1,0,0:0:0:0:
261,112,100331,6,0,B|229:98|229:98|190:115|190:115|147:99|147:99|114:122,1,160,0|0,0:0|0:0,0:0:0:0:
116,119,100900,1,0,0:0:0:0:
62,198,101090,2,0,L|82:290,1,80,10|0,0:0|0:0,0:0:0:0:
173,255,101470,2,0,L|193:347,1,80,8|8,0:0|0:0,0:0:0:0:
287,307,101850,5,0,0:0:0:0:
346,67,114002,6,0,L|334:198,1,120,2|0,0:0|0:0,0:0:0:0:
316,214,114381,2,0,P|269:199|226:208,2,80,0|2|0,0:0|0:0|0:0,0:0:0:0:
394,270,114951,1,0,0:0:0:0:
255,284,115141,2,0,P|215:286|178:272,1,80,2|0,0:0|0:0,0:0:0:0:
153,179,115521,5,0,0:0:0:0:
153,179,115710,1,2,0:0:0:0:
83,245,115900,2,0,L|89:341,1,80,0|0,0:0|0:0,0:0:0:0:
9,196,116280,2,0,L|13:116,1,80,2|0,0:0|0:0,0:0:0:0:
60,31,116660,1,0,0:0:0:0:
112,111,116850,1,0,0:0:0:0:
112,111,116945,1,0,0:0:0:0:
112,111,117040,6,0,P|160:128|286:96,1,160,2|0,0:0|0:0,0:0:0:0:
310,25,117609,1,0,0:0:0:0:
265,110,117799,2,0,P|289:155|340:168,1,80,0|0,0:0|0:0,0:0:0:0:
410,171,118179,2,0,L|455:155,3,40,0|0|0|0,0:0|0:0|0:0|0:0,0:0:0:0:
393,201,118559,6,0,B|402:245|402:245|431:276,2,80,0|2|0,0:0|0:0|0:0,0:0:0:0:
383,105,119128,1,0,0:0:0:0:
308,166,119318,2,0,B|268:187|268:187|226:185,1,80,0|0,0:0|0:0,0:0:0:0:
174,108,119698,1,2,0:0:0:0:
129,192,119888,1,0,0:0:0:0:
129,192,119983,1,0,0:0:0:0:
129,192,120078,6,0,L|162:350,1,160,0|0,0:0|0:0,0:0:0:0:
230,281,120647,1,2,0:0:0:0:
230,281,120837,2,0,P|283:270|317:284,1,80,0|0,0:0|0:0,0:0:0:0:
161,348,121217,2,0,P|108:359|74:345,1,80,2|0,0:0|0:0,0:0:0:0:
66,256,121597,5,0,0:0:0:0:
51,161,121786,1,2,0:0:0:0:
36,66,121976,2,0,P|73:48|135:61,1,80,0|0,0:0|0:0,0:0:0:0:
185,111,122356,2,0,P|237:102|280:46,1,120,2|0,0:0|0:0,0:0:0:0:
304,73,122736,2,0,L|385:92,1,80,0|0,0:0|0:0,0:0:0:0:
432,177,123116,5,2,0:0:0:0:
337,177,123305,1,0,0:0:0:0:
381,91,123495,1,0,0:0:0:0:
432,177,123685,2,0,L|445:268,1,80,2|0,0:0|0:0,0:0:0:0:
337,177,124065,1,0,0:0:0:0:
337,177,124255,2,0,L|324:268,1,80,0|0,0:0|0:0,0:0:0:0:
261,327,124634,5,0,0:0:0:0:
167,306,124824,1,2,0:0:0:0:
118,223,125014,2,0,L|129:136,1,80,0|0,0:0|0:0,0:0:0:0:
200,79,125394,1,2,0:0:0:0:
200,79,125584,1,2,0:0:0:0:
256,156,125774,1,2,0:0:0:0:
200,79,125964,1,2,0:0:0:0:
295,71,126153,5,4,0:0:0:0:
219,247,126533,1,0,0:0:0:0:
408,217,126913,1,0,0:0:0:0:
408,217,127293,1,0,0:0:0:0:
219,247,127672,6,0,B|101:255|101:255|55:246,1,160,2|0,0:0|0:0,0:0:0:0:
228,154,128432,1,0,0:0:0:0:
52,76,128812,1,0,0:0:0:0:
228,154,129191,5,0,0:0:0:0:
376,31,129571,1,0,0:0:0:0:
439,212,129951,1,0,0:0:0:0:
439,212,130331,1,0,0:0:0:0:
254,160,130710,6,0,B|236:113|236:113|226:60|283:33|318:62,1,160,0|0,0:0|0:0,0:0:0:0:
482,129,131470,2,0,B|486:79|486:79|480:26|418:15|392:52,1,160,0|0,0:0|0:0,0:0:0:0:
320,229,132229,6,0,B|390:272|390:272|462:201,1,160,0|0,0:0|0:0,0:0:0:0:
451,123,132799,1,0,0:0:0:0:
451,123,132989,2,0,P|376:98|298:141,1,160,0|0,0:0|0:0,0:0:0:0:
212,148,133559,1,0,0:0:0:0:
212,148,133748,6,0,B|159:167|118:133|118:133|66:203,1,160,0|0,0:0|0:0,0:0:0:0:
82,181,134318,1,0,0:0:0:0:
42,89,134508,2,0,P|78:54|185:76,1,160,0|0,0:0|0:0,0:0:0:0:
178,69,135078,1,0,0:0:0:0:
266,32,135267,1,0,0:0:0:0:
256,192,135362,12,0,136786,0:0:0:0:
296,119,137546,6,0,P|279:178|286:253,1,120,0|0,0:0|0:0,0:0:0:0:
260,256,137926,2,0,P|218:205|148:180,1,120,0|0,0:0|0:0,0:0:0:0:
166,144,138305,6,0,P|231:133|269:104,1,80,2|0,0:0|0:0,0:0:0:0:
176,56,138685,2,0,P|110:66|73:96,1,80,8|0,0:0|0:0,0:0:0:0:
37,147,139065,1,0,0:0:0:0:
131,164,139255,1,0,0:0:0:0:
99,73,139445,1,0,0:0:0:0:
37,147,139634,1,8,0:0:0:0:
37,147,139824,6,0,L|50:253,2,80,0|0|8,0:0|0:0|0:0,0:0:0:0:
131,164,140394,2,0,P|199:185|283:137,1,160,0|0,0:0|0:0,0:0:0:0:
362,106,140964,1,0,0:0:0:0:
285,49,141153,1,8,0:0:0:0:
362,106,141343,6,0,L|389:281,1,160,4|8,0:0|0:0,0:0:0:0:
293,237,141913,1,0,0:0:0:0:
220,299,142103,2,0,L|126:322,1,80,0|0,0:0|0:0,0:0:0:0:
30,219,142483,2,0,L|124:242,1,80,8|0,0:0|0:0,0:0:0:0:
176,171,142862,5,0,0:0:0:0:
176,171,143052,1,0,0:0:0:0:
127,88,143242,1,8,0:0:0:0:
127,88,143432,1,0,0:0:0:0:
222,93,143622,2,0,P|268:94|318:73,1,80,0|0,0:0|0:0,0:0:0:0:
383,165,144002,2,0,P|337:164|287:185,1,80,8|8,0:0|0:0,0:0:0:0:
265,261,144381,6,0,B|290:365|290:365|311:307,1,160,4|8,0:0|0:0,0:0:0:0:
356,231,144951,1,0,0:0:0:0:
265,261,145141,2,0,P|218:272|149:265,2,80,0|0|0,0:0|0:0|0:0,0:0:0:0:
356,231,145710,1,8,0:0:0:0:
430,292,145900,6,0,P|451:241|400:145,1,160,0|8,0:0|0:0,0:0:0:0:
319,141,146470,1,0,0:0:0:0:
319,141,146660,2,0,L|136:179,1,160,0|8,0:0|0:0,0:0:0:0:
162,173,147229,1,8,0:0:0:0:
96,102,147419,5,4,0:0:0:0:
96,102,147609,1,0,0:0:0:0:
176,49,147799,2,0,P|225:37|280:53,1,80,8|0,0:0|0:0,0:0:0:0:
319,112,148179,1,0,0:0:0:0:
319,112,148369,1,0,0:0:0:0:
239,165,148559,2,0,P|190:177|135:161,1,80,8|0,0:0|0:0,0:0:0:0:
71,137,148938,5,0,0:0:0:0:
23,220,149128,1,0,0:0:0:0:
70,303,149318,2,0,L|162:325,1,80,12|0,0:0|0:0,0:0:0:0:
230,271,149698,2,0,L|290:285,3,40,0|0|0|0,0:0|0:0|0:0|0:0,0:0:0:0:
306,249,150078,2,0,L|366:263,3,40,10|0|10|0,0:0|0:0|0:0|0:0,0:0:0:0:
389,240,150457,6,0,P|413:201|411:148,1,80,4|0,0:0|0:0,0:0:0:0:
345,100,150837,2,0,L|253:110,2,80,8|2|0,0:0|0:0|0:0,0:0:0:0:
419,38,151407,1,0,0:0:0:0:
345,100,151597,2,0,P|344:151|360:183,1,80,8|8,0:0|0:0,0:0:0:0:
403,260,151976,5,0,0:0:0:0:
403,260,152166,1,2,0:0:0:0:
317,304,152356,2,0,L|228:290,1,80,8|0,0:0|0:0,0:0:0:0:
159,160,152736,2,0,P|148:198|157:237,1,80,0|0,0:0|0:0,0:0:0:0:
242,191,153116,2,0,P|252:152|244:114,1,80,0|8,0:0|0:0,0:0:0:0:
159,160,153495,6,0,P|110:173|23:104,1,160,0|8,0:0|0:0,0:0:0:0:
115,78,154065,1,0,0:0:0:0:
159,160,154255,1,0,0:0:0:0:
115,78,154445,1,0,0:0:0:0:
209,62,154634,2,0,P|254:40|277:13,1,80,8|0,0:0|0:0,0:0:0:0:
279,127,155014,5,0,0:0:0:0:
279,127,155204,1,0,0:0:0:0:
197,178,155394,2,0,L|90:204,1,80,8|0,0:0|0:0,0:0:0:0:
192,283,155774,1,0,0:0:0:0:
192,283,155964,1,2,0:0:0:0:
275,234,156154,2,0,L|352:252,1,80,8|0,0:0|0:0,0:0:0:0:
485,231,156533,6,0,B|516:131|516:131|436:132,1,160,4|8,0:0|0:0,0:0:0:0:
460,131,157103,1,0,0:0:0:0:
363,128,157293,2,0,B|307:128|307:128|338:28,1,160,0|0,0:0|0:0,0:0:0:0:
338,28,157862,1,8,0:0:0:0:
247,59,158052,6,0,P|207:62|163:52,2,80,0|0|8,0:0|0:0|0:0,0:0:0:0:
338,28,158622,1,0,0:0:0:0:
392,107,158812,2,0,P|432:110|476:100,2,80,0|0|0,0:0|0:0|0:0,0:0:0:0:
338,28,159381,1,8,0:0:0:0:
307,118,159571,6,0,L|316:286,1,160,2|8,0:0|0:0,0:0:0:0:
226,240,160141,1,0,0:0:0:0:
315,277,160331,2,0,P|366:286|421:194,1,160,0|12,0:0|0:0,0:0:0:0:
423,207,160900,1,0,0:0:0:0:
369,128,161090,6,0,P|327:119|280:134,1,80,0|0,0:0|0:0,0:0:0:0:
236,48,161470,1,12,0:0:0:0:
236,48,161660,1,0,0:0:0:0:
197,136,161850,2,0,L|207:193,3,40,12|0|8|0,0:0|0:0|0:0|0:0,0:0:0:0:
169,122,162229,2,0,P|115:115|72:143,1,80,12|0,0:0|0:0,0:0:0:0:
29,197,162609,5,2,0:0:0:0:
29,197,162989,1,2,0:0:0:0:
29,197,163369,1,2,0:0:0:0:
29,197,163748,1,2,0:0:0:0:
152,344,164128,5,6,0:0:0:0:
152,344,164318,1,0,0:0:0:0:
227,284,164508,2,0,P|268:277|316:290,1,80,0|0,0:0|0:0,0:0:0:0:
387,335,164888,2,0,L|479:348,2,80,8|0|0,0:0|0:0|0:0,0:0:0:0:
305,284,165457,1,8,0:0:0:0:
388,236,165647,6,0,P|415:194|422:80,1,160,0|8,0:0|0:0,0:0:0:0:
350,23,166217,1,0,0:0:0:0:
350,23,166407,2,0,L|185:43,1,160,8|0,0:0|0:0,0:0:0:0:
95,34,166976,1,0,0:0:0:0:
141,118,167166,6,0,P|158:163|145:208,1,80,8|8,0:0|0:0,0:0:0:0:
58,171,167546,1,0,0:0:0:0:
152,193,167736,2,0,L|232:211,1,80,0|8,0:0|0:0,0:0:0:0:
316,167,168116,1,0,0:0:0:0:
230,210,168305,2,0,P|225:249|241:285,1,80,0|8,0:0|0:0,0:0:0:0:
314,348,168685,5,0,0:0:0:0:
241,285,168875,1,0,0:0:0:0:
334,263,169065,2,0,L|433:275,1,80,8|0,0:0|0:0,0:0:0:0:
301,182,169445,2,0,L|202:194,1,80,8|0,0:0|0:0,0:0:0:0:
343,97,169824,1,0,0:0:0:0:
303,14,170014,1,0,0:0:0:0:
343,97,170204,6,0,P|385:105|447:88,2,80,8|0|0,0:0|0:0|0:0,0:0:0:0:
303,14,170774,1,0,0:0:0:0:
249,94,170964,2,0,P|237:168|267:261,1,160,8|0,0:0|0:0,0:0:0:0:
163,242,171533,1,8,0:0:0:0:
206,328,171723,5,0,0:0:0:0:
206,328,171913,1,0,0:0:0:0:
163,242,172103,2,0,P|138:204|99:187,1,80,8|0,0:0|0:0,0:0:0:0:
182,127,172483,2,0,P|207:89|246:72,1,80,8|0,0:0|0:0,0:0:0:0:
154,16,172862,1,0,0:0:0:0:
154,16,173052,1,0,0:0:0:0:
236,73,173242,6,0,L|331:83,1,80,8|8,0:0|0:0,0:0:0:0:
357,168,173622,1,0,0:0:0:0:
260,165,173812,1,0,0:0:0:0:
315,81,174002,2,0,L|410:71,1,80,8|0,0:0|0:0,0:0:0:0:
474,19,174381,1,0,0:0:0:0:
479,114,174571,1,8,0:0:0:0:
479,114,174761,6,0,L|486:211,1,80,0|0,0:0|0:0,0:0:0:0:
427,271,175141,1,8,0:0:0:0:
379,187,175331,2,0,L|376:141,2,40,0|8|8,0:0|0:0|0:0,0:0:0:0:
427,271,175710,1,0,0:0:0:0:
334,296,175900,1,0,0:0:0:0:
241,321,176090,1,0,0:0:0:0:
146,340,176280,6,0,B|118:343|118:343|57:332,1,80,12|0,0:0|0:0,0:0:0:0:
121,254,176660,1,0,0:0:0:0:
61,178,176850,1,0,0:0:0:0:
126,107,177040,2,0,B|154:104|154:104|215:115,2,80,8|0|0,0:0|0:0|0:0,0:0:0:0:
61,178,177609,1,8,0:0:0:0:
26,88,177799,6,0,L|47:10,1,80,0|0,0:0|0:0,0:0:0:0:
142,26,178179,2,0,P|186:25|236:8,1,80,8|0,0:0|0:0,0:0:0:0:
296,74,178559,2,0,P|334:84|374:84,1,80,8|0,0:0|0:0,0:0:0:0:
338,173,178938,1,0,0:0:0:0:
433,165,179128,1,0,0:0:0:0:
338,173,179318,6,0,L|236:188,1,80,8|8,0:0|0:0,0:0:0:0:
396,254,179698,1,0,0:0:0:0:
396,254,179888,1,0,0:0:0:0:
323,316,180078,2,0,L|221:331,1,80,8|0,0:0|0:0,0:0:0:0:
163,279,180457,1,0,0:0:0:0:
247,231,180647,1,8,0:0:0:0:
163,279,180837,6,0,P|125:291|66:282,1,80
20,222,181217,2,0,L|38:128,1,80,8|0,0:0|0:0,0:0:0:0:
146,186,181597,2,0,L|128:92,1,80,8|0,0:0|0:0,0:0:0:0:
57,45,181976,1,0,0:0:0:0:
130,107,182166,1,0,0:0:0:0:
225,103,182356,6,0,P|280:92|406:121,1,160,12|0,0:0|0:0,0:0:0:0:
463,159,182926,1,0,0:0:0:0:
378,203,183116,2,0,P|331:214|280:211,1,80,8|0,0:0|0:0,0:0:0:0:
212,173,183495,1,0,0:0:0:0:
131,224,183685,1,8,0:0:0:0:
212,173,183875,6,0,P|227:128|231:74,1,80,0|0,0:0|0:0,0:0:0:0:
170,20,184255,1,8,0:0:0:0:
170,20,184445,1,0,0:0:0:0:
86,66,184634,1,8,0:0:0:0:
86,66,184824,1,0,0:0:0:0:
53,156,185014,1,0,0:0:0:0:
53,156,185394,6,0,B|40:193|40:193|37:236,2,80,8|8|0,0:0|0:0|0:0,0:0:0:0:
144,124,185964,1,0,0:0:0:0:
236,101,186153,2,0,B|249:64|249:64|252:21,2,80,8|0|0,0:0|0:0|0:0,0:0:0:0:
144,124,186723,1,8,0:0:0:0:
209,194,186913,6,0,L|233:229,3,40,8|0|0|0,0:0|0:0|0:0|0:0,0:0:0:0:
223,258,187293,2,0,L|247:293,3,40,8|0|0|0,0:0|0:0|0:0|0:0,0:0:0:0:
247,327,187672,2,0,L|349:354,1,80,10|10,0:0|0:0,0:0:0:0:
93,148,199824,6,0,L|213:179,1,120,0|0,0:0|0:0,0:0:0:0:
231,201,200204,2,0,L|354:152,1,120,0|0,0:0|0:0,0:0:0:0:
359,133,200584,6,0,L|438:150,2,80,2|0|0,0:0|0:0|0:0,0:0:0:0:
300,56,201153,1,8,0:0:0:0:
211,93,201343,1,0,0:0:0:0:
126,47,201533,1,0,0:0:0:0:
40,90,201723,2,0,L|44:185,1,80,8|0,0:0|0:0,0:0:0:0:
63,264,202103,6,0,B|55:306|55:306|73:353,2,80,8|0|0,0:0|0:0|0:0,0:0:0:0:
155,341,202672,2,0,P|196:358|312:324,1,160,8|0,0:0|0:0,0:0:0:0:
367,258,203242,1,8,0:0:0:0:
367,258,203432,1,8,0:0:0:0:
273,235,203622,6,0,L|192:245,1,80,12|0,0:0|0:0,0:0:0:0:
105,205,204002,1,0,0:0:0:0:
180,146,204191,2,0,P|209:117|224:73,1,80,12|0,0:0|0:0,0:0:0:0:
146,21,204571,1,0,0:0:0:0:
222,81,204761,2,0,L|326:78,1,80,12|0,0:0|0:0,0:0:0:0:
397,89,205141,5,0,0:0:0:0:
397,89,205331,1,12,0:0:0:0:
345,169,205521,1,0,0:0:0:0:
345,169,205710,1,0,0:0:0:0:
409,240,205900,2,0,L|387:340,1,80,12|0,0:0|0:0,0:0:0:0:
299,291,206280,2,0,L|227:348,1,80,12|0,0:0|0:0,0:0:0:0:
202,250,206660,5,4,0:0:0:0:
106,259,206850,1,0,0:0:0:0:
146,171,207040,1,0,0:0:0:0:
202,250,207229,1,8,0:0:0:0:
106,259,207419,2,0,L|26:269,2,80,0|0|8,0:0|0:0|0:0,0:0:0:0:
202,250,207989,1,0,0:0:0:0:
147,170,208179,6,0,B|125:118|167:74|167:74|211:108,1,160,8|0,0:0|0:0,0:0:0:0:
245,18,208748,1,8,0:0:0:0:
309,89,208938,2,0,L|378:154,2,80,0|0|8,0:0|0:0|0:0,0:0:0:0:
245,18,209508,1,8,0:0:0:0:
136,98,209698,6,0,P|129:52|145:6,1,80,2|0,0:0|0:0,0:0:0:0:
44,45,210078,1,0,0:0:0:0:
136,98,210267,2,0,L|222:127,1,80,12|0,0:0|0:0,0:0:0:0:
296,77,210647,1,0,0:0:0:0:
211,123,210837,2,0,P|204:169|220:215,1,80,12|0,0:0|0:0,0:0:0:0:
286,262,211217,5,0,0:0:0:0:
286,262,211407,1,12,0:0:0:0:
195,295,211597,2,0,B|155:303|155:303|93:299,1,80,0|0,0:0|0:0,0:0:0:0:
269,350,211976,2,0,B|309:358|309:358|371:354,1,80,12|12,0:0|0:0,0:0:0:0:
375,342,212261,1,8,0:0:0:0:
398,324,212356,2,0,L|452:335,3,40,12|8|8|8,0:0|0:0|0:0|0:0,0:0:0:0:
464,311,212736,6,0,L|445:138,1,160,4|8,0:0|0:0,0:0:0:0:
395,70,213305,1,2,0:0:0:0:
349,154,213495,1,0,0:0:0:0:
446,151,213685,1,0,0:0:0:0:
395,70,213875,1,8,0:0:0:0:
395,70,214065,1,0,0:0:0:0:
349,154,214255,6,0,P|293:174|194:156,1,160,0|8,0:0|0:0,0:0:0:0:
168,65,214824,1,0,0:0:0:0:
108,140,215014,2,0,P|58:171|26:175,1,80,0|0,0:0|0:0,0:0:0:0:
145,230,215394,2,0,P|195:261|227:265,1,80,0|8,0:0|0:0,0:0:0:0:
112,313,215774,6,0,B|42:333|14:266|14:266|60:266,1,160
26,178,216343,1,2,0:0:0:0:
74,95,216533,2,0,P|116:84|158:100,2,80,0|2|8,0:0|0:0|0:0,0:0:0:0:
21,13,217103,1,0,0:0:0:0:
74,95,217293,5,0,0:0:0:0:
26,178,217483,1,0,0:0:0:0:
73,260,217672,2,0,B|129:270|129:270|167:266,1,80,8|0,0:0|0:0,0:0:0:0:
233,214,218052,1,0,0:0:0:0:
196,126,218242,1,2,0:0:0:0:
279,78,218432,2,0,B|301:75|301:75|357:85,1,80,8|0,0:0|0:0,0:0:0:0:
426,153,218812,6,0,P|433:216|398:331,1,160,4|8,0:0|0:0,0:0:0:0:
321,346,219381,1,0,0:0:0:0:
321,346,219571,2,0,B|288:324|250:348|210:369|155:321,1,160,0|0,0:0|0:0,0:0:0:0:
131,240,220141,1,8,0:0:0:0:
142,143,220331,6,0,P|209:183|226:260,1,160,0|8,0:0|0:0,0:0:0:0:
131,240,220900,1,0,0:0:0:0:
57,178,221090,2,0,B|51:117|51:117|65:92,2,80
42,273,221660,1,8,0:0:0:0:
131,240,221850,6,0,L|312:230,1,160,2|12,0:0|0:0,0:0:0:0:
365,170,222419,1,0,0:0:0:0:
409,255,222609,2,0,L|424:350,1,80,0|0,0:0|0:0,0:0:0:0:
460,176,222989,2,0,L|472:96,1,80,12|0,0:0|0:0,0:0:0:0:
408,23,223369,5,0,0:0:0:0:
408,23,223559,1,0,0:0:0:0:
325,71,223748,2,0,P|274:79|228:63,1,80,12|0,0:0|0:0,0:0:0:0:
154,44,224128,2,0,L|120:20,3,40,12|0|12|0,0:0|0:0|0:0|0:0,0:0:0:0:
159,73,224508,2,0,L|144:160,1,80,12|0,0:0|0:0,0:0:0:0:
62,201,224888,5,2,0:0:0:0:
62,201,225267,1,2,0:0:0:0:
62,201,225647,1,2,0:0:0:0:
62,201,226027,1,2,0:0:0:0:
220,310,226407,5,6,0:0:0:0:
220,310,226597,1,0,0:0:0:0:
296,252,226786,2,0,P|340:245|389:259,1,80,0|0,0:0|0:0,0:0:0:0:
296,252,227166,2,0,L|266:68,1,160,8|0,0:0|0:0,0:0:0:0:
199,28,227736,1,8,0:0:0:0:
171,120,227926,6,0,L|139:212,1,80,0|0,0:0|0:0,0:0:0:0:
84,120,228305,2,0,P|91:75|131:40,1,80,8|0,0:0|0:0,0:0:0:0:
257,109,228685,2,0,P|250:154|210:189,1,80,8|0,0:0|0:0,0:0:0:0:
141,222,229065,1,0,0:0:0:0:
47,242,229255,1,0,0:0:0:0:
141,222,229445,6,0,P|181:285|152:372,1,160,8|0,0:0|0:0,0:0:0:0:
85,302,230014,1,0,0:0:0:0:
207,276,230204,2,0,P|246:274|303:299,1,80,8|0,0:0|0:0,0:0:0:0:
367,336,230584,1,0,0:0:0:0:
284,286,230774,1,8,0:0:0:0:
367,336,230964,6,0,P|401:288|403:241,1,80,0|0,0:0|0:0,0:0:0:0:
348,190,231343,2,0,L|253:181,1,80,8|0,0:0|0:0,0:0:0:0:
399,111,231723,2,0,L|494:102,1,80,8|0,0:0|0:0,0:0:0:0:
345,38,232103,1,0,0:0:0:0:
345,38,232293,1,0,0:0:0:0:
257,76,232483,6,0,L|165:87,2,80,12|0|0,0:0|0:0|0:0,0:0:0:0:
345,38,233052,1,0,0:0:0:0:
257,76,233242,2,0,P|271:128|349:211,1,160,8|0,0:0|0:0,0:0:0:0:
250,242,233812,1,8,0:0:0:0:
332,291,234002,5,0,0:0:0:0:
246,333,234191,1,0,0:0:0:0:
250,242,234381,2,0,L|224:157,1,80,8|0,0:0|0:0,0:0:0:0:
134,194,234761,2,0,L|82:111,1,80,8|0,0:0|0:0,0:0:0:0:
35,205,235141,1,0,0:0:0:0:
35,205,235331,1,0,0:0:0:0:
91,126,235521,6,0,P|147:104|267:120,1,160,8|0,0:0|0:0,0:0:0:0:
293,193,236090,1,0,0:0:0:0:
335,106,236280,2,0,P|344:58|337:16,1,80,8|0,0:0|0:0,0:0:0:0:
340,27,236660,1,0,0:0:0:0:
252,65,236850,1,8,0:0:0:0:
252,65,237040,6,0,L|148:71,1,80,0|0,0:0|0:0,0:0:0:0:
82,35,237419,1,8,0:0:0:0:
14,102,237609,2,0,L|0:139,2,40,0|8|8,0:0|0:0|0:0,0:0:0:0:
82,35,237989,1,0,0:0:0:0:
95,130,238179,1,0,0:0:0:0:
109,224,238369,1,0,0:0:0:0:
124,318,238559,6,0,B|82:339|82:339|40:341,2,80,12|0|0,0:0|0:0|0:0,0:0:0:0:
109,224,239128,1,0,0:0:0:0:
198,259,239318,2,0,L|365:287,1,160,8|0,0:0|0:0,0:0:0:0:
428,348,239888,1,8,0:0:0:0:
355,285,240077,6,0,P|349:246|367:201,1,80,0|0,0:0|0:0,0:0:0:0:
447,164,240457,2,0,P|453:203|435:248,1,80,8|0,0:0|0:0,0:0:0:0:
273,236,240837,2,0,P|266:196|284:151,1,80,8|0,0:0|0:0,0:0:0:0:
361,208,241217,1,0,0:0:0:0:
361,208,241407,1,0,0:0:0:0:
366,112,241597,6,0,B|379:13|379:13|325:71,1,160,8|0,0:0|0:0,0:0:0:0:
338,57,242166,1,0,0:0:0:0:
252,101,242356,2,0,P|211:111|151:96,1,80,8|0,0:0|0:0,0:0:0:0:
100,43,242736,1,0,0:0:0:0:
80,137,242926,1,8,0:0:0:0:
80,137,243116,6,0,L|94:250,2,80,0|0|8,0:0|0:0|0:0,0:0:0:0:
165,181,243685,2,0,P|200:204|253:204,1,80,0|8,0:0|0:0,0:0:0:0:
324,166,244065,1,0,0:0:0:0:
320,261,244255,1,0,0:0:0:0:
237,207,244445,1,0,0:0:0:0:
407,220,244634,5,12,0:0:0:0:
407,220,244824,1,0,0:0:0:0:
320,261,245014,2,0,P|287:284|263:335,1,80,0|0,0:0|0:0,0:0:0:0:
171,315,245394,2,0,P|150:280|118:257,1,80,8|0,0:0|0:0,0:0:0:0:
78,345,245774,1,0,0:0:0:0:
26,263,245964,1,8,0:0:0:0:
69,178,246153,6,0,L|173:167,2,80,0|0|8,0:0|0:0|0:0,0:0:0:0:
9,101,246723,1,0,0:0:0:0:
78,34,246913,2,0,L|182:23,1,80,8|0,0:0|0:0,0:0:0:0:
230,89,247293,1,0,0:0:0:0:
318,50,247483,1,0,0:0:0:0:
395,106,247672,5,2,0:0:0:0:
395,106,247862,1,0,0:0:0:0:
337,182,248052,2,0,P|328:232|341:279,1,80,0|0,0:0|0:0,0:0:0:0:
398,330,248432,1,12,0:0:0:0:
398,330,248622,1,0,0:0:0:0:
428,238,248812,1,0,0:0:0:0:
333,260,249002,1,12,0:0:0:0:
428,238,249191,5,0,0:0:0:0:
362,167,249381,1,0,0:0:0:0:
362,167,249476,1,0,0:0:0:0:
362,167,249571,2,0,L|336:115,3,40,8|0|0|0,0:0|0:0|0:0|0:0,0:0:0:0:
306,126,249951,2,0,L|280:74,3,40,8|0|8|0,0:0|0:0|0:0|0:0,0:0:0:0:
252,74,250331,2,0,P|209:66|163:82,1,80,0|8,0:0|0:0,0:0:0:0:
102,134,250710,5,0,0:0:0:0:
102,134,251090,2,0,L|119:198,1,64,0|2,0:0|0:0,0:0:0:0:
92,268,251470,2,0,B|118:353|118:353|140:312,1,128,0|2,0:0|0:0,0:0:0:0:
169,248,252040,1,0,0:0:0:0:
216,307,252229,6,0,P|260:321|350:281,1,128,0|0,0:0|0:0,0:0:0:0:
383,236,252799,2,0,L|412:91,2,128,0|0|0,0:0|0:0|0:0,0:0:0:0:
351,165,253748,6,0,P|315:149|226:171,1,128,2|0,0:0|0:0,0:0:0:0:
164,205,254318,2,0,P|128:221|39:199,1,128,2|0,0:0|0:0,0:0:0:0:
12,132,254888,1,2,0:0:0:0:
12,132,255078,6,0,L|76:111,1,64,2|0,0:0|0:0,0:0:0:0:
86,36,255457,2,0,L|170:54,1,64,2|0,0:0|0:0,0:0:0:0:
216,86,255837,2,0,P|271:74|288:54,1,64,2|0,0:0|0:0,0:0:0:0:
321,131,256217,2,0,P|356:102|364:59,1,64,0|0,0:0|0:0,0:0:0:0:
385,12,256597,1,0,0:0:0:0:
436,68,256786,6,0,L|450:217,1,128,2|0,0:0|0:0,0:0:0:0:
370,192,257356,1,2,0:0:0:0:
352,266,257546,2,0,L|333:333,1,64,0|0,0:0|0:0,0:0:0:0:
269,265,257926,2,0,L|249:194,1,64,0|0,0:0|0:0,0:0:0:0:
200,146,258305,5,0,0:0:0:0:
200,146,258495,1,2,0:0:0:0:
136,188,258685,2,0,P|98:199|49:179,1,64,0|0,0:0|0:0,0:0:0:0:
29,131,259065,2,0,B|20:50|20:50|55:82,1,128,0|2,0:0|0:0,0:0:0:0:
54,81,259634,1,0,0:0:0:0:
119,40,259824,6,0,P|172:29|253:58,1,128,0|0,0:0|0:0,0:0:0:0:
297,102,260394,1,2,0:0:0:0:
373,106,260584,1,0,0:0:0:0:
441,71,260774,1,0,0:0:0:0:
441,71,261153,6,0,L|434:155,1,64,0|0,0:0|0:0,0:0:0:0:
359,123,261533,2,0,L|352:207,1,64,2|0,0:0|0:0,0:0:0:0:
278,167,261913,2,0,L|262:304,1,128,0|0,0:0|0:0,0:0:0:0:
188,273,262483,1,0,0:0:0:0:
113,288,262672,1,0,0:0:0:0:
53,336,262862,1,0,0:0:0:0:
17,186,263242,5,0,0:0:0:0:
17,186,263622,2,0,B|59:165|59:165|98:164|98:164|152:135,1,128,2|0,0:0|0:0,0:0:0:0:
248,40,264381,6,0,P|271:79|255:156,1,128,2|0,0:0|0:0,0:0:0:0:
207,217,264951,2,0,P|184:256|200:333,1,128,2|0,0:0|0:0,0:0:0:0:
200,333,265710,6,0,B|319:328|319:328|356:304|366:242,1,192,0|0,0:0|0:0,0:0:0:0:
398,120,266660,1,0,0:0:0:0:
398,120,266850,1,0,0:0:0:0:
255,176,267229,6,0,L|180:202,1,64,2|0,0:0|0:0,0:0:0:0:
252,95,267609,2,0,L|226:20,1,64,2|0,0:0|0:0,0:0:0:0:
331,141,267989,2,0,L|406:115,1,64,2|0,0:0|0:0,0:0:0:0:
334,222,268369,2,0,L|360:297,1,64,0|0,0:0|0:0,0:0:0:0:
251,177,268748,6,0,B|202:125|243:47|243:47|296:109,1,192,0|0,0:0|0:3,0:0:0:0:
336,134,269508,2,0,L|416:139,2,64,0|0|0,0:0|0:0|0:0,0:0:0:0:
276,86,270078,1,0,0:0:0:0:
276,86,270837,5,0,0:0:0:0:
276,86,271027,2,0,P|234:105|139:90,1,128,0|2,0:0|0:0,0:0:0:0:
83,65,271597,2,0,P|60:109|70:198,1,128,0|2,0:0|0:0,0:0:0:0:
256,192,272071,12,0,275014,0:0:0:0:
