osu file format v14

[General]
AudioFilename: SawanoHiroyuki[nZk]mizuki - &Z.mp3
AudioLeadIn: 0
PreviewTime: 137356
Countdown: 0
SampleSet: Soft
StackLeniency: 0.7
Mode: 0
LetterboxInBreaks: 0
WidescreenStoryboard: 0

[Editor]
Bookmarks: 46786,172483,188432,199824
DistanceSpacing: 1.3
BeatDivisor: 4
GridSize: 8
TimelineZoom: 1

[Metadata]
Title:&Z
TitleUnicode:&Z
Artist:SawanoHiroyuki[nZk]:mizuki
ArtistUnicode:SawanoHiroyuki[nZk]:mizuki
Creator:Sotarks
Version:HB's Insane
Source:アルドノア・ゼロ
Tags:澤野弘之 Aldnoah.Zero 2nd season full version appleeaterx MrSergio FCL HB24
BeatmapID:853918
BeatmapSetID:392118

[Difficulty]
HPDrainRate:7
CircleSize:4
OverallDifficulty:7
ApproachRate:9
SliderMultiplier:1.7
SliderTickRate:1

[Events]
//Background and Video events
0,0,"BG.jpg",0,0
//Break Periods
2,101860,113402
2,188432,199224
//Storyboard Layer 0 (Background)
//Storyboard Layer 1 (Fail)
//Storyboard Layer 2 (Pass)
//Storyboard Layer 3 (Foreground)
//Storyboard Sound Samples

[TimingPoints]
3116,379.746835443038,4,2,1,75,1,0
3116,-100,4,2,1,75,0,0
3305,-100,4,2,1,60,0,0
3875,-100,4,2,1,70,0,0
4065,-100,4,2,1,60,0,0
4445,-100,4,2,1,70,0,0
4634,-100,4,2,1,60,0,0
5014,-100,4,2,1,70,0,0
5204,-100,4,2,1,60,0,0
5394,-100,4,2,1,70,0,0
5584,-100,4,2,1,60,0,0
6153,-100,4,2,1,80,0,0
6343,-100,4,2,1,60,0,0
6913,-100,4,2,1,70,0,0
7103,-100,4,2,1,60,0,0
7483,-100,4,2,1,70,0,0
7672,-100,4,2,1,60,0,0
8052,-100,4,2,1,70,0,0
8242,-100,4,2,1,60,0,0
8432,-100,4,2,1,70,0,0
8622,-100,4,2,1,60,0,0
9191,-100,4,2,1,85,0,0
9381,-100,4,2,1,60,0,0
9951,-100,4,2,1,70,0,0
10141,-100,4,2,1,60,0,0
10521,-100,4,2,1,70,0,0
10710,-100,4,2,1,60,0,0
11090,-100,4,2,1,70,0,0
11280,-100,4,2,1,60,0,0
11470,-100,4,2,1,70,0,0
11660,-100,4,2,1,60,0,0
12229,-100,4,2,1,90,0,0
12419,-100,4,2,1,65,0,0
12989,-100,4,2,1,80,0,0
13179,-100,4,2,1,65,0,0
13559,-100,4,2,1,80,0,0
13748,-100,4,2,1,65,0,0
14128,-100,4,2,1,80,0,0
14318,-100,4,2,1,65,0,0
14508,-100,4,2,1,80,0,0
14698,-100,4,2,1,65,0,0
14888,-100,4,2,1,70,0,0
15078,-100,4,2,1,85,0,0
15267,-133.333333333333,4,2,1,40,0,0
27419,-111.111111111111,4,2,1,50,0,0
39571,-111.111111111111,4,2,1,40,0,0
57799,-111.111111111111,4,2,1,50,0,0
59318,-111.111111111111,4,2,1,60,0,0
60837,-111.111111111111,4,2,1,70,0,0
62166,-111.111111111111,4,2,1,80,0,0
63116,-153.846153846153,4,2,1,100,0,0
63685,-153.846153846153,4,2,1,60,0,0
63875,-100,4,2,69,40,0,1
64065,-100,4,2,1,90,0,1
74508,-100,4,2,1,80,0,0
76027,-100,4,2,1,90,0,1
85141,-100,4,2,69,90,0,1
85331,-100,4,2,1,90,0,1
88179,-100,4,2,1,60,0,0
89698,-111.111111111111,4,2,1,60,0,0
114191,-111.111111111111,4,2,3,40,0,0
114571,-111.111111111111,4,2,3,60,0,0
114761,-111.111111111111,4,2,3,30,0,0
115141,-111.111111111111,4,2,3,40,0,0
115710,-111.111111111111,4,2,3,60,0,0
115900,-111.111111111111,4,2,3,40,0,0
116280,-111.111111111111,4,2,3,60,0,0
116470,-111.111111111111,4,2,3,30,0,0
117040,-111.111111111111,4,2,3,60,0,0
117229,-111.111111111111,4,2,3,40,0,0
117609,-111.111111111111,4,2,3,60,0,0
117799,-111.111111111111,4,2,3,40,0,0
117989,-111.111111111111,4,2,3,30,0,0
118179,-111.111111111111,4,2,3,40,0,0
118748,-111.111111111111,4,2,3,60,0,0
118938,-111.111111111111,4,2,3,40,0,0
119318,-111.111111111111,4,2,3,50,0,0
119698,-111.111111111111,4,2,3,60,0,0
119888,-111.111111111111,4,2,3,30,0,0
119983,-111.111111111111,4,2,3,40,0,0
120078,-111.111111111111,4,2,3,60,0,0
120267,-111.111111111111,4,2,3,40,0,0
120457,-111.111111111111,4,2,3,30,0,0
120647,-111.111111111111,4,2,3,60,0,0
120837,-111.111111111111,4,2,3,40,0,0
121217,-111.111111111111,4,2,3,60,0,0
121407,-111.111111111111,4,2,3,40,0,0
121786,-111.111111111111,4,2,3,60,0,0
121976,-111.111111111111,4,2,3,40,0,0
122356,-111.111111111111,4,2,3,60,0,0
122546,-111.111111111111,4,2,3,30,0,0
122736,-111.111111111111,4,2,3,40,0,0
122926,-111.111111111111,4,2,3,50,0,0
123116,-111.111111111111,4,2,3,60,0,0
123305,-111.111111111111,4,2,3,40,0,0
123685,-111.111111111111,4,2,3,60,0,0
123875,-111.111111111111,4,2,3,30,0,0
124255,-111.111111111111,4,2,3,40,0,0
124824,-111.111111111111,4,2,3,60,0,0
125014,-111.111111111111,4,2,3,30,0,0
125394,-111.111111111111,4,2,3,60,0,0
125584,-111.111111111111,4,2,3,40,0,0
125774,-111.111111111111,4,2,3,50,0,0
125964,-111.111111111111,4,2,3,60,0,0
126153,-133.333333333333,4,2,3,40,0,0
132229,-111.111111111111,4,2,3,40,0,0
135267,-111.111111111111,4,2,3,15,0,0
135647,-111.111111111111,4,2,3,20,0,0
135837,-111.111111111111,4,2,3,25,0,0
136027,-111.111111111111,4,2,3,30,0,0
136217,-111.111111111111,4,2,3,35,0,0
136407,-111.111111111111,4,2,3,40,0,0
136597,-111.111111111111,4,2,3,45,0,0
137546,-153.846153846153,4,2,2,20,0,0
138210,-153.846153846153,4,2,2,5,0,0
138305,-100,4,2,69,100,0,1
138495,-100,4,2,2,100,0,1
148938,-100,4,2,1,80,0,0
150457,-100,4,2,1,90,0,1
159571,-100,4,2,69,90,0,1
159761,-100,4,2,1,90,0,1
162609,-100,4,2,1,30,0,0
164128,-100,4,2,69,40,0,0
164318,-100,4,2,1,90,0,0
188432,-100,4,2,2,30,0,0
199634,-100,4,2,2,5,0,0
199824,-153.846153846153,4,2,2,5,0,0
200394,-153.846153846153,4,2,2,30,0,0
200584,-100,4,2,69,100,0,1
200774,-100,4,2,2,100,0,1
209698,-100,4,2,69,100,0,1
209888,-100,4,2,2,100,0,1
211217,-100,4,2,2,80,0,0
212736,-100,4,2,1,90,0,1
221850,-100,4,2,69,90,0,1
222040,-100,4,2,1,90,0,1
224888,-100,4,2,1,40,0,0
226407,-100,4,2,69,40,0,0
226597,-100,4,2,1,90,0,0
247672,-100,4,2,69,90,0,1
247862,-100,4,2,1,90,0,0
250710,-100,4,2,69,60,0,0
250900,-100,4,2,3,60,0,0
262862,-111.111111111111,4,2,3,60,0,0
263242,-111.111111111111,4,2,3,40,0,0
267229,-111.111111111111,4,2,3,50,0,0
267609,-111.111111111111,4,2,3,55,0,0
267989,-111.111111111111,4,2,3,60,0,0
268369,-111.111111111111,4,2,3,70,0,0
268938,-111.111111111111,4,2,3,80,0,0
269128,-111.111111111111,4,2,3,55,0,0
269508,-111.111111111111,4,2,3,50,0,0
269888,-111.111111111111,4,2,3,40,0,0
270267,-111.111111111111,4,2,3,35,0,0
271407,-111.111111111111,4,2,3,55,0,0
271597,-111.111111111111,4,2,3,40,0,0
271976,-111.111111111111,4,2,3,50,0,0

[Colours]
Combo1 : 91,247,255
Combo2 : 0,234,158
Combo3 : 255,239,125
Combo4 : 94,130,255

[HitObjects]
120,177,3116,6,0,L|215:172,1,85,2|0,0:0|0:0,0:0:0:0:
293,186,3495,1,0,0:0:0:0:
241,295,3685,1,0,0:0:0:0:
120,177,3875,2,0,P|109:125|122:78,1,85,8|0,0:0|0:0,0:0:0:0:
172,31,4255,1,0,0:0:0:0:
293,186,4445,1,8,0:0:0:0:
450,117,4634,6,0,L|364:122,1,85,0|0,0:0|0:0,0:0:0:0:
293,186,5014,1,8,0:0:0:0:
413,305,5204,1,0,0:0:0:0:
368,130,5394,1,8,0:0:0:0:
316,293,5584,1,0,0:0:0:0:
482,257,5774,1,2,0:0:0:0:
482,257,5964,1,2,0:0:0:0:
293,186,6153,6,0,P|232:178|186:189,1,85,12|0,0:0|0:0,0:0:0:0:
122,203,6533,1,0,0:0:0:0:
122,203,6723,1,0,0:0:0:0:
118,27,6913,2,0,L|120:120,1,85,8|0,0:0|0:0,0:0:0:0:
122,203,7293,1,0,0:0:0:0:
208,315,7483,6,0,P|269:323|315:312,1,85,8|0,0:0|0:0,0:0:0:0:
375,302,7862,1,0,0:0:0:0:
428,183,8052,1,8,0:0:0:0:
291,119,8242,1,0,0:0:0:0:
367,287,8432,1,8,0:0:0:0:
388,117,8622,1,0,0:0:0:0:
236,184,8812,1,2,0:0:0:0:
236,184,9002,1,2,0:0:0:0:
77,229,9191,6,0,P|68:188|82:141,1,85,12|0,0:0|0:0,0:0:0:0:
115,69,9571,1,0,0:0:0:0:
236,184,9761,1,0,0:0:0:0:
335,68,9951,2,0,L|425:70,1,85,8|0,0:0|0:0,0:0:0:0:
505,71,10331,1,0,0:0:0:0:
406,187,10521,6,0,L|316:185,1,85,8|0,0:0|0:0,0:0:0:0:
236,184,10901,1,0,0:0:0:0:
133,55,11090,2,0,P|126:100|140:154,1,85,8|0,0:0|0:0,0:0:0:0:
236,267,11470,2,0,P|243:222|229:168,1,85,8|0,0:0|0:0,0:0:0:0:
126,310,11850,1,2,0:0:0:0:
126,310,12040,1,2,0:0:0:0:
299,338,12229,6,0,L|396:337,1,85,12|0,0:0|0:0,0:0:0:0:
465,274,12609,1,0,0:0:0:0:
409,188,12799,1,0,0:0:0:0:
464,80,12989,2,0,P|412:89|367:85,1,85,8|0,0:0|0:0,0:0:0:0:
280,72,13369,1,0,0:0:0:0:
173,138,13559,6,0,L|178:223,1,85,8|0,0:0|0:0,0:0:0:0:
184,316,13938,1,0,0:0:0:0:
64,186,14128,2,0,L|59:101,1,85,8|0,0:0|0:0,0:0:0:0:
53,17,14508,1,8,0:0:0:0:
173,138,14698,1,0,0:0:0:0:
242,36,14888,1,2,0:0:0:0:
167,145,15078,1,2,0:0:0:0:
318,230,15267,6,0,P|362:235|401:228,1,63.7500024318696,6|0,0:0|0:0,0:0:0:0:
463,221,15647,1,2,0:0:0:0:
463,221,16027,2,0,L|458:144,1,63.7500024318696,8|0,0:0|0:0,0:0:0:0:
451,74,16407,1,0,0:0:0:0:
373,102,16597,1,0,0:0:0:0:
293,79,16786,6,0,P|241:73|208:82,1,63.7500024318696,2|0,0:0|0:0,0:0:0:0:
163,165,17166,2,0,P|215:171|248:162,1,63.7500024318696,2|0,0:0|0:0,0:0:0:0:
284,74,17546,2,0,P|231:78|201:93,1,63.7500024318696,8|0,0:0|0:0,0:0:0:0:
170,173,17926,2,0,P|222:168|252:153,1,63.7500024318696,0|0,0:0|0:0,0:0:0:0:
82,105,18305,6,0,P|65:165|72:242,1,127.500004863739,2|2,0:0|0:0,0:0:0:0:
68,229,19065,2,0,L|142:228,1,63.7500024318696,8|0,0:0|0:0,0:0:0:0:
214,227,19445,1,0,0:0:0:0:
294,244,19634,1,2,0:0:0:0:
375,228,19824,6,0,L|370:155,1,63.7500024318696,2|0,0:0|0:0,0:0:0:0:
451,98,20204,2,0,L|456:171,1,63.7500024318696,0|0,0:0|0:0,0:0:0:0:
438,289,20584,2,0,P|379:317|307:284,1,127.500004863739,8|0,0:0|0:0,0:0:0:0:
207,156,21343,5,2,0:0:0:0:
207,156,21723,1,2,0:0:0:0:
207,156,22103,2,0,L|135:158,1,63.7500024318696,8|0,0:0|0:0,0:0:0:0:
60,165,22483,2,0,P|49:219|65:312,2,127.500004863739,0|2|2,0:0|0:0|0:0,0:0:0:0:
101,93,23432,1,0,0:0:0:0:
58,22,23622,2,0,P|96:13|138:19,1,63.7500024318696,8|0,0:0|0:0,0:0:0:0:
196,48,24002,1,0,0:0:0:0:
276,30,24191,1,0,0:0:0:0:
349,69,24381,6,0,B|383:82|383:82|482:69,2,127.500004863739,2|0|8,0:0|0:0|0:0,0:0:0:0:
276,30,25331,1,0,0:0:0:0:
276,30,25521,2,0,P|263:91|272:173,1,127.500004863739,0|0,0:0|0:0,0:0:0:0:
386,305,26280,5,0,0:0:0:0:
308,274,26470,1,2,0:0:0:0:
229,300,26660,2,0,P|186:305|154:300,1,63.7500024318696,8|0,0:0|0:0,0:0:0:0:
93,261,27040,1,0,0:0:0:0:
16,328,27229,1,0,0:0:0:0:
93,261,27419,6,0,L|91:161,1,76.4999976654053,4|0,0:0|0:0,0:0:0:0:
91,97,27799,1,0,0:0:0:0:
91,97,27989,1,0,0:0:0:0:
252,119,28179,2,0,P|205:129|167:120,1,76.4999976654053,8|0,0:0|0:0,0:0:0:0:
91,97,28559,1,0,0:0:0:0:
91,97,28749,1,0,0:0:0:0:
212,36,28938,6,0,P|248:26|286:30,1,76.4999976654053,2|0,0:0|0:0,0:0:0:0:
362,83,29318,1,2,0:0:0:0:
444,43,29508,1,0,0:0:0:0:
435,145,29698,2,0,L|429:230,1,76.4999976654053,8|0,0:0|0:0,0:0:0:0:
426,311,30078,1,0,0:0:0:0:
426,311,30267,1,0,0:0:0:0:
305,229,30457,6,0,L|211:231,1,76.4999976654053,0|0,0:0|0:0,0:0:0:0:
136,239,30837,1,0,0:0:0:0:
136,239,31027,1,0,0:0:0:0:
183,84,31217,2,0,P|189:137|177:177,1,76.4999976654053,8|0,0:0|0:0,0:0:0:0:
136,239,31597,1,0,0:0:0:0:
195,317,31786,1,0,0:0:0:0:
49,288,31976,6,0,P|40:219|51:120,1,152.999995330811,2|2,0:0|0:0,0:0:0:0:
81,50,32546,1,0,0:0:0:0:
195,100,32736,2,0,P|241:95|282:97,1,76.4999976654053,8|0,0:0|0:0,0:0:0:0:
430,171,33116,2,0,P|383:166|344:155,1,76.4999976654053,0|0,0:0|0:0,0:0:0:0:
480,248,33495,6,0,L|486:334,1,76.4999976654053,2|0,0:0|0:0,0:0:0:0:
396,297,33875,1,2,0:0:0:0:
312,335,34065,1,0,0:0:0:0:
248,202,34255,1,8,0:0:0:0:
248,202,34445,1,0,0:0:0:0:
156,300,34634,1,0,0:0:0:0:
156,300,34824,1,0,0:0:0:0:
124,166,35014,6,0,P|124:118|135:82,1,76.4999976654053,2|0,0:0|0:0,0:0:0:0:
256,127,35394,2,0,P|256:175|245:211,1,76.4999976654053,2|0,0:0|0:0,0:0:0:0:
156,300,35774,2,0,L|246:298,1,76.4999976654053,8|0,0:0|0:0,0:0:0:0:
379,349,36153,2,0,L|289:347,1,76.4999976654053,0|0,0:0|0:0,0:0:0:0:
432,268,36533,6,0,P|440:231|431:178,1,76.4999976654053,2|0,0:0|0:0,0:0:0:0:
324,98,36913,2,0,P|320:135|328:173,1,76.4999976654053,2|0,0:0|0:0,0:0:0:0:
417,40,37293,1,8,0:0:0:0:
417,40,37483,1,0,0:0:0:0:
257,36,37672,2,0,L|176:35,1,76.4999976654053,2|2,0:0|0:0,0:0:0:0:
90,72,38052,5,2,0:0:0:0:
157,153,38242,1,0,0:0:0:0:
97,247,38432,1,2,0:0:0:0:
219,248,38622,1,2,0:0:0:0:
145,136,38812,1,8,0:0:0:0:
91,261,39002,1,0,0:0:0:0:
241,165,39191,2,0,P|289:157|340:168,1,76.4999976654053,2|0,0:0|0:0,0:0:0:0:
419,182,39571,6,0,P|432:130|411:23,2,152.999995330811,6|0|0,0:0|0:0|0:0,0:0:0:0:
155,186,40710,2,0,P|142:134|163:27,2,152.999995330811,0|0|0,0:0|0:0|0:0,0:0:0:0:
287,243,41850,1,0,0:0:0:0:
287,243,42229,1,0,0:0:0:0:
173,251,42609,6,0,L|4:258,2,152.999995330811,2|0|2,0:0|0:0|0:0,0:0:0:0:
351,95,43748,2,0,L|503:88,2,152.999995330811,0|2|0,0:0|0:0|0:0,0:0:0:0:
241,102,44888,1,2,0:0:0:0:
241,102,45267,1,0,0:0:0:0:
241,102,45647,6,0,P|183:96|148:101,1,76.4999976654053,2|0,0:0|0:0,0:0:0:0:
60,189,46027,2,0,P|118:195|153:190,1,76.4999976654053,0|0,0:0|0:0,0:0:0:0:
211,330,46407,2,0,L|218:244,1,76.4999976654053,2|0,0:0|0:0,0:0:0:0:
316,192,46786,2,0,L|309:268,1,76.4999976654053,0|0,0:0|0:0,0:0:0:0:
381,337,47166,5,2,0:0:0:0:
381,337,47356,1,0,0:0:0:0:
461,279,47546,1,0,0:0:0:0:
461,279,47736,1,0,0:0:0:0:
417,187,47926,1,2,0:0:0:0:
417,187,48116,1,0,0:0:0:0:
441,79,48305,2,0,L|360:76,1,76.4999976654053
209,36,48685,5,2,0:0:0:0:
270,128,48875,1,0,0:0:0:0:
140,148,49065,1,0,0:0:0:0:
282,215,49255,1,0,0:0:0:0:
143,232,49445,1,2,0:0:0:0:
290,300,49634,1,0,0:0:0:0:
290,300,49824,1,0,0:0:0:0:
365,183,50014,1,0,0:0:0:0:
211,184,50204,5,2,0:0:0:0:
297,308,50394,1,0,0:0:0:0:
376,177,50584,2,0,P|381:133|367:91,1,76.4999976654053,2|0,0:0|0:0,0:0:0:0:
331,19,50964,1,2,0:0:0:0:
331,19,51153,1,0,0:0:0:0:
176,93,51343,2,0,L|81:96,1,76.4999976654053,2|0,0:0|0:0,0:0:0:0:
7,98,51723,5,6,0:0:0:0:
7,98,52103,2,0,P|20:151|13:177,1,76.4999976654053,0|0,0:0|0:0,0:0:0:0:
108,197,52483,2,0,P|83:245|61:261,1,76.4999976654053,8|0,0:0|0:0,0:0:0:0:
146,340,52862,2,0,P|95:360|68:356,1,76.4999976654053,0|0,0:0|0:0,0:0:0:0:
199,251,53242,2,0,P|277:235|361:255,1,152.999995330811,2|2,0:0|0:0,0:0:0:0:
347,249,54002,2,0,L|344:89,1,152.999995330811,8|0,0:0|0:0,0:0:0:0:
344,96,54761,6,0,P|389:108|374:30,1,152.999995330811,0|0,0:0|0:0,0:0:0:0:
278,40,55331,1,0,0:0:0:0:
196,121,55521,2,0,P|185:160|201:221,1,76.4999976654053,8|0,0:0|0:0,0:0:0:0:
297,294,55900,2,0,P|300:256|289:219,1,76.4999976654053,0|0,0:0|0:0,0:0:0:0:
214,344,56280,2,0,P|126:354|62:335,2,152.999995330811,2|2|8,0:0|0:0|0:0,0:0:0:0:
214,344,57419,5,2,0:0:0:0:
297,294,57609,1,2,0:0:0:0:
448,337,57799,2,0,P|402:343|366:334,1,76.4999976654053,2|0,0:0|0:0,0:0:0:0:
477,247,58179,1,0,0:0:0:0:
477,247,58369,1,2,0:0:0:0:
409,112,58559,2,0,L|406:210,1,76.4999976654053,8|0,0:0|0:0,0:0:0:0:
316,100,58938,1,0,0:0:0:0:
244,180,59128,1,2,0:0:0:0:
171,62,59318,6,0,P|119:54|78:64,1,76.4999976654053,0|0,0:0|0:0,0:0:0:0:
16,105,59698,1,0,0:0:0:0:
82,174,59888,1,2,0:0:0:0:
42,284,60078,2,0,L|123:282,1,76.4999976654053,8|0,0:0|0:0,0:0:0:0:
208,327,60457,1,0,0:0:0:0:
267,232,60647,1,2,0:0:0:0:
330,349,60837,5,2,0:0:0:0:
189,253,61027,1,0,0:0:0:0:
347,252,61217,1,2,0:0:0:0:
213,342,61407,1,0,0:0:0:0:
268,220,61597,2,0,B|271:170|271:170|268:131,1,76.4999976654053,10|0,0:0|0:0,0:0:0:0:
227,60,61976,1,2,0:0:0:0:
341,104,62166,1,8,0:0:0:0:
341,104,63116,6,0,P|347:174|412:145,1,165.749992412568,8|0,0:0|0:0,0:0:0:0:
341,104,63875,6,0,L|237:109,1,85,2|0,0:0|0:0,0:0:0:0:
139,157,64255,1,0,0:0:0:0:
160,32,64445,1,8,0:0:0:0:
226,190,64634,1,0,0:0:0:0:
61,110,64824,2,0,P|53:153|64:205,1,85,0|8,0:0|0:0,0:0:0:0:
125,259,65204,1,0,0:0:0:0:
208,115,65394,5,8,0:0:0:0:
138,246,65584,1,0,0:0:0:0:
305,208,65774,1,0,0:0:0:0:
144,329,65964,2,0,P|134:281|141:232,1,85,8|0,0:0|0:0,0:0:0:0:
305,208,66343,2,0,P|315:256|308:305,1,85,0|8,0:0|0:0,0:0:0:0:
223,257,66723,1,8,0:0:0:0:
357,152,66913,5,12,0:0:0:0:
455,183,67103,1,0,0:0:0:0:
268,143,67293,1,0,0:0:0:0:
421,99,67483,1,12,0:0:0:0:
365,247,67672,1,0,0:0:0:0:
471,280,67862,1,0,0:0:0:0:
346,243,68052,2,0,L|240:244,1,85,12|0,0:0|0:0,0:0:0:0:
110,246,68432,6,0,P|127:298|161:333,1,85,0|8,0:0|0:0,0:0:0:0:
192,160,68812,2,0,P|175:108|140:72,1,85,0|0,0:0|0:0,0:0:0:0:
97,163,69191,1,8,0:0:0:0:
254,93,69381,1,0,0:0:0:0:
76,61,69571,1,8,0:0:0:0:
267,97,69761,1,0,0:0:0:0:
106,184,69951,6,0,P|191:178|288:185,1,170,14|0,0:0|0:0,0:0:0:0:
377,244,70521,1,8,0:0:0:0:
346,114,70710,1,2,0:0:0:0:
301,286,70900,1,0,0:0:0:0:
458,182,71090,1,8,0:0:0:0:
458,182,71280,1,0,0:0:0:0:
289,293,71470,6,0,B|233:299|233:299|192:295,1,85,12|0,0:0|0:0,0:0:0:0:
109,255,71850,1,0,0:0:0:0:
24,339,72040,1,8,0:0:0:0:
123,241,72229,2,0,P|130:191|122:147,1,85,2|0,0:0|0:0,0:0:0:0:
55,87,72609,1,8,0:0:0:0:
225,103,72799,1,0,0:0:0:0:
41,85,72989,5,12,0:0:0:0:
131,28,73179,1,0,0:0:0:0:
33,175,73369,1,0,0:0:0:0:
28,5,73559,1,8,0:0:0:0:
206,64,73748,1,0,0:0:0:0:
305,32,73938,1,0,0:0:0:0:
238,189,74128,1,8,0:0:0:0:
138,153,74318,1,0,0:0:0:0:
204,265,74508,5,4,0:0:0:0:
274,118,74698,1,8,0:0:0:0:
133,226,74888,2,0,P|122:269|147:326,1,85,0|0,0:0|0:0,0:0:0:0:
288,260,75267,2,0,L|185:266,1,85,12|0,0:0|0:0,0:0:0:0:
328,333,75647,1,12,0:0:0:0:
370,337,75742,1,8,0:0:0:0:
412,342,75837,1,8,0:0:0:0:
453,350,75932,1,8,0:0:0:0:
495,356,76027,6,0,P|496:268|476:173,1,170,6|8,0:0|0:0,0:0:0:0:
362,129,76597,1,0,0:0:0:0:
280,256,76786,1,0,0:0:0:0:
355,142,76976,1,0,0:0:0:0:
399,294,77166,1,0,0:0:0:0:
237,180,77356,6,0,P|177:179|136:185,1,85,8|0,0:0|0:0,0:0:0:0:
61,228,77736,1,0,0:0:0:0:
50,62,77926,2,0,L|55:147,1,85,8|0,0:0|0:0,0:0:0:0:
113,285,78305,2,0,P|64:306|17:293,1,85,0|0,0:0|0:0,0:0:0:0:
194,325,78685,2,0,P|243:346|290:333,1,85,0|8,0:0|0:0,0:0:0:0:
363,281,79065,5,0,0:0:0:0:
269,177,79255,1,0,0:0:0:0:
372,291,79445,1,8,0:0:0:0:
447,223,79634,1,0,0:0:0:0:
244,250,79824,1,0,0:0:0:0:
404,161,80014,1,0,0:0:0:0:
228,259,80204,2,0,L|130:262,1,85,8|2,0:0|0:0,0:0:0:0:
47,190,80584,5,0,0:0:0:0:
137,93,80774,1,0,0:0:0:0:
74,266,80964,1,8,0:0:0:0:
17,111,81153,1,0,0:0:0:0:
197,153,81343,1,0,0:0:0:0:
324,62,81533,1,2,0:0:0:0:
310,223,81723,1,8,0:0:0:0:
206,158,81913,1,0,0:0:0:0:
333,56,82103,6,0,P|399:46|464:143,1,170,6|8,0:0|0:0,0:0:0:0:
379,210,82672,2,0,P|371:162|379:127,1,85,0|0,0:0|0:0,0:0:0:0:
473,235,83052,1,0,0:0:0:0:
473,235,83242,1,0,0:0:0:0:
335,304,83432,1,8,0:0:0:0:
485,229,83622,5,0,0:0:0:0:
296,230,83812,1,0,0:0:0:0:
472,319,84002,1,8,0:0:0:0:
406,181,84191,1,0,0:0:0:0:
335,304,84381,2,0,P|275:314|240:291,1,85,0|0,0:0|0:0,0:0:0:0:
189,226,84761,1,0,0:0:0:0:
95,335,84951,1,8,0:0:0:0:
205,208,85141,5,2,0:0:0:0:
73,169,85331,1,0,0:0:0:0:
183,313,85521,1,8,0:0:0:0:
149,136,85710,2,0,B|143:81|143:81|150:48,2,85,0|0|0,0:0|0:0|0:0,0:0:0:0:
242,219,86280,1,12,0:0:0:0:
329,101,86470,1,0,0:0:0:0:
407,192,86660,5,0,0:0:0:0:
258,215,86850,1,0,0:0:0:0:
413,202,87040,1,12,0:0:0:0:
329,101,87229,1,0,0:0:0:0:
438,108,87419,1,0,0:0:0:0:
395,274,87609,1,0,0:0:0:0:
341,112,87799,1,12,0:0:0:0:
490,196,87989,1,8,0:0:0:0:
307,289,88179,5,2,0:0:0:0:
307,289,88559,1,2,0:0:0:0:
307,289,88938,1,2,0:0:0:0:
307,289,89318,1,2,0:0:0:0:
307,289,89698,6,0,L|207:291,1,76.4999976654053,4|0,0:0|0:0,0:0:0:0:
130,293,90078,1,0,0:0:0:0:
130,293,90267,1,0,0:0:0:0:
152,139,90457,2,0,P|162:189|158:231,1,76.4999976654053,8|0,0:0|0:0,0:0:0:0:
46,166,90837,2,0,P|37:128|37:90,1,76.4999976654053,2|2,0:0|0:0,0:0:0:0:
113,22,91217,5,0,0:0:0:0:
206,61,91407,1,0,0:0:0:0:
305,27,91597,1,0,0:0:0:0:
305,27,91786,1,0,0:0:0:0:
249,142,91976,2,0,L|335:141,1,76.4999976654053,8|0,0:0|0:0,0:0:0:0:
442,173,92356,1,2,0:0:0:0:
404,81,92546,1,2,0:0:0:0:
365,209,92736,6,0,P|362:256|366:299,1,76.4999976654053,0|0,0:0|0:0,0:0:0:0:
379,370,93116,1,0,0:0:0:0:
379,370,93305,1,0,0:0:0:0:
253,315,93495,2,0,L|160:316,1,76.4999976654053,8|0,0:0|0:0,0:0:0:0:
44,268,93875,1,2,0:0:0:0:
89,358,94065,1,0,0:0:0:0:
124,225,94255,6,0,P|130:163|109:65,2,152.999995330811,0|0|8,0:0|0:0|0:0,0:0:0:0:
44,268,95204,1,0,0:0:0:0:
200,263,95394,2,0,L|280:262,1,76.4999976654053,0|0,0:0|0:0,0:0:0:0:
398,178,95774,6,0,L|321:178,1,76.4999976654053,6|0,0:0|0:0,0:0:0:0:
229,181,96153,1,0,0:0:0:0:
229,181,96343,1,0,0:0:0:0:
295,56,96533,1,8,0:0:0:0:
192,90,96723,1,0,0:0:0:0:
318,49,96913,1,2,0:0:0:0:
395,124,97103,1,0,0:0:0:0:
340,217,97293,6,0,P|331:257|341:315,1,76.4999976654053,0|0,0:0|0:0,0:0:0:0:
454,215,97672,2,0,P|447:174|416:124,1,76.4999976654053,2|0,0:0|0:0,0:0:0:0:
287,136,98052,1,8,0:0:0:0:
344,30,98242,1,0,0:0:0:0:
282,148,98432,1,0,0:0:0:0:
351,18,98622,1,0,0:0:0:0:
204,83,98812,6,0,B|89:71|89:71|43:83,1,152.999995330811,2|0,0:0|0:0,0:0:0:0:
109,164,99381,1,0,0:0:0:0:
64,292,99571,1,8,0:0:0:0:
13,210,99761,1,0,0:0:0:0:
153,264,99951,2,0,P|190:272|237:265,1,76.4999976654053,2|0,0:0|0:0,0:0:0:0:
323,253,100331,5,0,0:0:0:0:
323,253,100521,1,0,0:0:0:0:
251,188,100710,1,0,0:0:0:0:
391,149,100900,1,0,0:0:0:0:
315,265,101090,1,10,0:0:0:0:
384,161,101280,1,0,0:0:0:0:
478,242,101470,1,8,0:0:0:0:
478,242,101660,1,8,0:0:0:0:
143,145,114002,6,0,L|237:143,1,76.4999976654053,2|0,0:0|0:0,0:0:0:0:
263,142,114286,1,0,0:0:0:0:
263,142,114381,1,0,0:0:0:0:
164,244,114571,1,2,0:0:0:0:
274,281,114761,1,0,0:0:0:0:
274,281,114951,1,0,0:0:0:0:
148,237,115141,1,2,0:0:0:0:
175,339,115331,1,0,0:0:0:0:
274,281,115521,6,0,P|317:273|364:281,1,76.4999976654053,0|2,0:0|0:0,0:0:0:0:
450,308,115900,2,0,L|447:222,1,76.4999976654053,0|0,0:0|0:0,0:0:0:0:
364,146,116280,1,2,0:0:0:0:
364,146,116470,1,0,0:0:0:0:
426,62,116660,1,0,0:0:0:0:
284,90,116850,1,0,0:0:0:0:
284,90,116945,1,0,0:0:0:0:
284,90,117040,5,2,0:0:0:0:
392,166,117229,1,0,0:0:0:0:
259,71,117419,2,0,P|251:120|259:160,1,76.4999976654053,0|0,0:0|0:0,0:0:0:0:
170,200,117799,2,0,P|188:246|215:276,1,76.4999976654053,0|0,0:0|0:0,0:0:0:0:
319,313,118179,1,0,0:0:0:0:
357,313,118274,1,0,0:0:0:0:
392,299,118369,1,0,0:0:0:0:
424,278,118464,1,0,0:0:0:0:
444,245,118559,5,0,0:0:0:0:
317,209,118748,1,2,0:0:0:0:
405,142,118938,1,0,0:0:0:0:
305,215,119128,1,0,0:0:0:0:
481,174,119318,1,0,0:0:0:0:
481,174,119508,1,0,0:0:0:0:
323,115,119698,2,0,P|275:106|226:108,1,76.4999976654053,2|0,0:0|0:0,0:0:0:0:
216,106,119983,1,0,0:0:0:0:
186,115,120078,6,0,L|184:221,1,76.4999976654053,0|0,0:0|0:0,0:0:0:0:
183,282,120457,1,0,0:0:0:0:
91,191,120647,1,2,0:0:0:0:
70,292,120837,1,0,0:0:0:0:
202,281,121027,1,0,0:0:0:0:
73,184,121217,2,0,P|34:179|-3:187,1,76.4999976654053,2|0,0:0|0:0,0:0:0:0:
148,119,121597,6,0,P|187:124|224:116,1,76.4999976654053,0|2,0:0|0:0,0:0:0:0:
306,72,121976,1,0,0:0:0:0:
306,72,122166,1,0,0:0:0:0:
408,164,122356,1,2,0:0:0:0:
460,77,122546,1,0,0:0:0:0:
325,148,122736,1,0,0:0:0:0:
318,181,122831,1,0,0:0:0:0:
313,215,122926,1,0,0:0:0:0:
310,249,123021,1,0,0:0:0:0:
310,283,123116,6,0,L|224:285,1,76.4999976654053,2|0,0:0|0:0,0:0:0:0:
128,227,123495,1,0,0:0:0:0:
53,317,123685,1,2,0:0:0:0:
53,317,123875,1,0,0:0:0:0:
156,327,124065,1,0,0:0:0:0:
38,228,124255,1,0,0:0:0:0:
27,195,124350,1,0,0:0:0:0:
22,160,124445,1,0,0:0:0:0:
24,125,124540,1,0,0:0:0:0:
29,91,124634,5,0,0:0:0:0:
132,153,124824,1,2,0:0:0:0:
192,46,125014,1,0,0:0:0:0:
124,168,125204,1,0,0:0:0:0:
252,136,125394,1,2,0:0:0:0:
115,184,125584,1,2,0:0:0:0:
233,248,125774,1,2,0:0:0:0:
233,248,125964,1,2,0:0:0:0:
105,203,126153,6,0,P|100:281|138:345,1,127.500004863739,4|0,0:0|0:0,0:0:0:0:
202,347,126723,1,0,0:0:0:0:
286,337,126913,2,0,L|358:328,1,63.7500024318696,0|0,0:0|0:0,0:0:0:0:
410,233,127293,2,0,L|338:242,1,63.7500024318696,0|0,0:0|0:0,0:0:0:0:
471,290,127672,2,0,P|492:232|450:159,2,127.500004863739,2|0|0,0:0|0:0|0:0,0:0:0:0:
471,290,128812,1,0,0:0:0:0:
471,290,129191,6,0,L|341:289,1,127.500004863739,0|0,0:0|0:0,0:0:0:0:
250,290,129761,1,0,0:0:0:0:
198,222,129951,2,0,P|192:184|202:151,1,63.7500024318696,0|0,0:0|0:0,0:0:0:0:
144,278,130331,2,0,P|123:245|119:211,1,63.7500024318696,0|0,0:0|0:0,0:0:0:0:
128,354,130710,2,0,P|86:328|45:257,2,127.500004863739
127,353,131850,1,0,0:0:0:0:
219,310,132040,1,0,0:0:0:0:
338,355,132229,6,0,L|419:353,1,76.4999976654053
482,291,132609,1,0,0:0:0:0:
482,291,132799,1,0,0:0:0:0:
404,159,132989,2,0,P|402:206|417:255,1,76.4999976654053,0|0,0:0|0:0,0:0:0:0:
482,291,133369,1,0,0:0:0:0:
482,291,133559,1,0,0:0:0:0:
501,180,133748,6,0,P|503:133|488:84,1,76.4999976654053,0|0,0:0|0:0,0:0:0:0:
413,39,134128,1,0,0:0:0:0:
413,39,134318,1,0,0:0:0:0:
311,86,134508,2,0,L|223:86,1,76.4999976654053,0|0,0:0|0:0,0:0:0:0:
137,84,134888,1,0,0:0:0:0:
137,84,135078,1,0,0:0:0:0:
201,163,135267,5,0,0:0:0:0:
256,192,135362,12,0,136786,0:0:0:0:
265,269,137546,6,0,B|204:288|160:256|160:256|158:281|146:319,1,165.749992412568
148,310,138305,6,0,P|160:261|134:131,1,170,2|8,0:0|0:0,0:0:0:0:
55,62,138875,1,0,0:0:0:0:
64,190,139065,1,0,0:0:0:0:
137,28,139255,1,0,0:0:0:0:
32,74,139445,1,0,0:0:0:0:
214,67,139634,1,8,0:0:0:0:
335,33,139824,6,0,P|323:75|330:122,1,85,0|0,0:0|0:0,0:0:0:0:
434,208,140204,1,8,0:0:0:0:
405,83,140394,1,0,0:0:0:0:
296,191,140584,1,0,0:0:0:0:
296,191,140774,1,0,0:0:0:0:
457,215,140964,1,0,0:0:0:0:
273,183,141153,6,0,L|183:183,1,85,8|4,0:0|0:0,0:0:0:0:
97,242,141533,1,0,0:0:0:0:
47,86,141723,1,8,0:0:0:0:
18,212,141913,1,0,0:0:0:0:
127,74,142103,1,0,0:0:0:0:
8,228,142293,1,0,0:0:0:0:
180,281,142483,2,0,L|265:281,1,85,8|0,0:0|0:0,0:0:0:0:
339,135,142862,6,0,P|352:182|342:227,1,85,0|0,0:0|0:0,0:0:0:0:
250,103,143242,2,0,P|276:62|317:40,1,85,8|0,0:0|0:0,0:0:0:0:
218,183,143622,2,0,P|177:209|131:214,1,85,0|0,0:0|0:0,0:0:0:0:
15,208,144002,1,8,0:0:0:0:
97,103,144191,1,8,0:0:0:0:
9,219,144381,6,0,P|14:271|112:345,1,170,4|8,0:0|0:0,0:0:0:0:
188,281,144951,1,0,0:0:0:0:
281,339,145141,2,0,L|376:334,1,85,0|0,0:0|0:0,0:0:0:0:
439,266,145521,1,0,0:0:0:0:
355,156,145710,1,8,0:0:0:0:
451,278,145900,5,0,0:0:0:0:
494,170,146090,1,0,0:0:0:0:
328,241,146280,1,12,0:0:0:0:
328,241,146470,1,0,0:0:0:0:
399,93,146660,2,0,P|353:80|305:96,1,85
221,147,147040,1,8,0:0:0:0:
131,48,147229,1,8,0:0:0:0:
229,165,147419,6,0,L|137:167,1,85,4|0,0:0|0:0,0:0:0:0:
36,250,147799,1,8,0:0:0:0:
63,145,147989,1,0,0:0:0:0:
133,306,148179,1,0,0:0:0:0:
15,242,148369,1,0,0:0:0:0:
188,232,148559,1,8,0:0:0:0:
188,232,148748,1,0,0:0:0:0:
294,114,148938,6,0,P|310:164|294:215,1,85,0|0,0:0|0:0,0:0:0:0:
216,34,149318,2,0,L|309:28,1,85,12|0,0:0|0:0,0:0:0:0:
202,126,149698,1,0,0:0:0:0:
164,125,149793,1,0,0:0:0:0:
125,124,149888,1,0,0:0:0:0:
86,121,149983,1,0,0:0:0:0:
47,119,150078,2,0,L|2:118,1,42.5,10|0,0:0|0:0,0:0:0:0:
83,213,150267,2,0,L|128:214,1,42.5,10|0,0:0|0:0,0:0:0:0:
14,302,150457,6,0,P|72:307|190:302,1,170,4|8,0:0|0:0,0:0:0:0:
266,227,151027,1,2,0:0:0:0:
183,182,151217,1,0,0:0:0:0:
277,314,151407,1,0,0:0:0:0:
346,165,151597,1,8,0:0:0:0:
168,185,151786,1,8,0:0:0:0:
355,247,151976,6,0,P|401:250|451:244,1,85,0|2,0:0|0:0,0:0:0:0:
386,87,152356,2,0,P|340:84|290:90,1,85,8|0,0:0|0:0,0:0:0:0:
168,185,152736,1,0,0:0:0:0:
266,227,152926,1,0,0:0:0:0:
167,98,153116,1,0,0:0:0:0:
170,265,153305,1,8,0:0:0:0:
167,84,153495,6,0,L|72:88,1,85,0|0,0:0|0:0,0:0:0:0:
168,185,153875,1,8,0:0:0:0:
275,77,154065,1,0,0:0:0:0:
167,84,154255,1,0,0:0:0:0:
313,148,154445,1,0,0:0:0:0:
301,0,154634,1,8,0:0:0:0:
223,156,154824,6,0,P|215:207|219:250,1,85,0|0,0:0|0:0,0:0:0:0:
292,344,155204,1,0,0:0:0:0:
458,294,155394,2,0,L|361:297,1,85,8|0,0:0|0:0,0:0:0:0:
472,211,155774,1,0,0:0:0:0:
450,368,155964,1,2,0:0:0:0:
366,219,156153,1,8,0:0:0:0:
460,381,156343,1,0,0:0:0:0:
472,211,156533,6,0,B|472:167|472:167|458:133|458:133|478:89|457:39,1,170,4|8,0:0|0:0,0:0:0:0:
365,88,157103,1,0,0:0:0:0:
251,49,157293,2,0,P|192:44|150:56,1,85,0|0,0:0|0:0,0:0:0:0:
88,153,157672,1,0,0:0:0:0:
212,127,157862,1,8,0:0:0:0:
65,73,158052,5,0,0:0:0:0:
109,230,158242,1,0,0:0:0:0:
225,125,158432,2,0,L|224:222,1,85,8|0,0:0|0:0,0:0:0:0:
333,344,158812,2,0,L|334:247,1,85,0|0,0:0|0:0,0:0:0:0:
252,347,159191,1,0,0:0:0:0:
412,249,159381,1,8,0:0:0:0:
255,247,159571,5,2,0:0:0:0:
407,349,159761,1,0,0:0:0:0:
334,182,159951,1,8,0:0:0:0:
334,182,160141,1,0,0:0:0:0:
192,294,160331,2,0,P|178:246|190:205,1,85,0|0,0:0|0:0,0:0:0:0:
327,100,160710,2,0,P|341:148|329:189,1,85,12|0,0:0|0:0,0:0:0:0:
239,57,161090,5,0,0:0:0:0:
406,54,161280,1,0,0:0:0:0:
218,58,161470,1,12,0:0:0:0:
327,100,161660,1,0,0:0:0:0:
131,56,161850,2,0,L|78:54,1,42.5,12|0,0:0|0:0,0:0:0:0:
104,168,162040,2,0,L|157:166,1,42.5,8|0,0:0|0:0,0:0:0:0:
266,154,162229,1,12,0:0:0:0:
266,154,162419,1,0,0:0:0:0:
193,247,162609,5,2,0:0:0:0:
193,247,162989,1,2,0:0:0:0:
193,247,163369,1,2,0:0:0:0:
193,247,163748,1,2,0:0:0:0:
193,247,164128,6,0,L|90:245,1,85,6|0,0:0|0:0,0:0:0:0:
265,319,164508,1,0,0:0:0:0:
265,319,164698,1,0,0:0:0:0:
300,155,164888,1,8,0:0:0:0:
193,247,165078,1,0,0:0:0:0:
354,251,165267,1,0,0:0:0:0:
210,160,165457,2,0,P|196:116|201:59,1,85,8|0,0:0|0:0,0:0:0:0:
260,0,165837,5,0,0:0:0:0:
118,109,166027,1,8,0:0:0:0:
281,104,166217,1,0,0:0:0:0:
133,2,166407,1,8,0:0:0:0:
133,2,166597,1,0,0:0:0:0:
32,92,166786,2,0,B|34:137|34:137|48:188,1,85,0|0,0:0|0:0,0:0:0:0:
156,275,167166,6,0,P|97:264|62:275,1,85,8|8,0:0|0:0,0:0:0:0:
201,353,167546,1,0,0:0:0:0:
177,195,167736,1,0,0:0:0:0:
110,347,167926,1,8,0:0:0:0:
110,347,168116,1,0,0:0:0:0:
249,277,168305,1,0,0:0:0:0:
123,139,168495,2,0,P|161:121|227:134,1,85,8|0,0:0|0:0,0:0:0:0:
275,181,168875,5,0,0:0:0:0:
382,109,169065,2,0,L|375:14,1,85,8|0,0:0|0:0,0:0:0:0:
275,181,169445,2,0,L|282:276,1,85,8|0,0:0|0:0,0:0:0:0:
371,340,169824,1,0,0:0:0:0:
371,340,170014,1,0,0:0:0:0:
212,306,170204,6,0,P|163:299|107:307,1,85,8|0,0:0|0:0,0:0:0:0:
31,349,170584,1,0,0:0:0:0:
116,220,170774,1,0,0:0:0:0:
21,366,170964,1,8,0:0:0:0:
3,226,171153,1,0,0:0:0:0:
3,226,171343,1,0,0:0:0:0:
127,302,171533,1,8,0:0:0:0:
57,155,171723,6,0,P|46:103|59:55,1,85,0|0,0:0|0:0,0:0:0:0:
226,103,172103,2,0,L|129:106,1,85,8|0,0:0|0:0,0:0:0:0:
279,197,172483,2,0,L|376:200,1,85,8|0,0:0|0:0,0:0:0:0:
444,259,172862,1,0,0:0:0:0:
444,259,173052,1,0,0:0:0:0:
402,118,173242,5,8,0:0:0:0:
344,293,173432,1,8,0:0:0:0:
444,259,173622,1,0,0:0:0:0:
363,199,173812,1,0,0:0:0:0:
427,336,174002,2,0,P|459:334|507:306,1,85,8|0,0:0|0:0,0:0:0:0:
512,215,174381,1,0,0:0:0:0:
340,193,174571,6,0,P|298:196|262:219,1,85,8|0,0:0|0:0,0:0:0:0:
233,307,174951,1,0,0:0:0:0:
213,156,175141,1,8,0:0:0:0:
127,294,175331,1,0,0:0:0:0:
127,294,175426,1,8,0:0:0:0:
127,294,175521,2,0,B|123:238|123:238|129:201,1,85,8|0,0:0|0:0,0:0:0:0:
213,156,175900,1,0,0:0:0:0:
213,156,176090,1,0,0:0:0:0:
50,285,176280,6,0,L|45:187,1,85,12|0,0:0|0:0,0:0:0:0:
88,84,176660,2,0,P|140:94|196:83,1,85,0|0,0:0|0:0,0:0:0:0:
277,30,177040,1,8,0:0:0:0:
213,156,177229,1,0,0:0:0:0:
344,127,177419,1,0,0:0:0:0:
263,14,177609,1,8,0:0:0:0:
287,188,177799,6,0,B|291:241|291:241|288:289,1,85,0|0,0:0|0:0,0:0:0:0:
344,127,178179,2,0,P|393:111|443:118,1,85,8|0,0:0|0:0,0:0:0:0:
213,156,178559,2,0,P|164:140|114:147,1,85,8|0,0:0|0:0,0:0:0:0:
35,208,178938,1,0,0:0:0:0:
157,221,179128,1,0,0:0:0:0:
37,92,179318,5,8,0:0:0:0:
37,92,179508,1,8,0:0:0:0:
33,234,179698,2,0,B|31:280|31:280|38:325,1,85,0|0,0:0|0:0,0:0:0:0:
157,221,180078,1,8,0:0:0:0:
252,311,180267,1,0,0:0:0:0:
144,211,180457,1,0,0:0:0:0:
321,239,180647,6,0,P|365:242|416:235,1,85,8|0,0:0|0:0,0:0:0:0:
292,106,181027,2,0,P|248:103|197:110,1,85,0|8,0:0|0:0,0:0:0:0:
119,167,181407,1,0,0:0:0:0:
195,28,181597,1,8,0:0:0:0:
230,193,181786,1,0,0:0:0:0:
230,193,181976,1,0,0:0:0:0:
292,106,182166,1,0,0:0:0:0:
105,174,182356,6,0,P|85:227|94:272,1,85,12|8,0:0|0:0,0:0:0:0:
166,349,182736,1,0,0:0:0:0:
171,231,182926,1,0,0:0:0:0:
72,357,183116,1,8,0:0:0:0:
72,357,183305,1,0,0:0:0:0:
244,340,183495,1,0,0:0:0:0:
87,254,183685,6,0,B|34:250|34:250|-1:257,1,85,8|0,0:0|0:0,0:0:0:0:
72,357,184065,1,0,0:0:0:0:
171,231,184255,2,0,P|176:173|164:135,1,85,8|0,0:0|0:0,0:0:0:0:
284,37,184634,2,0,P|279:95|291:133,1,85,8|0,0:0|0:0,0:0:0:0:
374,177,185014,1,0,0:0:0:0:
374,177,185204,1,0,0:0:0:0:
284,37,185394,6,0,L|195:37,1,85,8|8,0:0|0:0,0:0:0:0:
117,127,185774,1,0,0:0:0:0:
215,127,185964,1,0,0:0:0:0:
90,38,186153,1,8,0:0:0:0:
127,150,186343,1,0,0:0:0:0:
59,251,186533,1,0,0:0:0:0:
204,223,186723,6,0,B|252:216|252:216|309:218,1,85,8|8,0:0|0:0,0:0:0:0:
327,220,187008,1,0,0:0:0:0:
365,221,187103,1,0,0:0:0:0:
402,225,187198,1,0,0:0:0:0:
439,233,187293,1,8,0:0:0:0:
433,190,187388,1,0,0:0:0:0:
436,147,187483,1,0,0:0:0:0:
447,106,187578,1,0,0:0:0:0:
465,68,187672,5,10,0:0:0:0:
320,138,187862,1,10,0:0:0:0:
80,222,199824,6,0,B|133:220|133:220|187:198|187:198|251:197,1,165.749992412568,0|2,0:0|0:0,0:0:0:0:
108,141,200584,5,2,0:0:0:0:
215,271,200774,1,0,0:0:0:0:
215,271,200964,1,0,0:0:0:0:
271,109,201153,2,0,P|276:77|264:17,1,85,8|0,0:0|0:0,0:0:0:0:
119,132,201533,1,0,0:0:0:0:
303,229,201723,2,0,B|307:277|307:277|302:335,1,85,8|0,0:0|0:0,0:0:0:0:
119,216,202103,6,0,B|115:168|115:168|120:110,1,85,8|0,0:0|0:0,0:0:0:0:
215,271,202483,1,0,0:0:0:0:
46,273,202672,1,8,0:0:0:0:
194,168,202862,1,0,0:0:0:0:
194,168,203052,1,0,0:0:0:0:
134,343,203242,1,8,0:0:0:0:
61,166,203432,1,8,0:0:0:0:
215,271,203622,6,0,P|269:277|318:266,1,85,12|0,0:0|0:0,0:0:0:0:
368,203,204002,1,0,0:0:0:0:
194,168,204191,1,12,0:0:0:0:
298,272,204381,1,0,0:0:0:0:
298,272,204571,1,0,0:0:0:0:
346,121,204761,1,12,0:0:0:0:
461,171,204951,1,0,0:0:0:0:
328,112,205141,6,0,B|286:102|286:102|239:114,1,85,0|12,0:0|0:0,0:0:0:0:
154,239,205521,2,0,B|196:249|196:249|243:237,1,85,0|0,0:0|0:0,0:0:0:0:
38,142,205900,2,0,L|32:240,1,85,12|0,0:0|0:0,0:0:0:0:
148,323,206280,2,0,L|154:225,1,85,12|0,0:0|0:0,0:0:0:0:
120,78,206660,6,0,P|169:102|276:75,1,170,4|0,0:0|0:0,0:0:0:0:
118,164,207229,1,8,0:0:0:0:
203,24,207419,1,0,0:0:0:0:
203,24,207609,1,0,0:0:0:0:
283,165,207799,2,0,P|325:176|377:170,1,85,8|0,0:0|0:0,0:0:0:0:
506,255,208179,6,0,P|463:252|422:263,1,85,8|0,0:0|0:0,0:0:0:0:
476,352,208559,1,0,0:0:0:0:
488,171,208748,1,8,0:0:0:0:
422,263,208938,1,0,0:0:0:0:
422,263,209128,1,0,0:0:0:0:
417,104,209318,1,8,0:0:0:0:
506,255,209508,1,8,0:0:0:0:
503,81,209698,5,2,0:0:0:0:
341,127,209888,1,0,0:0:0:0:
374,23,210078,1,0,0:0:0:0:
398,186,210267,1,12,0:0:0:0:
275,197,210457,1,0,0:0:0:0:
413,186,210647,1,0,0:0:0:0:
340,43,210837,2,0,B|348:85|348:85|339:132,1,85,12|0,0:0|0:0,0:0:0:0:
275,197,211217,5,0,0:0:0:0:
174,109,211407,1,12,0:0:0:0:
290,209,211597,2,0,P|299:257|288:308,1,85,0|0,0:0|0:0,0:0:0:0:
177,192,211976,2,0,P|168:144|179:93,1,85,12|12,0:0|0:0,0:0:0:0:
190,74,212261,1,8,0:0:0:0:
216,46,212356,2,0,L|261:43,1,42.5,12|8,0:0|0:0,0:0:0:0:
120,18,212546,2,0,L|75:21,1,42.5,8|8,0:0|0:0,0:0:0:0:
14,103,212736,6,0,B|3:178|12:233|12:233|46:204,1,170,4|8,0:0|0:0,0:0:0:0:
102,125,213305,1,2,0:0:0:0:
102,125,213495,1,0,0:0:0:0:
156,280,213685,1,0,0:0:0:0:
177,192,213875,1,8,0:0:0:0:
90,320,214065,2,0,P|127:354|172:353,1,85,0|0,0:0|0:0,0:0:0:0:
260,301,214445,5,2,0:0:0:0:
241,155,214634,2,0,P|203:120|158:121,1,85,8|0,0:0|0:0,0:0:0:0:
260,301,215014,2,0,L|349:299,1,85,0|0,0:0|0:0,0:0:0:0:
460,192,215394,2,0,L|375:193,1,85,0|8,0:0|0:0,0:0:0:0:
485,269,215774,5,0,0:0:0:0:
437,115,215964,1,0,0:0:0:0:
360,269,216153,1,8,0:0:0:0:
460,192,216343,1,2,0:0:0:0:
350,276,216533,1,0,0:0:0:0:
495,274,216723,1,2,0:0:0:0:
317,125,216913,2,0,B|311:78|311:78|316:34,1,85,8|0,0:0|0:0,0:0:0:0:
437,115,217293,6,0,L|525:111,1,85,0|0,0:0|0:0,0:0:0:0:
317,125,217672,1,8,0:0:0:0:
317,125,217862,1,0,0:0:0:0:
389,211,218052,1,0,0:0:0:0:
371,48,218242,1,2,0:0:0:0:
265,185,218432,1,8,0:0:0:0:
363,59,218622,1,0,0:0:0:0:
162,71,218812,6,0,B|103:63|58:103|58:103|26:88|-8:94,1,170,4|8,0:0|0:0,0:0:0:0:
10,175,219381,1,0,0:0:0:0:
48,18,219571,1,0,0:0:0:0:
48,18,219761,1,0,0:0:0:0:
140,168,219951,1,0,0:0:0:0:
49,288,220141,2,0,P|91:272|145:271,1,85,8|0,0:0|0:0,0:0:0:0:
224,313,220521,5,0,0:0:0:0:
111,374,220710,1,8,0:0:0:0:
111,374,220900,1,0,0:0:0:0:
215,225,221090,2,0,B|221:181|221:181|211:130,1,85,0|0,0:0|0:0,0:0:0:0:
172,50,221470,1,0,0:0:0:0:
312,147,221660,1,8,0:0:0:0:
138,161,221850,5,2,0:0:0:0:
138,161,222040,1,0,0:0:0:0:
268,63,222229,2,0,P|314:54|358:66,1,85,12|0,0:0|0:0,0:0:0:0:
382,203,222609,1,0,0:0:0:0:
312,147,222799,1,0,0:0:0:0:
470,163,222989,1,12,0:0:0:0:
365,283,223179,1,0,0:0:0:0:
487,341,223369,5,0,0:0:0:0:
317,354,223559,1,0,0:0:0:0:
501,248,223748,1,12,0:0:0:0:
338,343,223938,1,0,0:0:0:0:
248,239,224128,1,12,0:0:0:0:
248,239,224223,1,0,0:0:0:0:
248,239,224318,1,12,0:0:0:0:
105,321,224508,1,12,0:0:0:0:
237,245,224698,1,0,0:0:0:0:
54,216,224888,5,2,0:0:0:0:
54,216,225267,1,2,0:0:0:0:
54,216,225647,1,2,0:0:0:0:
54,216,226027,1,2,0:0:0:0:
54,216,226407,6,0,L|56:128,1,85,6|0,0:0|0:0,0:0:0:0:
135,57,226786,1,0,0:0:0:0:
135,57,226976,1,0,0:0:0:0:
272,169,227166,1,8,0:0:0:0:
141,146,227356,1,0,0:0:0:0:
298,90,227546,1,0,0:0:0:0:
240,254,227736,1,8,0:0:0:0:
380,221,227926,6,0,B|427:212|427:212|482:216,1,85,0|0,0:0|0:0,0:0:0:0:
262,334,228305,2,0,P|240:280|244:230,1,85,8|0,0:0|0:0,0:0:0:0:
402,140,228685,2,0,P|398:182|379:220,1,85,8|0,0:0|0:0,0:0:0:0:
282,149,229065,1,0,0:0:0:0:
282,149,229255,1,0,0:0:0:0:
118,227,229445,5,8,0:0:0:0:
239,253,229634,1,8,0:0:0:0:
196,134,229824,1,0,0:0:0:0:
164,304,230014,1,0,0:0:0:0:
282,149,230204,2,0,L|278:59,1,85,8|0,0:0|0:0,0:0:0:0:
192,17,230584,1,0,0:0:0:0:
84,167,230774,6,0,L|81:251,1,85,8|0,0:0|0:0,0:0:0:0:
164,304,231154,1,0,0:0:0:0:
320,216,231343,2,0,P|367:203|424:210,1,85,8|0,0:0|0:0,0:0:0:0:
344,355,231723,2,0,P|301:355|261:343,1,85,8|0,0:0|0:0,0:0:0:0:
164,304,232103,1,0,0:0:0:0:
164,304,232293,1,0,0:0:0:0:
243,180,232483,6,0,L|238:95,1,85,12|0,0:0|0:0,0:0:0:0:
162,192,232862,1,0,0:0:0:0:
318,125,233052,1,0,0:0:0:0:
138,67,233242,1,8,0:0:0:0:
138,67,233432,1,0,0:0:0:0:
165,210,233622,1,0,0:0:0:0:
375,194,233812,6,0,B|393:152|393:152|401:95,1,85,8|0,0:0|0:0,0:0:0:0:
335,35,234191,1,0,0:0:0:0:
243,180,234381,2,0,B|248:219|248:219|267:260,1,85,8|0,0:0|0:0,0:0:0:0:
408,354,234761,2,0,P|358:341|313:354,1,85,8|0,0:0|0:0,0:0:0:0:
235,367,235141,1,0,0:0:0:0:
235,367,235331,1,0,0:0:0:0:
408,354,235521,6,0,L|404:261,1,85,8|8,0:0|0:0,0:0:0:0:
343,189,235900,1,0,0:0:0:0:
343,189,236090,1,0,0:0:0:0:
429,63,236280,1,8,0:0:0:0:
350,178,236470,1,0,0:0:0:0:
459,164,236660,1,0,0:0:0:0:
290,106,236850,6,0,P|244:104|194:110,1,85,8|0,0:0|0:0,0:0:0:0:
106,191,237229,1,0,0:0:0:0:
123,73,237419,1,8,0:0:0:0:
230,196,237609,1,0,0:0:0:0:
230,196,237704,1,8,0:0:0:0:
230,196,237799,1,8,0:0:0:0:
178,274,237989,1,0,0:0:0:0:
95,318,238179,1,0,0:0:0:0:
175,364,238369,1,0,0:0:0:0:
106,191,238559,6,0,B|101:145|101:145|104:103,1,85,12|0,0:0|0:0,0:0:0:0:
161,29,238938,1,0,0:0:0:0:
161,29,239128,1,0,0:0:0:0:
230,196,239318,2,0,L|323:194,1,85,8|0,0:0|0:0,0:0:0:0:
227,112,239698,1,0,0:0:0:0:
322,271,239888,1,8,0:0:0:0:
318,115,240078,5,0,0:0:0:0:
224,276,240267,1,0,0:0:0:0:
396,191,240457,2,0,P|422:223|436:280,1,85,8|0,0:0|0:0,0:0:0:0:
318,115,240837,2,0,P|330:74|357:41,1,85,8|0,0:0|0:0,0:0:0:0:
410,116,241217,1,0,0:0:0:0:
410,116,241407,1,0,0:0:0:0:
290,215,241597,6,0,L|183:216,1,85,8|8,0:0|0:0,0:0:0:0:
60,139,241976,2,0,L|167:140,1,85,0|0,0:0|0:0,0:0:0:0:
22,233,242356,1,8,0:0:0:0:
13,76,242546,1,0,0:0:0:0:
13,76,242736,1,0,0:0:0:0:
210,186,242926,6,0,P|223:140|208:97,1,85,8|0,0:0|0:0,0:0:0:0:
155,261,243305,2,0,P|190:293|235:299,1,85,0|8,0:0|0:0,0:0:0:0:
117,180,243685,2,0,P|69:172|28:192,1,85,0|8,0:0|0:0,0:0:0:0:
62,294,244065,2,0,B|70:339|70:339|60:380,2,85,0|0|0,0:0|0:0|0:0,0:0:0:0:
210,186,244634,6,0,L|299:183,1,85,12|0,0:0|0:0,0:0:0:0:
386,259,245014,1,0,0:0:0:0:
366,128,245204,1,0,0:0:0:0:
319,302,245394,1,8,0:0:0:0:
361,145,245584,1,0,0:0:0:0:
400,340,245774,1,0,0:0:0:0:
239,277,245964,6,0,B|195:269|195:269|146:279,1,85,8|0,0:0|0:0,0:0:0:0:
64,305,246343,1,0,0:0:0:0:
210,186,246533,2,0,B|254:194|254:194|303:184,1,85,8|0,0:0|0:0,0:0:0:0:
385,158,246912,1,8,0:0:0:0:
294,101,247103,1,0,0:0:0:0:
370,242,247293,1,0,0:0:0:0:
370,242,247483,1,0,0:0:0:0:
353,53,247672,6,0,P|311:28|261:33,1,85,2|0,0:0|0:0,0:0:0:0:
188,88,248052,1,0,0:0:0:0:
294,101,248242,1,0,0:0:0:0:
135,20,248432,2,0,B|114:61|114:61|110:129,1,85,12|0,0:0|0:0,0:0:0:0:
184,187,248812,1,0,0:0:0:0:
30,156,249002,1,12,0:0:0:0:
188,88,249191,5,0,0:0:0:0:
92,228,249381,1,0,0:0:0:0:
110,256,249476,1,0,0:0:0:0:
139,272,249571,1,0,0:0:0:0:
171,282,249666,1,0,0:0:0:0:
204,280,249761,1,0,0:0:0:0:
235,267,249856,1,0,0:0:0:0:
259,242,249951,1,0,0:0:0:0:
259,242,250046,1,0,0:0:0:0:
259,242,250141,1,0,0:0:0:0:
306,116,250331,1,0,0:0:0:0:
367,205,250521,1,8,0:0:0:0:
177,185,250710,5,0,0:0:0:0:
292,126,250900,1,0,0:0:0:0:
259,242,251090,1,0,0:0:0:0:
259,242,251280,1,2,0:0:0:0:
219,87,251470,2,0,P|285:44|364:87,1,170,0|2,0:0|0:0,0:0:0:0:
361,185,252040,1,0,0:0:0:0:
292,126,252229,5,0,0:0:0:0:
444,142,252419,1,2,0:0:0:0:
343,200,252609,1,0,0:0:0:0:
343,200,252799,1,0,0:0:0:0:
466,126,252989,2,0,L|467:227,1,85,2|0,0:0|0:0,0:0:0:0:
343,284,253369,2,0,L|342:183,1,85,0|0,0:0|0:0,0:0:0:0:
342,156,253653,1,0,0:0:0:0:
342,156,253748,6,0,P|276:167|226:155,1,85,2|0,0:0|0:0,0:0:0:0:
127,61,254128,2,0,P|163:83|191:114,1,85,0|2,0:0|0:0,0:0:0:0:
151,270,254508,2,0,P|163:229|186:193,1,85,0|0,0:0|0:0,0:0:0:0:
213,339,254888,2,0,B|164:349|164:349|105:348,1,85,2|2,0:0|0:0,0:0:0:0:
66,263,255267,5,0,0:0:0:0:
257,273,255457,2,0,P|287:317|285:371,1,85,2|0,0:0|0:0,0:0:0:0:
377,217,255837,2,0,P|384:175|410:142,1,85,2|0,0:0|0:0,0:0:0:0:
274,86,256217,1,0,0:0:0:0:
245,76,256312,1,0,0:0:0:0:
215,70,256407,1,0,0:0:0:0:
185,69,256502,1,0,0:0:0:0:
155,71,256597,1,0,0:0:0:0:
127,80,256691,1,0,0:0:0:0:
102,97,256786,6,0,B|16:158|71:273,1,170,2|0,0:0|0:0,0:0:0:0:
165,195,257356,1,2,0:0:0:0:
96,320,257546,2,0,L|198:316,1,85,0|0,0:0|0:0,0:0:0:0:
272,253,257926,1,0,0:0:0:0:
366,328,258116,1,0,0:0:0:0:
256,243,258305,6,0,P|241:192|254:150,1,85,0|2,0:0|0:0,0:0:0:0:
406,192,258685,2,0,L|309:194,1,85,0|0,0:0|0:0,0:0:0:0:
470,145,259065,2,0,P|485:196|472:238,1,85,0|0,0:0|0:0,0:0:0:0:
391,106,259445,1,2,0:0:0:0:
337,238,259634,1,0,0:0:0:0:
337,238,259729,1,0,0:0:0:0:
337,238,259824,6,0,L|248:241,1,85,0|0,0:0|0:0,0:0:0:0:
151,190,260204,1,0,0:0:0:0:
140,294,260394,1,2,0:0:0:0:
234,164,260584,1,0,0:0:0:0:
85,235,260774,2,0,P|43:236|6:214,1,85,0|2,0:0|0:0,0:0:0:0:
179,112,261153,6,0,P|215:91|260:92,1,85,0|0,0:0|0:0,0:0:0:0:
354,170,261533,1,2,0:0:0:0:
399,61,261723,1,0,0:0:0:0:
348,184,261913,2,0,L|352:273,2,85,0|0|0,0:0|0:0|0:0,0:0:0:0:
251,278,262483,1,0,0:0:0:0:
222,286,262578,1,0,0:0:0:0:
192,288,262672,1,0,0:0:0:0:
162,288,262767,1,0,0:0:0:0:
132,282,262862,5,0,0:0:0:0:
81,205,263052,1,0,0:0:0:0:
129,127,263242,2,0,B|137:85|137:85|136:44,1,76.4999976654053,0|0,0:0|0:0,0:0:0:0:
228,47,263622,2,0,L|238:211,1,152.999995330811,2|0,0:0|0:0,0:0:0:0:
237,199,264191,1,0,0:0:0:0:
335,127,264381,2,0,P|395:115|372:185,1,152.999995330811,2|0,0:0|0:0,0:0:0:0:
480,181,264951,2,0,P|446:231|409:249,1,76.4999976654053,2|0,0:0|0:0,0:0:0:0:
335,275,265331,2,0,P|352:308|381:333,1,76.4999976654053,0|0,0:0|0:0,0:0:0:0:
251,308,265710,6,0,P|206:292|93:303,1,152.999995330811,0|0,0:0|0:0,0:0:0:0:
11,347,266280,2,0,L|9:251,1,76.4999976654053,0|0,0:0|0:0,0:0:0:0:
48,186,266660,1,0,0:0:0:0:
48,186,266850,1,0,0:0:0:0:
9,86,267040,1,0,0:0:0:0:
130,155,267229,6,0,P|175:151|230:156,1,76.4999976654053,2|0,0:0|0:0,0:0:0:0:
267,249,267609,2,0,P|222:253|167:248,1,76.4999976654053,2|0,0:0|0:0,0:0:0:0:
350,189,267989,2,0,L|353:295,1,76.4999976654053,2|0,0:0|0:0,0:0:0:0:
456,205,268369,2,0,L|453:99,1,76.4999976654053,0|0,0:0|0:0,0:0:0:0:
391,61,268748,1,0,0:0:0:0:
302,104,268938,6,0,L|140:104,1,152.999995330811,4|0,0:3|0:3,0:0:0:0:
255,178,269508,2,0,L|161:177,1,76.4999976654053,0|0,0:0|0:0,0:0:0:0:
66,168,269888,2,0,P|97:217|80:309,1,152.999995330811,0|0,0:0|0:0,0:0:0:0:
184,263,270457,1,0,0:0:0:0:
271,292,270647,1,0,0:0:0:0:
358,262,270837,2,0,P|406:257|439:260,2,76.4999976654053,0|0|0,0:0|0:0|0:0,0:0:0:0:
293,195,271407,1,2,0:0:0:0:
373,136,271597,2,0,P|318:99|212:138,1,152.999995330811,0|2,0:0|0:0,0:0:0:0:
164,183,272166,5,0,0:0:0:0:
82,118,272356,2,0,P|72:71|79:37,2,76.4999976654053,0|0|0,0:0|0:0|0:0,0:0:0:0:
164,183,272926,1,0,0:0:0:0:
109,267,273116,2,0,L|111:350,1,76.4999976654053,0|0,0:0|0:0,0:0:0:0:
243,271,273495,6,0,L|244:194,1,76.4999976654053,0|0,0:0|0:0,0:0:0:0:
283,110,273875,1,0,0:0:0:0:
367,146,274065,1,0,0:0:0:0:
412,37,274255,1,0,0:0:0:0:
293,102,274445,1,0,0:0:0:0:
444,116,274634,1,0,0:0:0:0:
295,193,274824,1,0,0:0:0:0:
