osu file format v14

[General]
AudioFilename: SawanoHiroyuki[nZk]mizuki - &Z.mp3
AudioLeadIn: 0
PreviewTime: 137356
Countdown: 0
SampleSet: Soft
StackLeniency: 0.7
Mode: 0
LetterboxInBreaks: 0
WidescreenStoryboard: 0

[Editor]
Bookmarks: 3116,6153,9191,12229,15267,27419,39571,51723,63875,76027,88179,89698,101850,114002,126153,138305,148938,150457,162609,164128,188432,200584,212736,226407,250710,275014
DistanceSpacing: 1.1
BeatDivisor: 2
GridSize: 4
TimelineZoom: 1

[Metadata]
Title:&Z
TitleUnicode:&Z
Artist:SawanoHiroyuki[nZk]:mizuki
ArtistUnicode:SawanoHiroyuki[nZk]:mizuki
Creator:Sotarks
Version:FCL's Normal
Source:アルドノア・ゼロ
Tags:澤野弘之 Aldnoah.Zero 2nd season full version appleeaterx MrSergio FCL HB24
BeatmapID:872121
BeatmapSetID:392118

[Difficulty]
HPDrainRate:4
CircleSize:3.5
OverallDifficulty:4
ApproachRate:4
SliderMultiplier:1.1
SliderTickRate:1

[Events]
//Background and Video events
0,0,"BG.jpg",0,0
//Break Periods
2,102050,112682
2,188432,199065
//Storyboard Layer 0 (Background)
//Storyboard Layer 1 (Fail)
//Storyboard Layer 2 (Pass)
//Storyboard Layer 3 (Foreground)
//Storyboard Sound Samples

[TimingPoints]
3116,379.746835443038,4,2,1,75,1,0
3116,-100,4,2,1,75,0,0
3305,-100,4,2,1,60,0,0
3875,-100,4,2,1,70,0,0
4065,-100,4,2,1,60,0,0
4445,-100,4,2,1,70,0,0
4634,-100,4,2,1,60,0,0
5014,-100,4,2,1,70,0,0
5204,-100,4,2,1,60,0,0
5394,-100,4,2,1,70,0,0
5584,-100,4,2,1,60,0,0
6153,-100,4,2,1,80,0,0
6343,-100,4,2,1,60,0,0
6913,-100,4,2,1,70,0,0
7103,-100,4,2,1,60,0,0
7483,-100,4,2,1,70,0,0
7672,-100,4,2,1,60,0,0
8052,-100,4,2,1,70,0,0
8242,-100,4,2,1,60,0,0
8432,-100,4,2,1,70,0,0
8622,-100,4,2,1,60,0,0
9191,-100,4,2,1,85,0,0
9381,-100,4,2,1,60,0,0
9951,-100,4,2,1,70,0,0
10141,-100,4,2,1,60,0,0
10521,-100,4,2,1,70,0,0
10710,-100,4,2,1,60,0,0
11090,-100,4,2,1,70,0,0
11280,-100,4,2,1,60,0,0
11470,-100,4,2,1,70,0,0
11660,-100,4,2,1,60,0,0
12229,-100,4,2,1,90,0,0
12419,-100,4,2,1,65,0,0
12989,-100,4,2,1,80,0,0
13179,-100,4,2,1,65,0,0
13559,-100,4,2,1,80,0,0
13748,-100,4,2,1,65,0,0
14128,-100,4,2,1,80,0,0
14318,-100,4,2,1,65,0,0
14508,-100,4,2,1,80,0,0
14698,-100,4,2,1,65,0,0
14888,-100,4,2,1,70,0,0
15078,-100,4,2,1,85,0,0
15267,-100,4,2,1,40,0,0
27419,-100,4,2,1,50,0,0
39571,-100,4,2,1,40,0,0
57799,-100,4,2,1,50,0,0
59318,-100,4,2,1,60,0,0
60837,-100,4,2,1,70,0,0
62166,-100,4,2,1,80,0,0
63116,-100,4,2,1,100,0,0
63685,-100,4,2,1,60,0,0
63875,-100,4,2,2,90,0,1
74508,-100,4,2,1,80,0,0
76027,-100,4,2,1,90,0,1
88179,-100,4,2,1,60,0,0
114191,-100,4,2,3,40,0,0
114571,-100,4,2,3,60,0,0
114761,-100,4,2,3,30,0,0
115141,-100,4,2,3,40,0,0
115710,-100,4,2,3,60,0,0
115900,-100,4,2,3,40,0,0
116280,-100,4,2,3,60,0,0
116470,-100,4,2,3,30,0,0
117040,-100,4,2,3,60,0,0
117229,-100,4,2,3,40,0,0
117609,-100,4,2,3,60,0,0
117799,-100,4,2,3,40,0,0
117989,-100,4,2,3,30,0,0
118179,-100,4,2,3,40,0,0
118559,-100,4,2,3,40,0,0
118748,-100,4,2,3,60,0,0
118938,-100,4,2,3,40,0,0
119318,-100,4,2,3,50,0,0
119698,-100,4,2,3,60,0,0
119888,-100,4,2,3,30,0,0
119983,-100,4,2,3,40,0,0
120078,-100,4,2,3,60,0,0
120267,-100,4,2,3,40,0,0
120457,-100,4,2,3,30,0,0
120647,-100,4,2,3,60,0,0
120837,-100,4,2,3,40,0,0
121217,-100,4,2,3,60,0,0
121407,-100,4,2,3,40,0,0
121786,-100,4,2,3,60,0,0
121976,-100,4,2,3,40,0,0
122356,-100,4,2,3,60,0,0
122546,-100,4,2,3,30,0,0
122736,-100,4,2,3,40,0,0
122926,-100,4,2,3,50,0,0
123116,-100,4,2,3,60,0,0
123305,-100,4,2,3,40,0,0
123685,-100,4,2,3,60,0,0
123875,-100,4,2,3,30,0,0
124255,-100,4,2,3,40,0,0
124824,-100,4,2,3,60,0,0
125014,-100,4,2,3,30,0,0
125394,-100,4,2,3,60,0,0
125584,-100,4,2,3,40,0,0
125774,-100,4,2,3,50,0,0
125964,-100,4,2,3,60,0,0
126153,-100,4,2,3,40,0,0
135267,-100,4,2,3,15,0,0
135647,-100,4,2,3,20,0,0
135837,-100,4,2,3,25,0,0
136027,-100,4,2,3,30,0,0
136217,-100,4,2,3,35,0,0
136407,-100,4,2,3,40,0,0
136597,-100,4,2,3,45,0,0
138305,-100,4,2,2,100,0,1
148938,-100,4,2,1,80,0,0
150457,-100,4,2,1,90,0,1
162609,-100,4,2,2,30,0,0
164128,-100,4,2,2,90,0,1
188432,-100,4,2,2,30,0,0
200584,-100,4,2,2,100,0,1
211217,-100,4,2,2,80,0,0
212736,-100,4,2,2,90,0,1
224888,-100,4,2,2,40,0,0
226407,-100,4,2,2,100,0,1
250710,-100,4,2,2,70,0,0

[Colours]
Combo1 : 91,247,255
Combo2 : 0,234,158
Combo3 : 255,239,125
Combo4 : 94,130,255

[HitObjects]
104,188,3116,6,0,L|96:96,2,55,2|0|0,0:0|0:0|0:0,0:0:0:0:
136,240,3685,2,0,P|188:228|276:240,1,110,0|0,0:0|0:0,0:0:0:0:
304,240,4255,1,0,0:0:0:0:
304,240,4445,2,0,L|296:100,1,110,8|0,0:0|0:0,0:0:0:0:
324,76,5014,2,0,B|364:60|364:60|472:76,2,110,8|8|2,0:0|0:0|0:0,0:0:0:0:
264,180,6153,6,0,P|236:188|188:184,2,55,12|0|0,0:0|0:0|0:0,0:0:0:0:
320,152,6723,2,0,L|316:300,1,110,0|0,0:0|0:0,0:0:0:0:
288,316,7293,1,0,0:0:0:0:
288,316,7483,2,0,P|208:328|156:312,1,110,8|0,0:0|0:0,0:0:0:0:
132,288,8052,2,0,L|124:140,1,110,8|8,0:0|0:0,0:0:0:0:
120,56,8812,1,2,0:0:0:0:
220,120,9191,6,0,L|296:168,2,55,12|0|0,0:0|0:0|0:0,0:0:0:0:
160,124,9761,2,0,P|168:176|152:272,1,110,0|0,0:0|0:0,0:0:0:0:
136,284,10331,1,0,0:0:0:0:
136,284,10521,2,0,L|296:280,1,110,8|0,0:0|0:0,0:0:0:0:
308,276,11090,1,8,0:0:0:0:
400,196,11470,2,0,L|408:128,1,55,8|0,0:0|0:0,0:0:0:0:
352,116,11850,2,0,L|344:48,1,55,2|2,0:0|0:0,0:0:0:0:
292,32,12229,6,0,B|248:24|248:24|152:40,1,110,12|0,0:0|0:0,0:0:0:0:
128,56,12799,2,0,P|112:120|152:192,1,110,0|0,0:0|0:0,0:0:0:0:
156,212,13369,1,0,0:0:0:0:
156,212,13559,2,0,L|280:208,1,110,8|0,0:0|0:0,0:0:0:0:
320,240,14128,1,8,0:0:0:0:
228,320,14508,2,0,P|176:320|152:308,1,55,8|0,0:0|0:0,0:0:0:0:
128,280,14888,2,0,P|76:280|52:292,1,55,2|2,0:0|0:0,0:0:0:0:
16,264,15267,6,0,L|12:392,2,110,6|2|8,0:0|0:0|0:0,0:0:0:0:
48,148,16407,1,0,0:0:0:0:
148,80,16786,2,0,P|200:72|272:80,1,110,2|2,0:0|0:0,0:0:0:0:
308,184,17546,2,0,L|380:188,1,55,8|0,0:0|0:0,0:0:0:0:
388,240,17926,2,0,L|460:244,1,55,0|0,0:0|0:0,0:0:0:0:
492,212,18305,6,0,B|500:144|500:144|488:76,2,110,2|2|8,0:0|0:0|0:0,0:0:0:0:
436,320,19445,1,0,0:0:0:0:
320,356,19824,2,0,P|260:352|208:304,1,110,2|0,0:0|0:0,0:0:0:0:
184,208,20584,2,0,L|180:128,1,55,8|0,0:0|0:0,0:0:0:0:
192,92,20964,1,0,0:0:0:0:
304,44,21343,6,0,P|376:32|424:44,1,110,2|2,0:0|0:0,0:0:0:0:
504,120,22103,2,0,L|508:208,1,55,8|0,0:0|0:0,0:0:0:0:
492,236,22483,1,0,0:0:0:0:
396,308,22862,2,0,P|336:320|272:304,1,110,2|2,0:0|0:0,0:0:0:0:
208,220,23622,2,0,L|204:156,1,55,8|0,0:0|0:0,0:0:0:0:
260,140,24002,2,0,L|264:76,1,55,0|0,0:0|0:0,0:0:0:0:
272,24,24381,6,0,B|200:20|200:20|140:60|140:60|36:56,1,220,2|8,0:0|0:0,0:0:0:0:
28,108,25331,1,0,0:0:0:0:
24,168,25521,1,0,0:0:0:0:
92,268,25900,2,0,B|136:280|136:280|216:268,1,110
272,172,26660,2,0,B|335:163|335:163|379:175,1,110,8|0,0:0|0:0,0:0:0:0:
484,112,27419,6,0,L|472:292,2,165,4|0|0,0:0|0:0|0:0,0:0:0:0:
396,32,28938,2,0,P|328:24|280:44,1,110,2|2,0:0|0:0,0:0:0:0:
208,128,29698,2,0,L|192:224,1,55,8|0,0:0|0:0,0:0:0:0:
240,224,30078,2,0,L|224:320,1,55,0|0,0:0|0:0,0:0:0:0:
184,316,30457,6,0,P|260:308|384:320,2,165,0|0|0,0:0|0:0|0:0,0:0:0:0:
132,288,31786,1,0,0:0:0:0:
132,288,31976,2,0,L|124:160,1,110,2|2,0:0|0:0,0:0:0:0:
204,88,32736,2,0,P|240:76|292:72,1,55,8|0,0:0|0:0,0:0:0:0:
316,80,33116,1,0,0:0:0:0:
424,136,33495,6,0,L|428:276,2,110,2|2|8,0:0|0:0|0:0,0:0:0:0:
348,40,34634,1,0,0:0:0:0:
228,20,35014,2,0,L|232:140,1,110,2|2,0:0|0:0,0:0:0:0:
220,252,35774,1,8,0:0:0:0:
128,332,36153,1,0,0:0:0:0:
44,248,36533,6,0,B|16:216|16:216|16:128,1,110,2|2,0:0|0:0,0:0:0:0:
104,64,37293,2,0,P|164:52|248:72,1,110,8|2,0:0|0:0,0:0:0:0:
324,104,38052,2,0,L|332:168,1,55,2|0,0:0|0:0,0:0:0:0:
324,220,38432,1,2,0:0:0:0:
204,196,38812,2,0,L|178:255,1,55,8|0,0:0|0:0,0:0:0:0:
136,284,39191,1,2,0:0:0:0:
236,356,39571,6,0,P|304:360|380:332,1,110,6|0,0:0|0:0,0:0:0:0:
420,252,40331,2,0,P|424:184|396:108,1,110
332,56,41090,1,0,0:0:0:0:
256,152,41470,2,0,L|112:160,2,110,0|0|0,0:0|0:0|0:0,0:0:0:0:
376,140,42609,6,0,L|436:136,1,55,2|0,0:0|0:0,0:0:0:0:
492,152,42989,2,0,P|512:200|480:284,2,110,0|2|0,0:0|0:0|0:0,0:0:0:0:
380,104,44128,2,0,L|248:100,1,110,2|0,0:0|0:0,0:0:0:0:
200,200,44888,2,0,L|90:203,1,110,2|0,0:0|0:0,0:0:0:0:
28,100,45647,5,2,0:0:0:0:
128,32,46027,2,0,P|208:20|272:32,2,110,0|2|0,0:0|0:0|0:0,0:0:0:0:
64,136,47166,2,0,P|60:168|72:224,1,55,2|0,0:0|0:0,0:0:0:0:
120,168,47546,2,0,P|124:199|150:250,1,55,0|0,0:0|0:0,0:0:0:0:
176,264,47926,2,0,L|328:264,1,110,2|0,0:0|0:0,0:0:0:0:
396,212,48685,6,0,B|432:160|432:160|416:24,2,165,2|0|0,0:0|0:0|0:0,0:0:0:0:
296,284,50204,2,0,P|248:300|168:280,1,110,2|2,0:0|0:0,0:0:0:0:
104,204,50964,2,0,P|88:168|108:112,1,55,2|0,0:0|0:0,0:0:0:0:
148,140,51343,2,0,P|164:104|144:48,1,55,2|0,0:0|0:0,0:0:0:0:
156,28,51723,5,6,0:0:0:0:
240,112,52103,2,0,L|304:116,1,55,0|0,0:0|0:0,0:0:0:0:
352,132,52483,1,8,0:0:0:0:
400,168,52672,1,0,0:0:0:0:
400,168,52862,2,0,L|400:248,1,55,0|0,0:0|0:0,0:0:0:0:
372,276,53242,6,0,B|324:292|324:292|228:280,2,110,2|2|8,0:0|0:0|0:0,0:0:0:0:
464,200,54381,1,0,0:0:0:0:
384,108,54761,1,0,0:0:0:0:
272,64,55141,2,0,P|236:60|196:64,1,55,0|0,0:0|0:0,0:0:0:0:
176,108,55521,2,0,B|144:112|144:112|88:108,1,55,8|0,0:0|0:0,0:0:0:0:
64,96,55900,1,0,0:0:0:0:
8,120,56090,1,0,0:0:0:0:
8,120,56280,6,0,L|12:248,2,110,2|2|8,0:0|0:0|0:0,0:0:0:0:
104,48,57419,2,0,P|128:44|180:52,1,55,2|2,0:0|0:0,0:0:0:0:
220,56,57799,6,0,L|212:284,2,220,2|8|0,0:0|0:0|0:0,0:0:0:0:
336,20,59698,2,0,P|376:16|424:24,1,55,0|2,0:0|0:0,0:0:0:0:
448,36,60078,1,8,0:0:0:0:
500,144,60457,1,0,0:0:0:0:
460,256,60837,5,2,0:0:0:0:
344,288,61217,2,0,L|264:296,1,55,2|0,0:0|0:0,0:0:0:0:
240,332,61597,2,0,B|176:340|176:340|152:288|92:272,1,165,10|8,0:0|0:0,0:0:0:0:
192,104,63116,5,8,0:0:0:0:
296,164,63495,2,0,P|300:200|292:236,1,55,0|0,0:0|0:0,0:0:0:0:
252,260,63875,6,0,B|208:280|208:280|136:264,1,110,6|0,0:0|0:0,0:0:0:0:
92,244,64445,2,0,P|108:184|96:88,1,110,8|0,0:0|0:0,0:0:0:0:
84,80,65014,2,0,L|172:60,1,55,8|0,0:0|0:0,0:0:0:0:
192,44,65394,1,8,0:0:0:0:
312,44,65774,2,0,P|336:76|352:116,1,55,0|8,0:0|0:0,0:0:0:0:
320,208,66343,2,0,P|296:240|280:280,1,55,0|8,0:0|0:0,0:0:0:0:
256,304,66723,1,8,0:0:0:0:
204,336,66913,5,0,0:0:0:0:
100,288,67293,2,0,L|84:212,1,55,0|12,0:0|0:0,0:0:0:0:
60,180,67672,1,0,0:0:0:0:
168,124,68052,2,0,L|156:70,1,55,12|0,0:0|0:0,0:0:0:0:
104,40,68432,6,0,L|252:44,1,110,0|0,0:0|0:0,0:0:0:0:
292,136,69191,2,0,L|401:133,1,110,8|8,0:0|0:0,0:0:0:0:
472,232,69951,2,0,P|492:292|468:348,1,110,14|0,0:0|0:0,0:0:0:0:
428,368,70521,1,8,0:0:0:0:
428,368,70710,2,0,L|319:371,1,110,2|8,0:0|0:0,0:0:0:0:
260,348,71280,1,0,0:0:0:0:
260,348,71470,6,0,P|268:292|256:208,1,110,12|0,0:0|0:0,0:0:0:0:
220,196,72040,1,8,0:0:0:0:
220,196,72229,2,0,B|156:180|156:180|84:196,2,110,2|8|12,0:0|0:0|0:0,0:0:0:0:
332,244,73369,2,0,L|388:272,1,55,0|8,0:0|0:0,0:0:0:0:
436,160,73938,2,0,L|380:132,1,55,0|8,0:0|0:0,0:0:0:0:
284,76,74508,6,0,L|164:68,1,110,4|0,0:0|0:0,0:0:0:0:
128,180,75267,2,0,L|248:188,1,110,12|12,0:0|0:0,0:0:0:0:
336,256,76027,6,0,P|368:204|360:108,1,110,6|8,0:0|0:0,0:0:0:0:
348,36,76786,1,0,0:0:0:0:
228,64,77166,1,0,0:0:0:0:
228,64,77356,2,0,L|236:216,1,110,8|0,0:0|0:0,0:0:0:0:
248,232,77926,2,0,P|272:248|336:248,1,55,8|0,0:0|0:0,0:0:0:0:
356,236,78305,2,0,L|361:126,1,110,0|0,0:0|0:0,0:0:0:0:
336,72,78875,1,8,0:0:0:0:
336,72,79065,6,0,P|264:64|180:88,1,110,0|8,0:0|0:0,0:0:0:0:
180,100,79634,2,0,L|172:248,1,110,0|0,0:0|0:0,0:0:0:0:
196,268,80204,2,0,P|224:276|260:276,1,55,8|2,0:0|0:0,0:0:0:0:
368,260,80774,1,0,0:0:0:0:
368,260,80964,2,0,L|376:168,1,55,8|0,0:0|0:0,0:0:0:0:
392,148,81343,1,0,0:0:0:0:
324,48,81723,2,0,P|304:40|256:44,1,55,8|0,0:0|0:0,0:0:0:0:
212,48,82103,6,0,L|204:192,1,110,6|8,0:0|0:0,0:0:0:0:
228,212,82672,1,0,0:0:0:0:
228,212,82862,2,0,P|300:208|372:216,2,110,0|0|0,0:0|0:0|0:0,0:0:0:0:
108,236,84002,2,0,P|80:240|40:236,1,55,8|0,0:0|0:0,0:0:0:0:
12,196,84381,2,0,L|4:336,1,110
52,344,84951,1,8,0:0:0:0:
52,344,85141,6,0,B|144:360|144:360|260:344,2,165,2|0|12,0:0|0:0|0:0,0:0:0:0:
20,228,86660,2,0,L|20:108,1,110,0|12,0:0|0:0,0:0:0:0:
116,40,87419,2,0,P|144:36|204:40,1,55,12|12,0:0|0:0,0:0:0:0:
204,88,87799,2,0,P|232:92|292:88,1,55,12|0,0:0|0:0,0:0:0:0:
268,132,89698,6,0,B|376:104|376:104|444:120,2,165,4|0|2,0:0|0:0|0:0,0:0:0:0:
164,192,91217,2,0,L|156:320,1,110,0|0,0:0|0:0,0:0:0:0:
276,344,91976,2,0,P|312:348|356:344,1,55,8|0,0:0|0:0,0:0:0:0:
368,300,92356,2,0,P|404:296|448:300,1,55,2|2,0:0|0:0,0:0:0:0:
476,316,92736,6,0,L|480:144,2,165,0|0|2,0:0|0:0|0:0,0:0:0:0:
364,360,94255,2,0,P|308:368|240:348,1,110,0|0,0:0|0:0,0:0:0:0:
180,272,95014,2,0,L|172:192,1,55,8|0,0:0|0:0,0:0:0:0:
152,160,95394,1,0,0:0:0:0:
204,52,95774,6,0,P|272:36|392:56,2,165,6|0|2,0:0|0:0|0:0,0:0:0:0:
108,128,97293,2,0,B|88:184|88:184|100:264,1,110,0|2,0:0|0:0,0:0:0:0:
172,324,98052,2,0,L|252:332,1,55,8|0,0:0|0:0,0:0:0:0:
280,300,98432,2,0,P|320:296|368:304,1,55,0|0,0:0|0:0,0:0:0:0:
388,328,98812,6,0,B|416:240|416:240|360:192|388:100,1,220,2|8,0:0|0:0,0:0:0:0:
320,20,99951,2,0,P|272:16|236:24,1,55,2|0,0:0|0:0,0:0:0:0:
208,32,100331,2,0,B|230:100|174:148|174:148|202:236,1,220,0|10,0:0|0:0,0:0:0:0:
256,344,101470,1,8,0:0:0:0:
376,344,101850,5,0,0:0:0:0:
136,128,114002,6,0,L|272:120,1,110,2|0,0:0|0:0,0:0:0:0:
304,112,114571,1,2,0:0:0:0:
304,112,114761,2,0,P|328:168|300:252,1,110,0|2,0:0|0:0,0:0:0:0:
232,296,115521,2,0,L|164:300,1,55,0|2,0:0|0:0,0:0:0:0:
116,304,115900,2,0,B|100:240|100:240|116:176,2,110,0|2|0,0:0|0:0|0:0,0:0:0:0:
232,340,117040,6,0,P|272:348|352:320,1,110,2|0,0:0|0:0,0:0:0:0:
368,276,117609,1,0,0:0:0:0:
368,276,117799,2,0,P|352:188|368:136,1,110,0|0,0:0|0:0,0:0:0:0:
424,68,118559,2,0,L|288:56,1,110,0|0,0:0|0:0,0:0:0:0:
245,159,119318,2,0,L|381:171,1,110,0|2,0:0|0:0,0:0:0:0:
460,232,120078,6,0,P|408:280|340:284,1,110,0|0,0:0|0:0,0:0:0:0:
312,288,120647,1,2,0:0:0:0:
312,288,120837,2,0,L|224:292,1,55,0|0,0:0|0:0,0:0:0:0:
196,292,121217,2,0,B|164:220|164:220|188:164|188:164|148:64,2,220,2|0|0,0:0|0:0|0:0,0:0:0:0:
300,352,123116,6,0,P|360:360|408:340,1,110,2|0,0:0|0:0,0:0:0:0:
444,300,123685,2,0,L|448:164,1,110,2|0,0:0|0:0,0:0:0:0:
416,140,124255,1,0,0:0:0:0:
324,64,124634,2,0,P|288:60|256:68,1,55,0|2,0:0|0:0,0:0:0:0:
212,80,125014,1,0,0:0:0:0:
112,148,125394,2,0,L|52:196,1,55,2|2,0:0|0:0,0:0:0:0:
100,236,125774,2,0,L|40:284,1,55,2|2,0:0|0:0,0:0:0:0:
44,328,126153,5,4,0:0:0:0:
156,376,126533,2,0,P|192:380|232:372,1,55,0|0,0:0|0:0,0:0:0:0:
208,316,126913,2,0,P|243:310|280:292,1,55,0|0,0:0|0:0,0:0:0:0:
264,244,127293,2,0,P|297:229|327:202,1,55,0|0,0:0|0:0,0:0:0:0:
352,172,127672,2,0,L|356:16,2,110,2|0|0,0:0|0:0|0:0,0:0:0:0:
348,292,128812,1,0,0:0:0:0:
236,332,129191,5,0,0:0:0:0:
124,284,129571,2,0,L|72:260,1,55,0|0,0:0|0:0,0:0:0:0:
120,224,129951,2,0,L|75:187,1,55,0|0,0:0|0:0,0:0:0:0:
124,152,130331,2,0,L|90:105,1,55,0|0,0:0|0:0,0:0:0:0:
60,60,130710,2,0,P|140:68|204:48,2,110,0|0|0,0:0|0:0|0:0,0:0:0:0:
16,172,131850,1,0,0:0:0:0:
84,272,132229,5,0,0:0:0:0:
108,292,133748,1,0,0:0:0:0:
136,312,135267,1,0,0:0:0:0:
188,236,137546,5,0,0:0:0:0:
232,124,137926,1,0,0:0:0:0:
272,12,138305,6,0,B|312:32|312:32|404:24,1,110,2|8,0:0|0:0,0:0:0:0:
436,40,138875,1,0,0:0:0:0:
484,152,139255,2,0,L|512:220,2,55,0|0|8,0:0|0:0|0:0,0:0:0:0:
432,120,139824,2,0,P|344:116|276:136,1,110,0|8,0:0|0:0,0:0:0:0:
264,112,140394,1,0,0:0:0:0:
144,88,140774,1,0,0:0:0:0:
144,88,140964,2,0,L|140:184,1,55,0|8,0:0|0:0,0:0:0:0:
168,196,141343,6,0,P|236:216|344:184,2,165,4|0|8,0:0|0:0|0:0,0:0:0:0:
116,168,142672,1,0,0:0:0:0:
116,168,142862,2,0,L|120:300,1,110,0|8,0:0|0:0,0:0:0:0:
232,328,143622,2,0,L|236:196,1,110,0|8,0:0|0:0,0:0:0:0:
248,96,144381,6,0,P|316:80|376:88,1,110,4|8,0:0|0:0,0:0:0:0:
412,100,144951,1,0,0:0:0:0:
412,100,145141,2,0,L|416:224,1,110,0|0,0:0|0:0,0:0:0:0:
376,256,145710,1,8,0:0:0:0:
376,256,145900,2,0,P|296:280|244:264,2,110,0|12|0,0:0|0:0|0:0,0:0:0:0:
452,164,147040,1,8,0:0:0:0:
460,104,147229,1,8,0:0:0:0:
444,48,147419,6,0,L|288:44,1,110,4|8,0:0|0:0,0:0:0:0:
296,92,147989,2,0,L|140:88,1,110,0|0,0:0|0:0,0:0:0:0:
140,128,148559,1,8,0:0:0:0:
60,220,148938,6,0,L|68:352,1,110,0|12,0:0|0:0,0:0:0:0:
188,348,149698,2,0,L|180:216,1,110,0|10,0:0|0:0,0:0:0:0:
224,128,150457,6,0,P|284:108|360:116,1,110,4|8,0:0|0:0,0:0:0:0:
384,136,151027,2,0,P|364:196|372:272,1,110,2|0,0:0|0:0,0:0:0:0:
404,288,151597,1,8,0:0:0:0:
404,288,151786,2,0,L|220:276,1,165,8|8,0:0|0:0,0:0:0:0:
144,204,152736,2,0,P|124:264|164:344,1,110,0|0,0:0|0:0,0:0:0:0:
244,360,153495,6,0,B|288:364|288:364|388:336,1,110,0|8,0:0|0:0,0:0:0:0:
396,304,154065,2,0,P|400:240|376:148,1,110,0|0,0:0|0:0,0:0:0:0:
360,144,154634,1,8,0:0:0:0:
360,144,154824,2,0,P|300:192|204:152,1,165,0|8,0:0|0:0,0:0:0:0:
176,60,155774,2,0,L|48:52,1,110,0|8,0:0|0:0,0:0:0:0:
20,92,156343,1,0,0:0:0:0:
20,92,156533,6,0,L|28:240,1,110,4|8,0:0|0:0,0:0:0:0:
60,252,157103,1,0,0:0:0:0:
60,252,157293,2,0,P|132:264|204:240,1,110,0|0,0:0|0:0,0:0:0:0:
220,224,157862,1,8,0:0:0:0:
256,176,158052,1,0,0:0:0:0:
332,84,158432,2,0,P|368:64|400:60,1,55,8|0,0:0|0:0,0:0:0:0:
440,40,158812,2,0,L|432:184,1,110,0|0,0:0|0:0,0:0:0:0:
400,200,159381,1,8,0:0:0:0:
400,200,159571,6,0,P|320:256|240:236,2,165,2|0|12,0:0|0:0|0:0,0:0:0:0:
436,84,161090,2,0,L|452:32,2,55,0|0|12,0:0|0:0|0:0,0:0:0:0:
352,172,161850,2,0,P|320:192|268:196,1,55,12|8,0:0|0:0,0:0:0:0:
292,136,162229,2,0,P|255:147|204:137,1,55,12|0,0:0|0:0,0:0:0:0:
144,276,164128,5,6,0:0:0:0:
256,324,164508,2,0,P|300:332|380:308,1,110,0|8,0:0|0:0,0:0:0:0:
440,228,165267,2,0,L|444:148,1,55,0|8,0:0|0:0,0:0:0:0:
408,124,165647,2,0,B|356:104|356:104|208:120,2,165,0|0|0,0:0|0:0|0:0,0:0:0:0:
456,160,166976,1,0,0:0:0:0:
456,160,167166,6,0,P|468:224|432:304,1,110,8|0,0:0|0:0,0:0:0:0:
356,332,167926,2,0,L|296:340,1,55,8|0,0:0|0:0,0:0:0:0:
244,320,168305,1,0,0:0:0:0:
136,268,168685,1,0,0:0:0:0:
72,164,169065,2,0,P|60:88|76:24,2,110,8|8|0,0:0|0:0|0:0,0:0:0:0:
128,272,170204,5,8,0:0:0:0:
240,320,170584,2,0,P|268:324|316:316,1,55,0|0,0:0|0:0,0:0:0:0:
352,304,170964,2,0,P|328:240|344:168,1,110,8|0,0:0|0:0,0:0:0:0:
448,160,171723,2,0,P|472:96|456:24,1,110,0|8,0:0|0:0,0:0:0:0:
428,12,172293,1,0,0:0:0:0:
428,12,172483,2,0,L|308:8,1,110,8|0,0:0|0:0,0:0:0:0:
204,48,173242,5,8,0:0:0:0:
160,88,173432,1,8,0:0:0:0:
128,140,173622,2,0,L|132:220,1,55,0|0,0:0|0:0,0:0:0:0:
140,256,174002,2,0,P|200:276|272:228,1,110,8|0,0:0|0:0,0:0:0:0:
284,216,174571,2,0,B|272:172|272:172|288:68,1,110,8|0,0:0|0:0,0:0:0:0:
328,72,175141,1,8,0:0:0:0:
408,160,175521,2,0,P|440:172|520:152,2,110,8|0|12,0:0|0:0|0:0,0:0:0:0:
312,88,176660,6,0,P|280:76|200:96,1,110,0|8,0:0|0:0,0:0:0:0:
104,156,177419,1,0,0:0:0:0:
140,272,177799,2,0,L|268:280,1,110,0|8,0:0|0:0,0:0:0:0:
300,312,178369,2,0,P|360:276|352:196,1,110,0|0,0:0|0:0,0:0:0:0:
328,128,179128,2,0,B|288:96|288:96|204:72,1,110,0|8,0:0|0:0,0:0:0:0:
172,92,179698,2,0,P|136:148|144:212,1,110,0|8,0:0|0:0,0:0:0:0:
164,236,180267,2,0,L|308:244,1,110,0|8,0:0|0:0,0:0:0:0:
396,232,181027,6,0,P|420:164|400:96,1,110
324,48,181786,2,0,L|244:36,2,55
340,108,182356,2,0,P|344:248|344:248,1,110,12|0,0:0|0:0,0:0:0:0:
328,276,182926,2,0,P|252:268|192:284,1,110
164,296,183495,1,0,0:0:0:0:
44,296,183875,5,0,0:0:0:0:
116,200,184255,2,0,L|104:136,1,55,8|0,0:0|0:0,0:0:0:0:
84,92,184634,2,0,P|168:108|236:80,1,110,8|0,0:0|0:0,0:0:0:0:
292,36,185394,2,0,L|348:48,2,55,8|8|0,0:0|0:0|0:0,0:0:0:0:
236,56,185964,2,0,P|220:148|244:204,1,110,0|0,0:0|0:0,0:0:0:0:
204,220,186533,2,0,L|148:232,1,55,0|8,0:0|0:0,0:0:0:0:
104,268,186913,5,8,0:0:0:0:
44,164,187293,2,0,L|36:24,1,110,8|10,0:0|0:0,0:0:0:0:
84,12,187862,1,10,0:0:0:0:
184,224,200584,6,0,B|236:248|236:248|356:236,2,165,2|8|8,0:0|0:0|0:0,0:0:0:0:
80,164,202103,1,8,0:0:0:0:
144,60,202483,2,0,P|180:52|212:52,1,55,0|8,0:0|0:0,0:0:0:0:
260,56,202862,1,0,0:0:0:0:
260,56,203052,2,0,L|356:64,2,55,0|8|8,0:0|0:0|0:0,0:0:0:0:
216,96,203622,6,0,P|212:196|236:272,2,165,12|12|12,0:0|0:0|0:0,0:0:0:0:
304,12,205141,2,0,L|420:16,1,110,0|0,0:0|0:0,0:0:0:0:
448,132,205900,2,0,L|332:128,1,110,12|12,0:0|0:0,0:0:0:0:
228,72,206660,6,0,P|212:132|236:192,1,110,4|0,0:0|0:0,0:0:0:0:
264,224,207229,1,8,0:0:0:0:
264,224,207419,2,0,L|416:232,1,110,0|8,0:0|0:0,0:0:0:0:
428,200,207989,1,0,0:0:0:0:
428,200,208179,2,0,P|436:136|404:72,1,110,8|0,0:0|0:0,0:0:0:0:
384,48,208748,1,8,0:0:0:0:
384,48,208938,2,0,P|296:56|252:44,1,110,0|8,0:0|0:0,0:0:0:0:
220,72,209508,1,8,0:0:0:0:
220,72,209698,6,0,B|196:136|196:136|220:256,2,165,2|12|12,0:0|0:0|0:0,0:0:0:0:
340,48,211217,2,0,P|384:40|464:64,1,110
476,172,211976,2,0,P|432:180|352:156,1,110,12|12,0:0|0:0,0:0:0:0:
268,96,212736,6,0,B|224:88|184:104|184:104|140:120|80:100,2,165,4|2|8,0:0|0:0|0:0,0:0:0:0:
320,124,214065,2,0,L|324:240,1,110,0|2,0:0|0:0,0:0:0:0:
348,292,214634,1,8,0:0:0:0:
240,352,215014,2,0,P|192:356|124:348,1,110,0|0,0:0|0:0,0:0:0:0:
44,264,215774,6,0,P|12:200|68:104,2,165,0|2|8,0:0|0:0|0:0,0:0:0:0:
92,304,217103,2,0,L|236:312,1,110
256,284,217672,1,8,0:0:0:0:
348,204,218052,2,0,L|408:148,1,55,0|2,0:0|0:0,0:0:0:0:
364,112,218432,2,0,L|424:56,1,55,8|0,0:0|0:0,0:0:0:0:
452,40,218812,6,0,B|476:104|476:104|472:168,1,110,4|8,0:0|0:0,0:0:0:0:
452,204,219381,1,0,0:0:0:0:
452,204,219571,2,0,P|364:224|300:212,1,110
288,208,220141,1,8,0:0:0:0:
288,208,220331,2,0,L|292:84,2,110,0|8|0,0:0|0:0|0:0,0:0:0:0:
232,316,221470,2,0,P|196:328|136:320,1,55,0|8,0:0|0:0,0:0:0:0:
120,332,221850,6,0,L|104:152,2,165,2|0|12,0:0|0:0|0:0,0:0:0:0:
240,360,223369,2,0,P|296:364|368:344,1,110,0|12,0:0|0:0,0:0:0:0:
436,268,224128,2,0,P|448:228|440:176,1,55,12|12,0:0|0:0,0:0:0:0:
408,168,224508,2,0,P|396:128|404:76,1,55,12|0,0:0|0:0,0:0:0:0:
304,80,226407,6,0,L|180:76,1,110,6|0,0:0|0:0,0:0:0:0:
140,184,227166,2,0,L|264:188,1,110,8|0,0:0|0:0,0:0:0:0:
372,196,227926,2,0,P|392:248|380:316,1,110,0|8,0:0|0:0,0:0:0:0:
348,348,228495,2,0,B|276:356|276:356|168:352,1,165,0|0,0:0|0:0,0:0:0:0:
132,324,229255,1,0,0:0:0:0:
132,324,229445,6,0,P|104:236|128:164,2,165,8|0|0,0:0|0:0|0:0,0:0:0:0:
248,288,230964,2,0,P|280:240|256:172,1,110,0|8,0:0|0:0,0:0:0:0:
220,80,231723,2,0,L|336:88,1,110,8|0,0:0|0:0,0:0:0:0:
444,128,232483,5,12,0:0:0:0:
484,240,232862,2,0,L|464:304,1,55,0|0,0:0|0:0,0:0:0:0:
432,344,233242,2,0,P|344:340|292:352,2,110,8|0|0,0:0|0:0|0:0,0:0:0:0:
488,236,234381,1,8,0:0:0:0:
484,176,234571,1,0,0:0:0:0:
456,124,234761,2,0,L|316:120,1,110,8|0,0:0|0:0,0:0:0:0:
232,76,235521,6,0,P|224:136|256:200,1,110,8|0,0:0|0:0,0:0:0:0:
284,224,236090,1,0,0:0:0:0:
284,224,236280,2,0,L|356:232,1,55,8|0,0:0|0:0,0:0:0:0:
460,220,236850,2,0,P|480:144|452:80,1,110,8|0,0:0|0:0,0:0:0:0:
428,72,237419,1,8,0:0:0:0:
428,72,237609,2,0,B|384:92|384:92|296:80,2,110,0|0|0,0:0|0:0|0:0,0:0:0:0:
484,48,238559,6,0,P|472:116|492:172,1,110,12|0,0:0|0:0,0:0:0:0:
500,276,239318,2,0,L|376:284,1,110,8|0,0:0|0:0,0:0:0:0:
344,324,239888,1,8,0:0:0:0:
344,324,240078,2,0,P|272:312|216:332,1,110,0|8,0:0|0:0,0:0:0:0:
180,336,240647,2,0,L|172:208,1,110,0|0,0:0|0:0,0:0:0:0:
188,168,241217,1,0,0:0:0:0:
272,80,241597,6,0,P|352:64|416:88,2,110,8|0|8,0:0|0:0|0:0,0:0:0:0:
224,120,242546,2,0,L|216:248,1,110,0|8,0:0|0:0,0:0:0:0:
124,304,243305,2,0,P|88:320|12:320,1,110,0|0,0:0|0:0,0:0:0:0:
4,200,244065,2,0,L|-4:108,2,55,0|0|0,0:0|0:0|0:0,0:0:0:0:
56,228,244634,6,0,P|112:208|184:216,1,110,12|0,0:0|0:0,0:0:0:0:
220,196,245204,2,0,P|219:141|238:90,1,110,0|0,0:0|0:0,0:0:0:0:
288,52,245774,1,0,0:0:0:0:
400,8,246153,2,0,L|388:152,1,110,0|8,0:0|0:0,0:0:0:0:
364,172,246723,2,0,P|384:244|360:300,1,110,0|0,0:0|0:0,0:0:0:0:
340,324,247293,1,0,0:0:0:0:
224,348,247672,6,0,B|168:360|168:360|88:348,1,110,2|0,0:0|0:0,0:0:0:0:
68,240,248432,2,0,B|124:228|124:228|204:240,1,110,12|0,0:0|0:0,0:0:0:0:
288,284,249191,2,0,P|328:240|328:184,1,110,0|8,0:0|0:0,0:0:0:0:
292,144,249761,1,0,0:0:0:0:
244,108,249951,2,0,L|148:100,1,55,8|8,0:0|0:0,0:0:0:0:
148,148,250331,2,0,L|52:156,1,55,0|8,0:0|0:0,0:0:0:0:
44,188,250710,6,0,L|36:328,1,110,0|0,0:0|0:0,0:0:0:0:
148,348,251470,2,0,P|208:356|280:296,1,110,0|2,0:0|0:0,0:0:0:0:
296,296,252040,1,0,0:0:0:0:
296,296,252229,2,0,L|288:168,1,110,0|0,0:0|0:0,0:0:0:0:
340,156,252799,2,0,L|332:28,1,110,0|0,0:0|0:0,0:0:0:0:
376,0,253369,1,0,0:0:0:0:
472,72,253748,6,0,B|508:108|508:108|484:224,2,165,2|2|2,0:0|0:0|0:0,0:0:0:0:
360,24,255267,1,0,0:0:0:0:
360,24,255457,2,0,L|200:20,1,110,2|2,0:0|0:0,0:0:0:0:
160,100,256217,1,0,0:0:0:0:
80,188,256597,2,0,P|68:256|112:320,1,110,0|0,0:0|0:0,0:0:0:0:
124,340,257166,2,0,B|164:352|164:352|256:336,1,110,0|0,0:0|0:0,0:0:0:0:
308,248,257926,1,0,0:0:0:0:
320,128,258305,6,0,P|276:84|216:72,1,110,0|0,0:0|0:0,0:0:0:0:
172,84,258875,1,0,0:0:0:0:
84,164,259255,2,0,P|72:212|96:296,1,110,0|0,0:0|0:0,0:0:0:0:
124,312,259824,2,0,L|304:316,2,165,0|2|2,0:0|0:0|0:0,0:0:0:0:
52,216,261343,6,0,P|40:152|56:88,1,110
92,64,261913,2,0,L|168:56,1,55,0|0,0:0|0:0,0:0:0:0:
196,96,262293,2,0,L|250:101,2,55
164,148,262862,5,0,0:0:0:0:
96,248,263242,2,0,L|104:376,2,110,0|2|0,0:0|0:0|0:0,0:0:0:0:
92,128,264381,1,2,0:0:0:0:
180,44,264761,1,0,0:0:0:0:
180,44,264951,2,0,L|312:52,1,110,2|0,0:0|0:0,0:0:0:0:
408,76,265710,6,0,P|440:152|412:208,1,110
392,220,266280,2,0,B|340:208|340:208|252:228,1,110,0|0,0:0|0:0,0:0:0:0:
232,252,266850,1,0,0:0:0:0:
192,300,267040,1,0,0:0:0:0:
192,300,267229,2,0,L|76:312,1,110,2|2,0:0|0:0,0:0:0:0:
24,204,267989,2,0,L|133:215,1,110,2|0,0:0|0:0,0:0:0:0:
192,208,268559,1,0,0:0:0:0:
260,108,268938,5,4,0:3:0:0:
364,48,269318,1,0,0:3:0:0:
364,48,269508,2,0,L|376:168,2,110,0|0|0,0:0|0:0|0:0,0:0:0:0:
316,16,270457,1,0,0:0:0:0:
196,36,270837,1,0,0:0:0:0:
196,36,271027,2,0,L|184:156,2,110,0|2|0,0:0|0:0|0:0,0:0:0:0:
136,40,271976,6,0,P|76:64|24:48,1,110,2|0,0:0|0:0,0:0:0:0:
0,104,272546,2,0,L|8:252,1,110,0|0,0:0|0:0,0:0:0:0:
44,264,273116,1,0,0:0:0:0:
140,336,273495,2,0,L|296:344,1,110,0|0,0:0|0:0,0:0:0:0:
352,276,274255,2,0,L|376:196,1,55,0|0,0:0|0:0,0:0:0:0:
324,184,274634,2,0,L|300:104,1,55,0|0,0:0|0:0,0:0:0:0:
