osu file format v14

[General]
AudioFilename: SawanoHiroyuki[nZk] mica - Summer Tears.mp3
AudioLeadIn: 2000
PreviewTime: 53012
Countdown: 0
SampleSet: Soft
StackLeniency: 0.7
Mode: 0
LetterboxInBreaks: 0
WidescreenStoryboard: 0

[Editor]
Bookmarks: 179,10845,21512,32179,42845,53512,80179,89512,90845,101512,112179,122845,149512
DistanceSpacing: 1.2
BeatDivisor: 4
GridSize: 4
TimelineZoom: 1

[Metadata]
Title:Summer Tears
TitleUnicode:Summer Tears
Artist:SawanoHiroyuki[nZk]:mica
ArtistUnicode:SawanoHiroyuki[nZk]:mica
Creator:appleeaterx
Version:Normal
Source:
Tags:caldito o1 澤野弘之 HabiHolic
BeatmapID:885185
BeatmapSetID:406467

[Difficulty]
HPDrainRate:3
CircleSize:3.3
OverallDifficulty:3
ApproachRate:4.5
SliderMultiplier:1.7
SliderTickRate:2

[Events]
//Background and Video events
0,0,"background.jpg",0,0
//Break Periods
2,80378,88252
//Storyboard Layer 0 (Background)
//Storyboard Layer 1 (Fail)
//Storyboard Layer 2 (Pass)
//Storyboard Layer 3 (Foreground)
//Storyboard Sound Samples

[TimingPoints]
179,666.666666666667,4,2,1,45,1,0
10845,-100,4,2,1,55,0,0
21512,-100,4,2,1,60,0,0
53512,-100,4,2,1,75,0,1
80179,-100,4,2,1,75,0,0
89512,-100,4,2,1,65,0,0
90845,-100,4,2,1,55,0,0
101512,-100,4,2,1,60,0,0
122845,-100,4,2,1,75,0,1
149512,-100,4,2,1,75,0,0

[Colours]
Combo1 : 80,142,237
Combo2 : 128,255,128
Combo3 : 100,241,249
Combo4 : 255,128,255

[HitObjects]
184,88,179,6,0,L|56:76,2,127.5,2|0|0,0:0|3:0|3:0,0:0:0:0:
228,116,1345,2,0,P|292:132|356:76,1,127.5,0|0,0:0|3:0,0:0:0:0:
356,52,2012,1,0,3:0:0:0:
452,84,2345,2,0,L|496:76,2,42.5,0|0|0,0:0|3:0|0:0,0:0:0:0:
436,132,2845,6,0,L|424:272,2,127.5,2|0|0,0:0|3:0|3:0,0:0:0:0:
396,100,4012,2,0,P|348:72|276:88,1,127.5,0|0,0:0|3:0,0:0:0:0:
248,124,4679,1,0,3:0:0:0:
156,76,5012,2,0,L|164:28,2,42.5,0|0|0,0:0|3:0|0:0,0:0:0:0:
120,112,5512,6,0,P|68:136|-4:104,2,127.5,2|0|0,0:0|3:0|3:0,0:0:0:0:
156,76,6679,2,0,L|164:220,1,127.5,0|0,0:0|3:0,0:0:0:0:
148,252,7345,1,0,3:0:0:0:
92,340,7679,2,0,L|28:328,2,42.5,0|0|0,0:0|3:0|0:0,0:0:0:0:
140,352,8179,6,0,L|248:340,1,85,2|0,0:0|0:0,0:0:0:0:
264,312,8679,2,0,L|404:320,1,127.5,0|0,3:0|3:0,0:0:0:0:
472,256,9512,2,0,P|492:204|460:128,2,127.5,2|0|0,0:0|3:0|0:0,0:0:0:0:
390,195,10845,6,0,L|284:188,1,85,6|0,0:0|0:0,0:0:0:0:
208,154,11512,2,0,P|158:187|66:160,2,127.5,0|0|0,3:0|0:0|3:0,0:0:0:0:
238,56,12845,2,0,L|232:8,2,42.5,0|0|0,0:0|0:0|0:0,0:0:0:0:
326,107,13512,6,0,L|416:98,1,85,2|0,0:0|0:0,0:0:0:0:
488,165,14179,2,0,P|500:224|493:249,1,85,0|0,0:0|3:0,0:0:0:0:
449,272,14679,2,0,P|381:246|323:264,1,127.5,0|0,0:0|3:0,0:0:0:0:
249,322,15512,2,0,L|158:331,1,85,0|0,0:0|3:0,0:0:0:0:
78,274,16179,6,0,P|60:216|80:148,2,127.5,2|0|0,0:0|3:0|3:0,0:0:0:0:
160,212,17512,2,0,L|252:199,1,85,0|0,0:0|3:0,0:0:0:0:
315,127,18179,1,0,0:0:0:0:
315,127,18345,2,0,P|340:183|336:223,1,85,0|0,3:0|0:0,0:0:0:0:
330,255,18845,6,0,P|398:279|477:227,1,170,2|0,0:0|0:0,0:0:0:0:
507,132,19845,1,0,3:0:0:0:
420,78,20179,2,0,B|354:86|354:86|312:64|312:64|239:73,1,170,0|0,0:0|0:0,0:0:0:0:
55,109,21512,6,0,P|25:177|44:231,1,127.5,6|0,0:0|3:0,0:0:0:0:
73,263,22179,2,0,P|131:244|192:237,1,85,8|0,0:0|3:0,0:0:0:0:
196,269,22679,2,0,P|257:282|317:316,1,127.5,2|0,0:0|3:0,0:0:0:0:
397,370,23512,2,0,P|412:314|409:280,1,85,8|0,0:0|0:0,0:0:0:0:
369,194,24179,6,0,L|234:180,1,127.5,2|0,0:0|3:0,0:0:0:0:
195,161,24845,2,0,P|180:218|186:253,1,85,8|0,0:0|3:0,0:0:0:0:
201,290,25345,2,0,P|142:326|66:306,1,127.5,2|0,0:0|3:0,0:0:0:0:
23,237,26179,2,0,P|26:186|53:139,1,85,8|0,0:0|0:0,0:0:0:0:
139,177,26845,6,0,L|238:169,1,85,2|0,0:0|0:0,0:0:0:0:
293,95,27512,2,0,L|286:46,2,42.5,8|0|0,0:0|0:0|3:0,0:0:0:0:
329,130,28012,2,0,L|466:139,1,127.5,2|0,0:0|0:0,0:0:0:0:
492,233,28845,2,0,P|500:289|483:330,1,85,8|0,0:0|0:0,0:0:0:0:
391,334,29512,6,0,P|336:298|276:321,1,127.5,2|0,0:0|3:0,0:0:0:0:
246,353,30179,2,0,L|154:361,1,85,8|0,0:0|0:0,0:0:0:0:
71,312,30845,2,0,P|60:257|79:213,1,85,2|0,0:0|0:0,0:0:0:0:
165,200,31512,2,0,P|173:158|161:118,1,85,8|0,0:0|0:0,0:0:0:0:
102,34,32179,6,0,L|278:27,1,170,6|8,0:0|0:0,0:0:0:0:
374,28,33179,2,0,P|338:88|371:181,1,170,2|0,0:0|0:0,0:0:0:0:
466,204,34179,1,8,0:0:0:0:
445,303,34512,1,0,0:0:0:0:
345,280,34845,6,0,P|283:256|196:289,1,127.5,2|0,0:0|3:0,0:0:0:0:
189,305,35512,1,8,0:0:0:0:
101,253,35845,2,0,B|90:192|90:192|102:151|102:151|93:76,1,170,0|0,3:0|0:0,0:0:0:0:
177,26,36845,2,0,P|225:24|272:54,1,85,8|0,0:0|0:0,0:0:0:0:
292,135,37512,6,0,L|281:226,1,85,2|0,0:0|0:0,0:0:0:0:
308,318,38179,2,0,P|351:328|410:295,1,85,8|0,0:0|3:0,0:0:0:0:
419,274,38679,2,0,L|433:118,1,127.5,0|0,0:0|3:0,0:0:0:0:
402,48,39512,2,0,P|353:65|304:65,1,85,8|0,0:0|0:0,0:0:0:0:
219,47,40179,6,0,P|158:21|82:44,1,127.5,2|0,0:0|3:0,0:0:0:0:
72,75,40845,2,0,L|79:165,1,85,8|0,0:0|3:0,0:0:0:0:
179,176,41512,2,0,L|174:272,1,85,0|0,0:0|3:0,0:0:0:0:
124,350,42179,2,0,L|62:341,2,42.5,10|8|8,0:0|0:3|3:0,0:0:0:0:
225,344,42845,6,0,L|326:332,1,85,6|0,0:0|0:0,0:0:0:0:
408,308,43512,2,0,P|412:267|390:213,1,85,8|0,0:0|3:0,0:0:0:0:
356,196,44012,2,0,P|294:205|232:161,1,127.5,2|0,0:0|3:0,0:0:0:0:
209,75,44845,1,8,0:0:0:0:
108,55,45179,1,0,0:0:0:0:
36,128,45512,6,0,P|12:206|27:268,1,127.5,2|0,0:0|3:0,0:0:0:0:
51,289,46179,1,8,0:0:0:0:
146,253,46512,2,0,L|238:244,1,85,0|2,3:0|0:0,0:0:0:0:
319,194,47179,1,0,3:0:0:0:
390,267,47512,2,0,L|382:363,1,85,8|0,0:0|3:0,0:0:0:0:
482,328,48179,6,0,L|492:184,1,127.5,6|0,0:0|3:0,0:0:0:0:
467,155,48845,1,8,0:0:0:0:
385,92,49179,2,0,B|328:101|328:101|277:78|277:78|213:89,1,170,6|0,0:0|0:0,0:0:0:0:
135,142,50179,2,0,P|119:196|127:233,1,85,8|0,0:0|3:0,0:0:0:0:
192,298,50845,6,0,P|249:317|323:270,1,127.5,2|0,0:0|3:0,0:0:0:0:
337,248,51512,1,8,0:0:0:0:
297,154,51845,1,6,0:0:0:0:
368,81,52179,2,0,L|464:88,2,85,8|0|2,0:0|3:0|0:0,0:0:0:0:
168,38,53512,6,0,P|126:106|165:189,1,170,6|8,0:0|0:0,0:0:0:0:
238,246,54512,2,0,L|416:231,1,170,0|2,3:0|0:0,0:0:0:0:
469,150,55512,1,8,0:0:0:0:
422,59,55845,1,0,0:0:0:0:
320,68,56179,6,0,P|253:90|185:66,1,127.5,2|0,0:0|3:0,0:0:0:0:
153,55,56845,2,0,L|61:64,1,85,8|0,0:0|3:0,0:0:0:0:
29,157,57512,2,0,P|16:211|21:245,1,85,2|0,0:0|3:0,0:0:0:0:
105,295,58179,1,8,0:0:0:0:
199,256,58512,1,0,0:0:0:0:
289,302,58845,6,0,P|355:315|417:278,1,127.5,2|0,0:0|3:0,0:0:0:0:
424,240,59512,1,8,0:0:0:0:
341,180,59845,2,0,L|350:46,1,127.5,0|8,3:0|0:0,0:0:0:0:
307,23,60512,1,2,0:0:0:0:
212,61,60845,2,0,L|206:154,1,85,8|0,0:0|3:0,0:0:0:0:
192,247,61512,6,0,P|152:254|88:237,1,85,2|0,0:0|0:0,0:0:0:0:
67,216,62012,1,0,3:0:0:0:
67,216,62179,2,0,L|76:115,1,85,8|0,0:0|3:0,0:0:0:0:
160,75,62845,2,0,L|154:15,2,42.5,2|8|0,0:0|0:0|3:0,0:0:0:0:
254,114,63512,2,0,L|250:158,2,42.5,8|0|0,0:0|3:0|0:0,0:0:0:0:
317,34,64179,6,0,P|390:21|457:104,1,170,6|8,0:0|0:0,0:0:0:0:
430,183,65179,2,0,B|406:231|406:231|422:362,1,170,0|2,3:0|0:0,0:0:0:0:
320,368,66179,2,0,L|307:272,1,85,8|0,0:0|0:0,0:0:0:0:
294,182,66845,6,0,P|242:161|165:199,1,127.5,2|0,0:0|3:0,0:0:0:0:
160,232,67512,2,0,L|56:217,1,85,8|0,0:0|3:0,0:0:0:0:
58,119,68179,2,0,L|-10:112,2,42.5,2|8|0,0:0|0:0|3:0,0:0:0:0:
131,48,68845,1,8,0:0:0:0:
131,48,69012,2,0,L|230:41,1,85,0|0,3:0|3:0,0:0:0:0:
262,22,69512,6,0,P|296:81|268:163,1,127.5,2|0,0:0|3:0,0:0:0:0:
246,167,70179,1,8,0:0:0:0:
290,258,70512,2,0,P|356:281|435:214,1,170,0|2,3:0|0:0,0:0:0:0:
494,145,71512,2,0,P|482:94|460:64,1,85,8|0,0:0|0:0,0:0:0:0:
366,100,72179,6,0,L|251:94,1,85,2|0,0:0|0:0,0:0:0:0:
252,52,72679,1,0,3:0:0:0:
252,52,72845,2,0,L|154:56,1,85,8|0,0:0|0:0,0:0:0:0:
69,84,73512,2,0,P|52:130|59:177,1,85,2|8,0:0|0:0,0:0:0:0:
156,180,74179,2,0,P|173:226|166:273,1,85,8|8,0:0|0:3,0:0:0:0:
138,357,74845,6,0,L|277:345,1,127.5,6|0,0:0|3:0,0:0:0:0:
313,362,75512,1,8,0:0:0:0:
408,327,75845,2,0,P|432:248|390:161,1,170,0|2,3:0|0:0,0:0:0:0:
297,171,76845,1,8,0:0:0:0:
220,103,77179,1,0,3:0:0:0:
142,168,77512,6,0,L|148:311,1,127.5,6|0,0:0|3:0,0:0:0:0:
139,346,78179,2,0,L|248:336,1,85,8|0,0:0|3:0,0:0:0:0:
304,276,78845,1,0,0:0:0:0:
304,276,79012,2,0,L|405:286,1,85,8|8,0:3|0:3,0:0:0:0:
424,247,79512,2,0,P|434:202|420:153,2,85,8|8|6,0:3|0:3|0:0,0:0:0:0:
56,135,89512,6,0,P|133:167|217:101,1,170,2|8,0:0|0:3,0:0:0:0:
259,41,90512,1,8,0:3:0:0:
355,74,90845,6,0,P|341:130|337:226,1,127.5,6|0,0:0|3:0,0:0:0:0:
373,233,91512,1,0,3:0:0:0:
335,327,91845,2,0,P|262:340|195:275,1,170,0|0,3:0|3:0,0:0:0:0:
215,178,92845,2,0,L|113:166,1,85,0|0,0:0|3:0,0:0:0:0:
40,124,93512,6,0,P|92:76|204:100,1,170,2|0,0:0|0:0,0:0:0:0:
215,178,94512,1,0,3:0:0:0:
304,128,94845,2,0,L|392:120,1,85,0|0,0:0|3:0,0:0:0:0:
460,192,95512,2,0,L|512:188,2,42.5,0|0|0,3:0|3:0|3:0,0:0:0:0:
416,284,96179,6,0,L|264:296,1,127.5,2|0,0:0|3:0,0:0:0:0:
256,332,96845,2,0,L|156:324,1,85,0|0,3:0|3:0,0:0:0:0:
124,348,97345,2,0,P|104:292|128:212,1,127.5,2|0,0:0|3:0,0:0:0:0:
208,176,98179,2,0,L|296:168,1,85,0|0,0:0|3:0,0:0:0:0:
388,208,98845,6,0,P|396:156|384:116,1,85,2|0,0:0|3:0,0:0:0:0:
300,72,99512,2,0,P|268:29|232:9,1,85,2|0,0:0|3:0,0:0:0:0:
156,68,100179,2,0,P|104:59|64:71,1,85,0|0,3:0|0:0,0:0:0:0:
60,168,100845,2,0,P|17:199|-2:235,1,85,8|0,0:0|3:0,0:0:0:0:
36,324,101512,6,0,B|92:312|92:312|140:328|140:328|216:312,1,170,6|8,0:0|0:0,0:0:0:0:
288,264,102512,2,0,P|320:208|240:116,1,170,2|0,0:0|0:0,0:0:0:0:
172,140,103512,1,8,0:0:0:0:
116,56,103845,1,0,0:0:0:0:
216,33,104179,6,0,P|276:17|340:44,1,127.5,2|0,0:0|3:0,0:0:0:0:
368,80,104845,1,8,0:0:0:0:
452,140,105179,2,0,L|440:232,1,85,0|2,3:0|0:0,0:0:0:0:
384,308,105845,1,0,3:0:0:0:
296,256,106179,2,0,P|236:256|204:276,1,85,8|0,0:0|0:0,0:0:0:0:
120,308,106845,6,0,P|96:232|124:160,1,127.5,6|0,0:0|3:0,0:0:0:0:
132,144,107512,1,8,0:0:0:0:
204,72,107845,2,0,L|376:80,1,170,0|0,0:0|3:0,0:0:0:0:
460,136,108845,2,0,P|472:208|464:240,1,85,8|0,0:0|0:0,0:0:0:0:
404,296,109512,6,0,P|344:272|280:304,1,127.5,2|0,0:0|3:0,0:0:0:0:
260,336,110179,1,8,0:0:0:0:
184,268,110512,1,0,0:0:0:0:
236,180,110845,2,0,L|296:176,2,42.5,8|8|8,0:0|0:3|0:3,0:0:0:0:
188,88,111512,2,0,L|128:84,2,42.5,2|8|0,0:0|0:3|3:0,0:0:0:0:
280,40,112179,6,0,P|320:60|392:48,1,85,6|0,0:0|0:0,0:0:0:0:
460,48,112845,2,0,P|480:100|464:148,1,85,8|0,0:0|3:0,0:0:0:0:
452,172,113345,2,0,L|292:156,1,127.5,2|0,0:0|0:0,0:0:0:0:
248,224,114179,2,0,L|244:308,1,85,8|0,0:0|0:0,0:0:0:0:
152,352,114845,6,0,P|88:360|32:292,1,127.5,2|0,0:0|3:0,0:0:0:0:
28,272,115512,1,8,0:0:0:0:
72,180,115845,2,0,B|128:172|128:172|176:196|176:196|248:184,1,170,0|0,3:0|3:0,0:0:0:0:
272,92,116845,1,8,0:0:0:0:
372,108,117179,1,0,3:0:0:0:
464,64,117512,6,0,P|488:132|472:208,1,127.5,6|0,0:0|3:0,0:0:0:0:
444,224,118179,1,8,0:0:0:0:
344,212,118512,2,0,P|280:172|168:196,1,170,6|0,0:0|3:0,0:0:0:0:
144,272,119512,2,0,L|136:368,1,85,8|0,0:0|0:0,0:0:0:0:
44,316,120179,6,0,L|56:164,1,127.5,8|8,0:0|0:3,0:0:0:0:
32,144,120845,1,0,3:0:0:0:
100,68,121179,1,0,3:0:0:0:
196,96,121512,2,0,L|288:84,1,85,10|8,0:0|0:0,0:0:0:0:
356,16,122179,1,8,0:0:0:0:
448,60,122512,1,8,0:0:0:0:
368,124,122845,6,0,P|328:188|372:280,1,170,6|8,0:0|0:0,0:0:0:0:
424,352,123845,2,0,L|248:344,1,170,0|2,3:0|0:0,0:0:0:0:
196,260,124845,1,8,0:0:0:0:
96,288,125179,1,0,0:0:0:0:
32,208,125512,6,0,P|20:140|72:76,1,127.5,2|0,0:0|3:0,0:0:0:0:
100,104,126179,2,0,L|200:96,1,85,8|0,0:0|3:0,0:0:0:0:
272,44,126845,2,0,L|332:40,2,42.5,2|8|0,0:0|0:0|3:0,0:0:0:0:
276,148,127512,2,0,P|292:200|292:236,1,85,8|0,0:0|0:0,0:0:0:0:
280,332,128179,6,0,P|336:344|408:300,1,127.5,2|0,0:0|3:0,0:0:0:0:
412,264,128845,1,8,0:0:0:0:
420,164,129179,2,0,L|272:148,1,127.5,0|8,3:0|0:0,0:0:0:0:
274,104,129845,1,2,0:0:0:0:
180,136,130179,2,0,L|76:144,1,85,8|0,0:0|3:0,0:0:0:0:
32,224,130845,6,0,P|16:284|36:352,1,127.5,2|0,0:0|3:0,0:0:0:0:
84,356,131512,2,0,L|192:344,1,85,8|0,0:0|0:0,0:0:0:0:
216,256,132179,2,0,L|208:192,2,42.5,2|8|0,0:0|0:0|3:0,0:0:0:0:
308,296,132845,2,0,L|300:360,2,42.5,8|0|0,0:0|3:0|3:0,0:0:0:0:
356,204,133512,6,0,P|432:224|504:144,1,170,6|8,0:0|0:0,0:0:0:0:
472,72,134512,2,0,P|396:52|324:132,1,170,0|2,3:0|0:0,0:0:0:0:
236,148,135512,1,8,0:0:0:0:
160,76,135845,1,0,0:0:0:0:
72,128,136179,6,0,P|56:192|56:220,1,85,2|0,0:0|0:0,0:0:0:0:
80,256,136679,1,0,3:0:0:0:
80,256,136845,2,0,L|176:244,1,85,8|0,0:0|3:0,0:0:0:0:
232,320,137512,2,0,L|324:312,1,85,2|0,0:0|3:0,0:0:0:0:
408,356,138179,1,8,0:0:0:0:
408,356,138345,2,0,P|420:312|396:248,1,85,0|0,3:0|0:0,0:0:0:0:
376,240,138845,6,0,L|224:224,1,127.5,6|0,0:0|0:0,0:0:0:0:
200,216,139512,2,0,P|192:172|200:124,1,85,8|0,0:0|3:0,0:0:0:0:
292,96,140179,2,0,L|368:104,2,42.5,0|8|2,0:0|0:0|0:0,0:0:0:0:
208,40,140845,2,0,L|104:32,1,85,8|0,0:0|0:0,0:0:0:0:
52,108,141512,6,0,L|64:212,1,85,2|0,0:0|0:0,0:0:0:0:
100,288,142179,2,0,P|148:292|204:264,1,85,8|0,0:0|3:0,0:0:0:0:
220,244,142679,2,0,P|232:196|228:156,1,85,0|0,3:0|3:0,0:0:0:0:
200,120,143179,1,8,0:0:0:0:
268,44,143512,2,0,L|260:0,2,42.5,8|8|8,0:0|0:3|0:3,0:0:0:0:
368,68,144179,6,0,L|356:204,1,127.5,6|0,0:0|3:0,0:0:0:0:
384,240,144845,1,8,0:0:0:0:
284,264,145179,2,0,P|220:260|164:308,1,127.5,0|8,3:0|0:0,0:0:0:0:
152,344,145845,1,2,0:0:0:0:
72,280,146179,2,0,P|60:236|64:184,1,85,8|0,0:0|0:0,0:0:0:0:
120,112,146845,5,6,0:0:0:0:
212,160,147179,1,8,0:0:0:0:
276,84,147512,2,0,L|344:76,2,42.5,0|0|0,3:0|3:0|0:0,0:0:0:0:
212,160,148179,2,0,P|188:216|200:268,1,85,2|0,0:0|3:0,0:0:0:0:
220,280,148679,2,0,P|268:288|332:268,1,85,2|0,0:0|3:0,0:0:0:0:
352,268,149179,2,0,L|368:364,1,85,2|6,0:0|0:0,0:0:0:0:
