osu file format v14

[General]
AudioFilename: SawanoHiroyuki[nZk] mica - Summer Tears.mp3
AudioLeadIn: 2000
PreviewTime: 53012
Countdown: 0
SampleSet: Soft
StackLeniency: 0.7
Mode: 0
LetterboxInBreaks: 0
WidescreenStoryboard: 0

[Editor]
Bookmarks: 179,10845,21512,32179,42845,53512,80179,89512,90845,101512,112179,122845,149512
DistanceSpacing: 1.5
BeatDivisor: 4
GridSize: 4
TimelineZoom: 1

[Metadata]
Title:Summer Tears
TitleUnicode:Summer Tears
Artist:SawanoHiroyuki[nZk]:mica
ArtistUnicode:SawanoHiroyuki[nZk]:mica
Creator:appleeaterx
Version:Insane
Source:
Tags:caldito o1 澤野弘之 HabiHolic
BeatmapID:892298
BeatmapSetID:406467

[Difficulty]
HPDrainRate:6
CircleSize:4.5
OverallDifficulty:7.5
ApproachRate:8.8
SliderMultiplier:3.1
SliderTickRate:2

[Events]
//Background and Video events
0,0,"background.jpg",0,0
//Break Periods
2,80378,88883
//Storyboard Layer 0 (Background)
//Storyboard Layer 1 (Fail)
//Storyboard Layer 2 (Pass)
//Storyboard Layer 3 (Foreground)
//Storyboard Sound Samples

[TimingPoints]
179,666.666666666667,4,2,1,45,1,0
179,-117.647058823529,4,2,1,45,0,0
10845,-117.647058823529,4,2,1,55,0,0
21512,-117.647058823529,4,2,1,60,0,0
53512,-100,4,2,1,75,0,1
80179,-100,4,2,1,75,0,0
89512,-117.647058823529,4,2,1,65,0,0
90845,-117.647058823529,4,2,1,55,0,0
101512,-117.647058823529,4,2,1,60,0,0
122845,-100,4,2,1,75,0,1
133345,-100,4,2,1,45,0,1
133512,-100,4,2,1,75,0,1
148679,-111.111111111111,4,2,1,75,0,1
149179,-125,4,2,1,75,0,1
149512,-100,4,2,1,75,0,0

[Colours]
Combo1 : 80,142,237
Combo2 : 128,255,128
Combo3 : 100,241,249
Combo4 : 255,128,255

[HitObjects]
84,247,179,6,0,L|73:328,2,65.8750012564659,2|0|0,0:0|0:0|0:0,0:0:0:0:
123,163,679,2,0,P|206:156|246:207,1,131.750002512932,0|0,3:0|0:0,0:0:0:0:
312,240,1179,1,0,3:0:0:0:
378,176,1345,6,0,P|383:140|380:103,1,65.8750012564659
354,7,1679,1,0,3:0:0:0:
439,42,1845,1,0,3:0:0:0:
303,138,2012,2,0,L|171:120,1,131.750002512932,0|0,3:0|0:0,0:0:0:0:
84,92,2512,2,0,L|93:161,1,65.8750012564659,0|0,3:0|0:0,0:0:0:0:
159,221,2845,5,2,0:0:0:0:
109,299,3012,2,0,P|53:300|19:279,1,65.8750012564659
159,221,3345,2,0,L|234:232,1,65.8750012564659,0|0,3:0|0:0,0:0:0:0:
313,256,3679,1,0,0:0:0:0:
383,197,3845,1,0,3:0:0:0:
465,238,4012,6,0,P|486:307|464:362,1,131.750002512932,0|0,0:0|3:0,0:0:0:0:
397,297,4512,1,0,3:0:0:0:
317,202,4679,2,0,L|417:193,1,65.8750012564659,0|0,3:0|0:0,0:0:0:0:
457,141,5012,1,0,0:0:0:0:
406,63,5179,2,0,P|374:52|335:59,1,65.8750012564659,0|0,3:0|0:0,0:0:0:0:
242,156,5512,6,0,P|222:88|245:16,1,131.750002512932,2|0,0:0|0:0,0:0:0:0:
172,97,6012,2,0,P|91:104|49:77,1,131.750002512932,0|0,3:0|0:0,0:0:0:0:
20,166,6512,1,0,3:0:0:0:
71,242,6679,6,0,L|56:313,1,65.8750012564659
156,218,7012,1,0,3:0:0:0:
227,275,7179,1,0,3:0:0:0:
308,232,7345,2,0,P|344:206|434:220,1,131.750002512932,0|0,3:0|0:0,0:0:0:0:
502,269,7845,2,0,L|514:192,1,65.8750012564659,0|0,3:0|0:0,0:0:0:0:
479,116,8179,6,0,L|475:39,2,65.8750012564659,2|0|0,0:0|0:0|0:0,0:0:0:0:
387,126,8679,2,0,L|232:112,1,131.750002512932,0|0,3:0|0:0,0:0:0:0:
176,67,9179,1,0,3:0:0:0:
98,115,9345,2,0,L|44:105,1,32.937500628233
40,93,9512,6,0,P|11:137|30:214,1,131.750002512932,2|0,0:0|0:0,0:0:0:0:
173,249,10012,2,0,L|108:256,1,65.8750012564659,0|0,3:0|3:0,0:0:0:0:
23,294,10345,1,0,3:0:0:0:
145,355,10512,2,0,L|79:361,1,65.8750012564659
230,322,10845,6,0,L|313:329,1,65.8750012564659,6|0,0:0|0:0,0:0:0:0:
381,363,11179,2,0,P|387:325|378:290,1,65.8750012564659,0|0,0:0|3:0,0:0:0:0:
311,238,11512,1,0,3:0:0:0:
397,205,11679,2,0,L|487:195,1,65.8750012564659
351,132,12012,2,0,L|426:118,1,65.8750012564659
306,54,12345,5,0,3:0:0:0:
239,109,12512,2,0,P|228:143|227:185,1,65.8750012564659,0|0,3:0|3:0,0:0:0:0:
156,234,12845,2,0,P|164:273|185:303,1,65.8750012564659
256,344,13179,1,0,0:0:0:0:
256,344,13345,1,0,0:0:0:0:
332,291,13512,6,0,L|479:279,1,131.750002512932,2|0,0:0|0:0,0:0:0:0:
417,199,14012,2,0,L|270:211,1,131.750002512932,0|0,3:0|0:0,0:0:0:0:
214,150,14512,1,0,3:0:0:0:
241,61,14679,1,0,0:0:0:0:
155,28,14845,6,0,P|112:19|80:23,2,65.8750012564659,0|0|0,0:0|0:0|3:0,0:0:0:0:
109,108,15345,1,0,3:0:0:0:
41,170,15512,2,0,L|45:236,1,65.8750012564659,0|0,0:0|3:0,0:0:0:0:
96,312,15845,1,0,3:0:0:0:
172,260,16012,2,0,L|169:209,1,32.937500628233
161,204,16179,6,0,P|210:176|279:194,1,131.750002512932,2|0,0:0|0:0,0:0:0:0:
360,238,16679,1,0,3:0:0:0:
434,184,16845,2,0,L|427:113,1,65.8750012564659,0|0,0:0|3:0,0:0:0:0:
338,73,17179,2,0,L|345:151,1,65.8750012564659,0|0,3:0|0:0,0:0:0:0:
251,58,17512,6,0,P|196:47|175:57,1,65.8750012564659,0|0,0:0|3:0,0:0:0:0:
146,124,17845,2,0,P|201:135|222:125,1,65.8750012564659,0|0,3:0|3:0,0:0:0:0:
101,54,18179,1,0,0:0:0:0:
101,54,18345,1,0,3:0:0:0:
66,154,18512,2,0,L|72:226,1,65.8750012564659,0|0,3:0|0:0,0:0:0:0:
35,323,18845,6,0,P|88:294|166:315,1,131.750002512932,2|0,0:0|0:0,0:0:0:0:
244,332,19345,1,0,3:0:0:0:
332,304,19512,2,0,L|405:299,2,65.8750012564659,0|0|0,0:0|0:0|3:0,0:0:0:0:
263,241,20012,1,0,0:0:0:0:
300,156,20179,2,0,L|305:82,2,65.8750012564659
263,241,20679,5,0,3:0:0:0:
263,241,20762,1,0,0:0:0:0:
263,241,20845,2,0,B|231:250|231:250|206:238|206:238|174:258|119:230,1,131.750002512932
128,248,21512,6,0,P|99:180|119:115,1,131.750002512932,6|0,0:0|0:0,0:0:0:0:
188,60,22012,1,0,3:0:0:0:
292,156,22179,2,0,L|222:150,1,65.8750012564659,8|0,0:0|0:0,0:0:0:0:
188,60,22512,1,0,3:0:0:0:
380,108,22679,6,0,L|362:255,1,131.750002512932,2|0,0:0|0:0,0:0:0:0:
331,346,23179,1,0,3:0:0:0:
420,304,23345,2,0,P|452:296|500:297,1,65.8750012564659,0|8,3:0|0:0,0:0:0:0:
316,358,23679,1,0,3:0:0:0:
292,240,23845,2,0,P|260:232|212:233,1,65.8750012564659,0|0,0:0|3:0,0:0:0:0:
112,324,24179,6,0,B|129:292|129:292|123:185,1,131.750002512932,2|0,0:0|0:0,0:0:0:0:
60,116,24679,1,0,3:0:0:0:
166,31,24845,2,0,L|156:104,1,65.8750012564659,8|0,0:0|0:0,0:0:0:0:
123,196,25179,1,0,3:0:0:0:
256,60,25345,6,0,P|312:27|380:47,1,131.750002512932,2|0,0:0|0:0,0:0:0:0:
368,200,25845,2,0,P|352:147|355:121,1,65.8750012564659,0|0,3:0|0:0,0:0:0:0:
512,144,26179,1,8,0:0:0:0:
445,78,26345,1,0,0:0:0:0:
456,216,26512,2,0,L|452:282,1,65.8750012564659
304,368,26845,6,0,L|298:235,1,131.750002512932,2|0,0:0|0:0,0:0:0:0:
212,184,27345,1,0,0:0:0:0:
120,232,27512,2,0,L|43:225,1,65.8750012564659,8|0,0:0|0:0,0:0:0:0:
208,288,27845,1,0,3:0:0:0:
144,128,28012,6,0,P|204:93|267:112,1,131.750002512932,2|0,0:0|0:0,0:0:0:0:
408,169,28512,1,0,0:0:0:0:
408,169,28679,2,0,P|347:164|336:157,1,65.8750012564659,0|8,3:0|0:0,0:0:0:0:
384,68,29012,1,0,3:0:0:0:
480,96,29179,2,0,P|501:142|502:167,1,65.8750012564659,0|0,0:0|3:0,0:0:0:0:
410,263,29512,6,0,L|275:251,1,131.750002512932,2|0,0:0|0:0,0:0:0:0:
92,208,30012,1,0,3:0:0:0:
182,263,30179,2,0,L|188:339,1,65.8750012564659,8|0,0:0|0:0,0:0:0:0:
80,180,30512,2,0,L|88:110,1,65.8750012564659
176,16,30845,5,2,0:0:0:0:
176,16,31012,1,0,0:0:0:0:
220,96,31179,2,0,P|271:95|292:90,1,65.8750012564659,0|0,0:0|3:0,0:0:0:0:
368,36,31512,2,0,P|376:74|380:105,1,65.8750012564659,8|0,0:0|3:0,0:0:0:0:
314,174,31845,1,0,0:0:0:0:
308,189,31928,1,0,0:0:0:0:
305,205,32011,1,0,0:0:0:0:
304,222,32094,1,0,0:0:0:0:
308,239,32179,6,0,P|242:214|176:230,1,131.750002512932,6|0,0:0|0:0,0:0:0:0:
120,340,32679,1,0,3:0:0:0:
59,271,32845,2,0,L|67:186,1,65.8750012564659,8|0,0:0|0:0,0:0:0:0:
79,37,33179,1,2,0:0:0:0:
25,106,33345,6,0,B|71:122|71:122|181:105,1,131.750002512932
232,56,33845,1,0,0:0:0:0:
316,100,34012,1,0,3:0:0:0:
233,155,34179,2,0,L|226:237,1,65.8750012564659,8|0,0:0|3:0,0:0:0:0:
128,288,34512,2,0,L|121:206,1,65.8750012564659
244,312,34845,6,0,P|299:322|365:287,1,131.750002512932,2|0,0:0|0:0,0:0:0:0:
416,112,35345,1,0,3:0:0:0:
329,153,35512,2,0,L|321:238,1,65.8750012564659,8|0,0:0|0:0,0:0:0:0:
448,92,35845,2,0,L|441:24,1,65.8750012564659,0|0,3:0|0:0,0:0:0:0:
406,186,36179,5,2,0:0:0:0:
320,132,36345,2,0,L|227:126,1,65.8750012564659
172,176,36679,1,0,3:0:0:0:
88,128,36845,2,0,P|75:82|83:47,1,65.8750012564659,8|0,0:0|3:0,0:0:0:0:
189,189,37179,2,0,P|192:224|182:254,1,65.8750012564659
89,361,37512,6,0,P|143:331|222:349,1,131.750002512932,2|0,0:0|0:0,0:0:0:0:
304,368,38012,1,0,3:0:0:0:
392,328,38179,2,0,P|397:298|392:254,1,65.8750012564659,8|0,0:0|0:0,0:0:0:0:
296,268,38512,1,0,3:0:0:0:
344,176,38679,6,0,L|456:192,2,65.8750012564659,0|2|0,0:0|0:0|0:0,0:0:0:0:
248,160,39179,1,0,3:0:0:0:
192,244,39345,2,0,L|120:248,1,65.8750012564659,0|8,0:0|0:0,0:0:0:0:
48,136,39679,2,0,L|121:142,1,65.8750012564659
138,153,40179,6,0,P|158:102|141:22,1,131.750002512932,2|0,0:0|0:0,0:0:0:0:
69,64,40679,1,0,3:0:0:0:
231,131,40845,2,0,P|304:144|352:112,1,131.750002512932,8|0,0:0|3:0,0:0:0:0:
340,32,41345,1,0,0:0:0:0:
444,100,41512,2,0,L|452:174,1,65.8750012564659
376,224,41845,2,0,L|370:296,1,65.8750012564659,0|0,3:0|0:0,0:0:0:0:
251,358,42179,5,10,0:0:0:0:
236,271,42345,1,8,0:3:0:0:
147,312,42512,1,8,3:0:0:0:
132,220,42679,1,0,3:0:0:0:
270,165,42845,6,0,P|320:148|391:174,1,131.750002512932,6|0,0:0|0:0,0:0:0:0:
216,239,43345,1,0,3:0:0:0:
131,188,43512,2,0,P|112:135|142:45,1,131.750002512932,8|0,0:0|3:0,0:0:0:0:
300,51,44012,6,0,L|211:68,1,65.8750012564659,2|0,0:0|0:0,0:0:0:0:
344,136,44345,2,0,L|426:142,1,65.8750012564659,0|0,0:0|3:0,0:0:0:0:
281,207,44679,1,0,0:0:0:0:
332,289,44845,2,0,L|326:380,1,65.8750012564659,8|0,0:0|0:0,0:0:0:0:
199,254,45179,2,0,L|193:163,1,65.8750012564659
163,340,45512,6,0,P|93:350|32:300,1,131.750002512932,2|0,0:0|0:0,0:0:0:0:
16,136,46012,1,0,3:0:0:0:
99,189,46179,2,0,L|91:255,1,65.8750012564659,8|0,0:0|0:0,0:0:0:0:
188,144,46512,2,0,L|179:76,1,65.8750012564659,0|0,3:0|3:0,0:0:0:0:
296,21,46845,5,2,0:0:0:0:
277,103,47012,1,0,0:0:0:0:
362,121,47179,2,0,P|411:121|436:115,1,65.8750012564659,0|0,3:0|0:0,0:0:0:0:
277,103,47512,1,8,0:0:0:0:
305,185,47679,1,0,0:0:0:0:
262,259,47845,2,0,P|229:264|196:262,1,65.8750012564659,0|0,3:0|0:0,0:0:0:0:
392,200,48179,6,0,P|430:263|416:344,1,131.750002512932,6|0,0:0|0:0,0:0:0:0:
344,280,48679,1,0,3:0:0:0:
296,168,48845,2,0,L|304:84,1,65.8750012564659,8|0,0:0|0:0,0:0:0:0:
176,24,49179,6,0,B|157:66|157:66|176:165,1,131.750002512932,6|0,0:0|0:0,0:0:0:0:
219,232,49679,1,0,0:0:0:0:
183,314,49845,2,0,L|114:301,1,65.8750012564659,0|0,0:0|3:0,0:0:0:0:
305,235,50179,2,0,P|373:200|447:227,1,131.750002512932,8|0,0:0|3:0,0:0:0:0:
283,322,50679,1,0,0:0:0:0:
219,232,50845,6,0,L|228:154,1,65.8750012564659,2|0,0:0|0:0,0:0:0:0:
321,65,51179,2,0,L|328:163,1,65.8750012564659,0|0,0:0|3:0,0:0:0:0:
244,15,51512,2,0,P|207:8|172:22,1,65.8750012564659,8|0,0:0|0:0,0:0:0:0:
51,114,51845,2,0,P|88:121|129:108,1,65.8750012564659,6|0,0:0|0:0,0:0:0:0:
212,98,52179,5,8,0:0:0:0:
224,183,52345,1,0,3:0:0:0:
189,263,52512,1,0,3:0:0:0:
199,342,52679,1,0,3:0:0:0:
136,200,52845,5,2,0:0:0:0:
136,200,53512,6,0,P|60:212|-4:156,1,155,6|0,0:0|0:0,0:0:0:0:
148,80,54012,1,0,3:0:0:0:
232,148,54179,2,0,L|224:228,1,77.5,8|0,0:0|0:0,0:0:0:0:
328,96,54512,2,0,L|340:256,1,155,0|0,3:0|0:0,0:0:0:0:
496,168,55012,1,0,0:0:0:0:
496,168,55179,6,0,P|460:156|408:160,1,77.5,2|0,0:0|0:0,0:0:0:0:
340,316,55512,2,0,P|368:290|390:243,1,77.5,8|0,0:0|3:0,0:0:0:0:
280,120,55845,2,0,P|287:157|317:200,1,77.5
474,331,56179,6,0,P|406:291|326:331,1,155,2|0,0:0|0:0,0:0:0:0:
143,352,56679,1,0,3:0:0:0:
245,287,56845,2,0,L|237:364,1,77.5,8|0,0:0|0:0,0:0:0:0:
131,241,57179,2,0,L|119:85,1,155,0|2,3:0|0:0,0:0:0:0:
189,15,57679,5,0,0:0:0:0:
280,120,57845,2,0,L|288:32,1,77.5,0|0,3:0|0:0,0:0:0:0:
332,212,58179,2,0,P|392:228|476:180,1,155,8|0,0:0|0:0,0:0:0:0:
280,120,58679,1,0,0:0:0:0:
251,290,58845,6,0,P|191:306|107:258,1,155,2|0,0:0|0:0,0:0:0:0:
79,167,59345,1,0,3:0:0:0:
183,40,59512,2,0,L|171:120,1,77.5,8|0,0:0|0:0,0:0:0:0:
212,212,59845,1,0,3:0:0:0:
296,100,60012,2,0,P|368:52|448:80,1,155,0|8,0:0|0:0,0:0:0:0:
504,204,60512,6,0,L|424:192,1,77.5,2|0,0:0|0:0,0:0:0:0:
232,144,60845,2,0,L|324:132,1,77.5,8|0,0:0|0:0,0:0:0:0:
401,0,61179,2,0,L|417:100,1,77.5,0|0,3:0|0:0,0:0:0:0:
343,292,61512,6,0,B|311:256|311:256|327:140,1,155,2|0,0:0|0:0,0:0:0:0:
392,80,62012,1,0,3:0:0:0:
235,15,62179,2,0,L|213:170,1,155,8|0,0:0|3:0,0:0:0:0:
199,262,62679,1,0,0:0:0:0:
280,232,62845,5,2,0:0:0:0:
128,160,63012,2,0,L|141:78,2,77.5,8|0|0,0:0|3:0|0:0,0:0:0:0:
84,328,63512,1,8,0:0:0:0:
160,248,63679,1,0,3:0:0:0:
48,192,63845,1,0,0:0:0:0:
152,264,64012,1,0,0:0:0:0:
248,168,64179,6,0,P|316:120|396:148,1,155,6|0,0:0|0:0,0:0:0:0:
408,336,64679,1,0,3:0:0:0:
320,288,64845,2,0,L|328:184,1,77.5,8|0,0:0|0:0,0:0:0:0:
480,84,65179,2,0,L|492:248,1,155,0|0,3:0|0:0,0:0:0:0:
384,132,65679,1,0,0:0:0:0:
384,132,65845,6,0,P|372:92|380:44,1,77.5,2|0,0:0|0:0,0:0:0:0:
332,236,66179,2,0,P|297:213|272:171,1,77.5,8|0,0:0|0:0,0:0:0:0:
364,352,66512,2,0,P|322:356|276:340,1,77.5
128,188,66845,6,0,B|108:244|108:244|128:344,1,155,2|0,0:0|0:0,0:0:0:0:
208,256,67345,1,0,3:0:0:0:
148,80,67512,2,0,P|88:80|28:168,1,155,8|0,0:0|3:0,0:0:0:0:
208,256,68012,1,0,0:0:0:0:
284,184,68179,6,0,L|292:104,1,77.5,2|8,0:0|0:0,0:0:0:0:
464,40,68512,2,0,L|476:124,1,77.5,0|0,3:0|0:0,0:0:0:0:
472,292,68845,1,8,0:0:0:0:
384,240,69012,2,0,B|376:180|376:180|388:144|388:144|380:76,1,155,0|0,3:0|3:0,0:0:0:0:
284,284,69512,6,0,P|180:284|144:244,1,155,2|0,0:0|0:0,0:0:0:0:
196,168,70012,1,0,3:0:0:0:
100,340,70179,2,0,L|20:336,1,77.5,8|0,0:0|0:0,0:0:0:0:
116,120,70512,2,0,P|177:75|250:91,1,155,0|0,3:0|0:0,0:0:0:0:
348,32,71012,1,0,0:0:0:0:
348,32,71179,6,0,P|364:76|362:116,1,77.5,2|0,0:0|0:0,0:0:0:0:
252,268,71512,2,0,L|336:252,1,77.5,8|0,0:0|3:0,0:0:0:0:
500,208,71845,2,0,L|416:192,1,77.5
192,188,72179,6,0,P|152:272|176:344,1,155,2|0,0:0|0:0,0:0:0:0:
252,268,72679,1,0,3:0:0:0:
272,124,72845,2,0,L|264:40,1,77.5,8|0,0:0|0:0,0:0:0:0:
360,288,73179,2,0,L|372:200,1,77.5,0|8,0:0|0:0,0:0:0:0:
416,36,73512,5,2,0:0:0:0:
464,136,73679,1,0,3:0:0:0:
320,88,73845,1,8,0:0:0:0:
372,184,74012,1,0,3:0:0:0:
452,28,74179,5,8,0:0:0:0:
356,80,74345,1,8,0:3:0:0:
268,16,74512,1,8,0:3:0:0:
172,56,74679,1,0,3:0:0:0:
218,208,74845,6,0,L|375:183,1,155,6|0,0:0|0:0,0:0:0:0:
456,120,75345,1,0,3:0:0:0:
432,268,75512,2,0,L|424:352,1,77.5,8|0,0:0|0:0,0:0:0:0:
371,183,75845,1,0,3:0:0:0:
272,288,76012,2,0,P|200:304|128:240,1,155,0|0,3:0|0:0,0:0:0:0:
212,96,76512,6,0,L|216:184,1,77.5,2|0,0:0|0:0,0:0:0:0:
56,80,76845,2,0,L|64:0,1,77.5,8|0,0:0|0:0,0:0:0:0:
112,200,77179,2,0,L|120:280,1,77.5,0|0,3:0|0:0,0:0:0:0:
296,368,77512,6,0,B|320:324|320:324|308:216,1,155,6|0,0:0|0:0,0:0:0:0:
240,148,78012,1,0,3:0:0:0:
344,92,78179,2,0,L|440:108,1,77.5,8|0,0:0|0:0,0:0:0:0:
292,240,78512,2,0,L|215:252,1,77.5,0|0,3:0|0:0,0:0:0:0:
16,284,78845,5,2,0:0:0:0:
108,316,79012,1,0,3:0:0:0:
92,220,79179,2,0,L|80:136,1,77.5,0|0,0:0|3:0,0:0:0:0:
216,72,79512,2,0,L|204:168,1,77.5
312,312,79845,2,0,B|327:200|327:200|291:236,1,155,0|6,0:0|0:0,0:0:0:0:
96,140,89512,6,0,P|60:196|84:276,1,131.750002512932,2|0,0:0|0:0,0:0:0:0:
160,212,90012,1,0,3:0:0:0:
184,352,90179,2,0,P|208:320|216:292,1,65.8750012564659,8|0,0:3|3:0,0:0:0:0:
248,196,90512,2,0,P|236:157|219:134,1,65.8750012564659,8|0,0:3|3:0,0:0:0:0:
92,36,90845,6,0,L|236:48,1,131.750002512932,6|0,0:0|0:0,0:0:0:0:
394,14,91345,1,0,3:0:0:0:
365,96,91512,2,0,L|289:104,1,65.8750012564659,0|0,3:0|0:0,0:0:0:0:
456,73,91845,1,0,3:0:0:0:
412,168,92012,6,0,P|384:236|400:304,1,131.750002512932,2|0,0:0|0:0,0:0:0:0:
468,240,92512,1,0,3:0:0:0:
376,312,92679,2,0,L|292:300,1,65.8750012564659,0|0,3:0|0:0,0:0:0:0:
144,240,93012,1,0,3:0:0:0:
230,251,93179,2,0,L|218:331,1,65.8750012564659,0|0,3:0|0:0,0:0:0:0:
71,185,93512,6,0,P|123:148|200:168,1,131.750002512932,2|0,0:0|3:0,0:0:0:0:
274,181,94012,1,0,3:0:0:0:
274,181,94179,2,0,B|290:137|290:137|270:41,1,131.750002512932,0|0,0:0|3:0,0:0:0:0:
116,24,94679,6,0,L|100:104,1,65.8750012564659,2|0,0:0|0:0,0:0:0:0:
176,232,95012,2,0,L|168:144,1,65.8750012564659,0|0,3:0|3:0,0:0:0:0:
107,290,95345,1,0,0:0:0:0:
52,157,95512,1,0,3:0:0:0:
139,204,95679,1,0,3:0:0:0:
206,135,95845,2,0,L|199:57,1,65.8750012564659,0|0,3:0|0:0,0:0:0:0:
288,244,96179,6,0,P|316:168|284:104,1,131.750002512932,2|0,0:0|3:0,0:0:0:0:
276,43,96679,1,0,3:0:0:0:
388,1,96845,2,0,L|376:69,2,65.8750012564659,0|0|0,3:0|0:0|3:0,0:0:0:0:
456,104,97345,6,0,B|484:144|484:144|456:244,1,131.750002512932,2|0,0:0|3:0,0:0:0:0:
428,352,97845,1,0,3:0:0:0:
360,288,98012,2,0,L|352:204,1,65.8750012564659,0|0,3:0|0:0,0:0:0:0:
280,108,98345,1,0,3:0:0:0:
280,108,98512,2,0,L|272:188,1,65.8750012564659,0|0,3:0|0:0,0:0:0:0:
192,64,98845,6,0,P|136:32|56:48,1,131.750002512932,2|0,0:0|3:0,0:0:0:0:
184,152,99345,1,0,3:0:0:0:
76,269,99512,2,0,P|53:202|77:136,1,131.750002512932,2|0,0:0|3:0,0:0:0:0:
184,152,100012,1,0,0:0:0:0:
246,268,100179,2,0,L|174:252,1,65.8750012564659,0|0,3:0|3:0,0:0:0:0:
292,184,100512,2,0,L|356:169,1,65.8750012564659,0|0,0:0|3:0,0:0:0:0:
508,208,100845,5,8,0:0:0:0:
442,143,101012,1,0,3:0:0:0:
398,256,101179,1,0,3:0:0:0:
449,333,101345,1,0,3:0:0:0:
492,184,101512,6,0,P|420:152|364:176,1,131.750002512932,6|0,0:0|0:0,0:0:0:0:
344,320,102012,1,0,3:0:0:0:
248,244,102179,2,0,L|328:232,1,65.8750012564659,8|0,0:0|3:0,0:0:0:0:
176,164,102512,6,0,L|156:316,1,131.750002512932,2|0,0:0|0:0,0:0:0:0:
64,208,103012,1,0,0:0:0:0:
64,208,103179,2,0,L|56:132,1,65.8750012564659,0|0,0:0|3:0,0:0:0:0:
108,24,103512,2,0,P|52:8|16:20,1,65.8750012564659,8|0,0:0|3:0,0:0:0:0:
152,116,103845,2,0,P|188:116|216:104,1,65.8750012564659
312,0,104179,6,0,B|296:40|296:40|312:152,1,131.750002512932,2|0,0:0|0:0,0:0:0:0:
400,56,104679,1,0,3:0:0:0:
360,216,104845,2,0,L|288:204,1,65.8750012564659,8|0,0:0|0:0,0:0:0:0:
432,148,105179,2,0,P|464:128|500:124,1,65.8750012564659,0|0,3:0|3:0,0:0:0:0:
460,240,105512,1,2,0:0:0:0:
366,319,105679,6,0,L|374:243,2,65.8750012564659,0|0|0,0:0|3:0|0:0,0:0:0:0:
280,356,106179,1,8,0:0:0:0:
200,304,106345,1,0,3:0:0:0:
112,344,106512,2,0,L|33:349,1,65.8750012564659
200,280,106845,6,0,P|228:200|200:144,1,131.750002512932,6|0,0:0|0:0,0:0:0:0:
128,120,107345,1,0,3:0:0:0:
76,224,107512,2,0,L|164:212,1,65.8750012564659,8|0,0:0|0:0,0:0:0:0:
212,159,107845,1,0,0:0:0:0:
128,32,108012,6,0,P|116:76|116:112,2,65.8750012564659,2|0|0,0:0|0:0|0:0,0:0:0:0:
228,12,108512,1,0,3:0:0:0:
304,68,108679,2,0,L|376:60,1,65.8750012564659,0|8,0:0|0:0,0:0:0:0:
321,175,109012,2,0,L|256:168,1,65.8750012564659,0|0,3:0|0:0,0:0:0:0:
232,152,109512,6,0,P|200:216|216:292,1,131.750002512932,2|0,0:0|0:0,0:0:0:0:
272,328,110012,1,0,3:0:0:0:
160,204,110179,2,0,B|112:192|112:192|76:204|76:204|13:186,1,131.750002512932,8|0,0:0|0:0,0:0:0:0:
33,191,110679,1,0,0:0:0:0:
78,63,110845,5,8,0:0:0:0:
153,119,111012,1,8,0:3:0:0:
251,113,111179,1,8,0:3:0:0:
335,163,111345,1,8,0:3:0:0:
398,32,111512,5,2,0:0:0:0:
482,84,111679,1,8,0:3:0:0:
432,167,111845,1,0,3:0:0:0:
465,74,112012,1,0,3:0:0:0:
310,33,112179,6,0,P|252:9|178:39,1,131.750002512932,6|0,0:0|0:0,0:0:0:0:
166,223,112679,1,0,3:0:0:0:
246,140,112845,2,0,L|138:120,1,65.8750012564659,8|0,0:0|0:0,0:0:0:0:
90,160,113179,1,0,3:0:0:0:
152,307,113345,6,0,P|204:299|216:291,1,65.8750012564659,2|0,0:0|0:0,0:0:0:0:
321,258,113679,2,0,L|313:326,1,65.8750012564659,0|0,3:0|0:0,0:0:0:0:
383,178,114012,1,0,3:0:0:0:
458,295,114179,1,8,0:0:0:0:
512,217,114345,1,0,3:0:0:0:
470,140,114512,2,0,L|466:68,1,65.8750012564659
360,160,114845,6,0,P|304:168|240:128,1,131.750002512932,2|0,0:0|0:0,0:0:0:0:
208,48,115345,1,0,3:0:0:0:
136,100,115512,2,0,P|124:144|124:172,1,65.8750012564659,8|0,0:0|0:0,0:0:0:0:
64,232,115845,2,0,P|83:273|101:294,1,65.8750012564659,0|0,3:0|0:0,0:0:0:0:
224,344,116179,5,2,0:0:0:0:
288,275,116345,1,0,3:0:0:0:
197,256,116512,1,0,3:0:0:0:
287,296,116679,1,0,3:0:0:0:
371,244,116845,2,0,P|415:236|443:236,1,65.8750012564659,8|0,0:0|3:0,0:0:0:0:
306,169,117179,2,0,P|262:161|234:161,1,65.8750012564659,0|0,3:0|3:0,0:0:0:0:
111,240,117512,6,0,B|126:198|126:198|114:100,1,131.750002512932,6|0,0:0|3:0,0:0:0:0:
28,86,118012,1,0,3:0:0:0:
32,197,118179,2,0,L|17:273,1,65.8750012564659,8|0,0:0|0:0,0:0:0:0:
140,364,118512,6,0,B|176:341|176:341|274:356,1,131.750002512932,6|0,0:0|3:0,0:0:0:0:
400,371,119012,1,8,0:0:0:0:
340,301,119179,2,0,L|332:225,1,65.8750012564659,0|0,3:0|3:0,0:0:0:0:
386,157,119512,1,8,0:0:0:0:
468,195,119679,1,0,3:0:0:0:
501,110,119845,2,0,L|506:36,1,65.8750012564659,0|0,0:0|3:0,0:0:0:0:
326,14,120179,5,8,0:0:0:0:
326,14,120345,2,0,L|331:91,1,65.8750012564659,0|0,3:0|3:0,0:0:0:0:
185,84,120679,5,8,0:3:0:0:
185,84,120845,2,0,L|200:158,1,65.8750012564659,0|0,3:0|3:0,0:0:0:0:
51,36,121179,6,0,L|38:135,1,65.8750012564659,8|0,3:0|3:0,0:0:0:0:
136,280,121512,5,4,0:0:0:0:
112,189,121679,1,0,3:0:0:0:
112,189,121762,1,0,3:0:0:0:
112,189,121845,1,8,0:0:0:0:
36,252,122012,1,8,0:0:0:0:
212,204,122179,5,8,0:0:0:0:
88,108,122345,1,8,0:0:0:0:
36,252,122512,1,8,0:0:0:0:
212,204,122679,1,8,0:0:0:0:
160,360,122845,6,0,L|335:346,1,155,6|0,0:0|0:0,0:0:0:0:
456,284,123345,1,0,3:0:0:0:
372,156,123512,2,0,P|357:215|362:247,1,77.5,8|0,0:0|0:0,0:0:0:0:
303,62,123845,2,0,P|235:23|149:56,1,155,0|0,3:0|0:0,0:0:0:0:
220,124,124345,1,0,3:0:0:0:
80,167,124512,6,0,P|64:118|70:72,1,77.5,2|0,0:0|0:0,0:0:0:0:
176,256,124845,2,0,L|164:357,1,77.5,8|0,0:0|3:0,0:0:0:0:
220,124,125179,2,0,P|262:110|301:116,1,77.5,0|0,0:0|3:0,0:0:0:0:
408,222,125512,6,0,L|394:67,1,155,2|0,0:0|0:0,0:0:0:0:
496,175,126012,1,0,3:0:0:0:
333,271,126179,2,0,L|253:259,1,77.5,8|0,0:0|0:0,0:0:0:0:
100,134,126512,2,0,L|256:118,1,155,0|2,3:0|0:0,0:0:0:0:
427,60,127012,5,8,0:0:0:0:
338,12,127179,2,0,L|330:100,1,77.5,0|0,3:0|0:0,0:0:0:0:
321,260,127512,1,8,0:0:0:0:
388,180,127679,1,0,3:0:0:0:
382,339,127845,2,0,L|467:331,1,77.5,0|0,0:0|3:0,0:0:0:0:
244,335,128179,6,0,P|214:254|246:185,1,155,2|0,0:0|0:0,0:0:0:0:
321,260,128679,1,0,3:0:0:0:
173,129,128845,2,0,L|61:137,1,77.5,8|0,0:0|0:0,0:0:0:0:
222,229,129179,1,0,3:0:0:0:
256,72,129345,2,0,P|320:52|408:100,1,155,0|8,3:0|0:0,0:0:0:0:
376,272,129845,6,0,L|368:176,1,77.5,2|0,0:0|0:0,0:0:0:0:
496,88,130179,2,0,L|492:180,1,77.5,8|0,0:0|0:0,0:0:0:0:
368,80,130512,2,0,L|360:-12,1,77.5,0|0,3:0|0:0,0:0:0:0:
304,152,130845,6,0,B|208:168|208:168|144:136,1,155,2|0,0:0|0:0,0:0:0:0:
232,64,131345,1,0,3:0:0:0:
56,40,131512,2,8,L|72:224,1,155,8|0,0:0|0:0,0:0:0:0:
88,328,132012,1,8,0:0:0:0:
136,252,132179,5,2,0:0:0:0:
76,176,132345,2,0,L|-36:160,2,77.5,8|0|0,0:0|3:0|3:0,0:0:0:0:
232,108,132845,1,8,0:0:0:0:
135,86,133012,1,0,3:0:0:0:
240,132,133179,1,0,3:0:0:0:
317,29,133345,1,6,0:0:0:0:
429,74,133512,6,0,P|462:145|431:224,1,155,6|0,0:0|0:0,0:0:0:0:
329,218,134012,1,0,3:0:0:0:
391,329,134179,2,0,L|486:320,1,77.5,8|0,0:0|0:0,0:0:0:0:
297,362,134512,1,0,3:0:0:0:
211,315,134679,2,0,B|181:271|181:271|196:166,1,155,0|8,0:0|0:0,0:0:0:0:
343,94,135179,6,0,L|252:102,1,77.5,2|0,0:0|0:0,0:0:0:0:
133,16,135512,2,0,L|229:23,1,77.5,8|0,0:0|3:0,0:0:0:0:
164,158,135845,2,0,L|63:165,1,77.5,0|0,0:0|3:0,0:0:0:0:
30,306,136179,6,0,P|109:323|181:269,1,155,2|0,0:0|0:0,0:0:0:0:
201,182,136679,1,0,3:0:0:0:
278,284,136845,2,0,L|271:363,1,77.5,8|0,0:0|0:0,0:0:0:0:
392,266,137179,2,0,L|384:185,1,77.5,0|0,3:0|3:0,0:0:0:0:
340,57,137512,6,0,P|385:47|430:71,1,77.5,2|0,0:0|0:0,0:0:0:0:
276,184,137845,2,0,P|231:194|186:170,1,77.5,0|0,3:0|0:0,0:0:0:0:
375,155,138179,1,8,0:0:0:0:
254,44,138345,2,0,B|194:51|194:51|157:36|157:36|61:52,1,155,0|0,3:0|0:0,0:0:0:0:
129,267,138845,6,0,P|165:202|128:116,1,155,6|0,0:0|0:0,0:0:0:0:
63,193,139345,1,0,0:0:0:0:
235,283,139512,2,0,L|318:277,1,77.5,8|0,0:0|0:0,0:0:0:0:
402,137,139845,2,0,P|336:98|251:132,1,155,0|0,3:0|0:0,0:0:0:0:
400,233,140345,1,8,0:0:0:0:
492,187,140512,6,0,P|500:133|493:106,1,77.5,2|0,0:0|0:0,0:0:0:0:
309,15,140845,2,0,P|340:38|361:71,1,77.5,8|0,0:0|3:0,0:0:0:0:
217,124,141179,2,0,P|162:116|136:123,1,77.5,0|0,0:0|3:0,0:0:0:0:
292,287,141512,6,0,B|285:239|285:239|306:188|306:188|300:121,1,155,2|0,0:0|0:0,0:0:0:0:
372,252,142012,1,0,3:0:0:0:
307,370,142179,2,0,L|215:360,1,77.5,8|0,0:0|3:0,0:0:0:0:
105,256,142512,2,0,L|182:247,1,77.5,0|0,3:0|3:0,0:0:0:0:
311,148,142845,5,2,0:0:0:0:
287,245,143012,1,0,3:0:0:0:
221,76,143179,1,8,0:0:0:0:
197,173,143346,1,0,3:0:0:0:
311,72,143512,5,8,0:0:0:0:
213,27,143679,1,8,0:3:0:0:
130,91,143845,1,8,0:3:0:0:
39,47,144012,1,0,3:0:0:0:
43,219,144179,6,0,P|131:225|195:177,1,155,6|0,0:0|0:0,0:0:0:0:
244,117,144679,1,0,3:0:0:0:
233,261,144845,2,0,L|224:353,1,77.5,8|0,0:0|0:0,0:0:0:0:
303,198,145179,1,0,3:0:0:0:
383,252,145345,2,0,L|475:241,1,77.5,0|0,3:0|0:0,0:0:0:0:
360,116,145679,1,8,0:0:0:0:
360,116,145845,6,0,P|308:95|277:99,1,77.5,2|0,0:0|3:0,0:0:0:0:
154,239,146179,2,0,P|198:204|210:175,1,77.5,8|0,0:0|3:0,0:0:0:0:
148,11,146512,2,0,P|155:66|174:91,1,77.5,0|0,0:0|3:0,0:0:0:0:
361,194,146845,6,0,L|178:184,2,155,6|8|0,0:0|0:0|3:0,0:0:0:0:
442,130,147679,1,0,3:0:0:0:
487,222,147845,2,0,L|493:308,1,77.5,0|0,0:0|3:0,0:0:0:0:
368,336,148179,6,0,P|338:251|363:190,1,155,2|0,0:0|3:0,0:0:0:0:
512,115,148679,2,0,P|422:123|377:77,1,139.499995742798,2|0,0:0|3:0,0:0:0:0:
271,5,149179,2,0,P|303:76|279:135,1,124,2|6,0:0|0:0,0:0:0:0:
